osu file format v14

[General]
AudioFilename: 2-2.mp3
AudioLeadIn: 1500
PreviewTime: 67972
Countdown: 0
SampleSet: Soft
StackLeniency: 0.7
Mode: 0
LetterboxInBreaks: 0
WidescreenStoryboard: 0

[Editor]
DistanceSpacing: 1.18
BeatDivisor: 4
GridSize: 4
TimelineZoom: 3.199999

[Metadata]
Title:2/2
TitleUnicode:2/2
Artist:Hotaka Miyabi (CV:Imamura Ayaka) xTachibana Tomoe (CV:Suwa Ayaka)
ArtistUnicode:穂高みやび(CV:今村彩夏)×橘巴(CV:諏訪彩花)
Creator:Setsurei
Version:Hard
Source:アブソリュート・デュオ
Tags:Absolute Duo ED Ending 3rd third TV size 白戸佑輔 高瀬愛虹 awaryuu Hinsvar
BeatmapID:651805
BeatmapSetID:289106

[Difficulty]
HPDrainRate:6
CircleSize:3.5
OverallDifficulty:5
ApproachRate:7
SliderMultiplier:1.3
SliderTickRate:1

[Events]
//Background and Video events
0,0,"BG.jpg",0,0
//Break Periods
//Storyboard Layer 0 (Background)
//Storyboard Layer 1 (Fail)
//Storyboard Layer 2 (Pass)
//Storyboard Layer 3 (Foreground)
//Storyboard Sound Samples

[TimingPoints]
-1060,322.58064516129,4,2,1,30,1,0
10552,-100,4,2,1,50,0,0
68617,-100,4,2,1,50,0,1
84101,-100,4,2,1,50,0,0
86681,-100,4,2,2,50,0,0

[Colours]
Combo1 : 192,192,192
Combo2 : 70,57,145
Combo3 : 255,197,100
Combo4 : 138,78,60

[HitObjects]
140,48,230,6,0,P|205:40|269:48,1,130,14|0,0:0|0:0,0:0:0:0:
424,36,875,2,0,P|391:41|360:56,1,65,8|0,0:0|0:0,0:0:0:0:
312,116,1198,2,0,P|324:145|327:178,1,65
280,240,1520,5,8,0:0:0:0:
240,308,1681,1,0,0:0:0:0:
388,348,2004,1,0,0:0:0:0:
416,116,2488,1,8,0:0:0:0:
264,71,2810,6,0,P|204:47|140:47,1,130,8|8,0:0|0:0,0:0:0:0:
72,88,3294,1,0,0:0:0:0:
31,155,3456,2,0,P|51:182|60:212,1,65,8|0,0:0|0:0,0:0:0:0:
48,288,3778,2,0,P|71:310|101:322,1,65,8|0,0:0|0:0,0:0:0:0:
180,312,4101,5,8,0:0:0:0:
236,256,4262,1,0,0:0:0:0:
236,256,4423,2,0,L|299:241,1,65,8|0,0:0|0:0,0:0:0:0:
347,303,4746,2,0,P|376:246|354:186,1,130,0|4,0:0|0:0,0:0:0:0:
300,132,5230,1,0,0:0:0:0:
272,104,5310,1,0,0:0:0:0:
235,91,5391,6,0,P|171:97|127:143,1,130,6|0,0:0|0:0,0:0:0:0:
0,232,6036,2,0,L|64:222,1,65,8|0,0:0|0:0,0:0:0:0:
76,300,6359,2,0,L|135:274,1,65
208,248,6681,5,8,0:0:0:0:
278,282,6843,1,8,0:3:0:0:
333,227,7004,1,8,0:3:0:0:
297,157,7165,1,8,0:3:0:0:
220,170,7327,1,8,0:0:0:0:
76,112,7649,2,0,P|89:83|115:64,1,65,2|0,0:0|0:0,0:0:0:0:
240,24,7972,5,8,0:0:0:0:
367,51,8133,2,0,P|398:134|485:115,1,195,4|0,0:0|0:0,0:0:0:0:
143,331,9101,2,0,P|112:248|25:267,1,195,4|8,0:0|0:0,0:0:0:0:
8,140,9907,2,0,P|36:125|68:123,1,65,8|0,0:0|0:0,0:0:0:0:
140,156,10230,1,0,0:0:0:0:
204,112,10391,2,0,L|268:103,1,65,0|8,0:0|0:0,0:0:0:0:
412,168,10875,5,0,0:0:0:0:
412,325,11198,1,8,0:0:0:0:
277,246,11520,1,0,0:0:0:0:
457,245,11843,1,8,0:0:0:0:
321,324,12166,1,0,0:0:0:0:
322,168,12488,1,2,0:0:0:0:
168,172,12810,1,0,0:0:0:0:
112,228,12972,5,0,0:0:0:0:
112,228,13052,1,0,0:0:0:0:
112,228,13133,2,0,P|87:171|114:113,1,130,8|0,0:0|0:0,0:0:0:0:
264,72,13778,1,8,0:0:0:0:
336,47,13939,2,0,L|400:40,1,65
450,188,14423,2,0,L|322:168,1,130,8|0,0:0|0:0,0:0:0:0:
244,156,14907,1,0,0:0:0:0:
184,104,15069,1,8,0:0:0:0:
47,180,15391,2,0,P|34:241|68:295,1,130,0|4,0:0|0:0,0:0:0:0:
220,332,16036,5,0,0:0:0:0:
352,248,16359,1,8,0:0:0:0:
379,95,16681,2,0,P|350:81|318:76,1,65,0|2,0:0|0:0,0:0:0:0:
240,84,17004,1,8,0:0:0:0:
156,216,17327,2,0,L|94:196,1,65,0|2,0:0|0:0,0:0:0:0:
96,276,17649,2,0,L|157:295,1,65,8|2,0:0|0:0,0:0:0:0:
236,304,17972,1,0,0:0:0:0:
308,276,18133,1,0,0:0:0:0:
330,242,18214,1,0,0:0:0:0:
335,201,18294,6,0,P|323:138|276:97,1,130,8|0,0:0|0:0,0:0:0:0:
200,76,18778,1,0,0:0:0:0:
160,84,18859,1,0,0:0:0:0:
127,108,18939,2,0,P|91:160|95:223,1,130,8|0,0:0|0:0,0:0:0:0:
371,187,19585,5,4,0:0:0:0:
253,351,19746,1,0,0:0:0:0:
253,148,20230,1,4,0:0:0:0:
371,312,20391,1,0,0:0:0:0:
181,250,20875,5,4,0:0:0:0:
47,199,21198,2,0,P|47:167|52:135,1,65
76,60,21520,1,8,0:0:0:0:
228,24,21843,1,2,0:0:0:0:
380,56,22165,5,8,0:0:0:0:
465,185,22488,2,0,P|465:217|460:249,1,65,0|2,0:0|0:0,0:0:0:0:
436,324,22810,1,8,0:0:0:0:
284,360,23133,1,2,0:0:0:0:
132,328,23456,6,0,P|104:311|80:288,1,65,8|0,0:0|0:0,0:0:0:0:
39,219,23778,2,0,P|42:187|55:158,1,65
120,204,24101,1,8,0:0:0:0:
180,154,24262,2,0,P|193:183|196:216,2,65,0|2|0,0:0|0:0|0:0,0:0:0:0:
320,308,24907,5,0,0:0:0:0:
396,292,25069,2,0,P|426:282|452:263,1,65,8|0,0:0|0:0,0:0:0:0:
480,188,25391,1,0,0:0:0:0:
460,112,25552,1,0,0:0:0:0:
383,88,25714,2,0,P|352:94|326:113,1,65,2|0,0:0|0:0,0:0:0:0:
279,176,26036,6,0,P|218:195|155:185,1,130,4|2,0:0|0:0,0:0:0:0:
4,144,26681,1,8,0:0:0:0:
44,296,27004,1,2,0:0:0:0:
199,331,27327,2,0,P|263:339|321:311,1,130,8|2,0:0|0:0,0:0:0:0:
311,51,27972,2,0,P|248:42|191:71,1,130,8|2,0:0|0:0,0:0:0:0:
268,152,28456,1,0,0:0:0:0:
268,152,28536,1,0,0:0:0:0:
268,152,28617,6,0,P|295:205|247:243,1,130,8|2,0:0|0:0,0:0:0:0:
152,232,29101,1,0,0:0:0:0:
256,360,29585,1,2,0:0:0:0:
424,208,29907,5,2,0:0:0:0:
440,80,30069,1,2,0:0:0:0:
72,80,30552,5,8,0:0:0:0:
88,208,30714,1,0,0:0:0:0:
216,236,30875,1,2,0:0:0:0:
208,108,31036,1,0,0:0:0:0:
208,108,31117,1,0,0:0:0:0:
208,107,31198,6,0,P|263:74|327:71,1,130,4|2,0:0|0:0,0:0:0:0:
428,192,31843,1,8,0:0:0:0:
404,264,32004,1,0,0:0:0:0:
344,312,32165,1,2,0:0:0:0:
192,343,32488,2,0,P|128:343|79:302,1,130,8|2,0:0|0:0,0:0:0:0:
44,232,32972,1,0,0:0:0:0:
28,156,33133,1,8,0:0:0:0:
180,192,33456,1,2,0:0:0:0:
240,48,33778,6,0,P|293:83|324:140,1,130,8|2,0:0|0:0,0:0:0:0:
272,336,34423,2,0,P|218:300|187:243,1,130,8|2,0:0|0:0,0:0:0:0:
332,192,35069,1,8,0:0:0:0:
124,296,35552,1,0,0:0:0:0:
136,64,36036,1,2,0:0:0:0:
172,132,36198,5,0,0:0:0:0:
204,156,36278,1,0,0:0:0:0:
240,172,36359,2,0,P|303:181|361:154,1,130,8|2,0:0|0:0,0:0:0:0:
496,232,37004,2,0,P|433:223|375:250,1,130,8|2,0:0|0:0,0:0:0:0:
224,296,37649,1,8,0:0:0:0:
80,236,37972,2,0,P|69:205|64:173,1,65,2|0,0:0|0:0,0:0:0:0:
72,96,38294,1,8,0:0:0:0:
216,40,38617,1,2,0:0:0:0:
408,64,38939,6,0,P|345:76|292:42,1,130,4|2,0:0|0:0,0:0:0:0:
104,164,39585,2,0,P|167:177|220:143,1,130,4|2,0:0|0:0,0:0:0:0:
424,224,40230,2,0,P|361:211|308:245,1,130,4|2,0:0|0:0,0:0:0:0:
88,276,40875,2,0,P|151:263|204:297,1,130,4|2,0:0|0:0,0:0:0:0:
352,348,41520,5,8,0:0:0:0:
416,304,41681,1,0,0:0:0:0:
494,300,41843,1,2,0:0:0:0:
500,146,42165,2,0,B|504:116|504:116|484:64|432:54,1,130,0|2,0:0|0:0,0:0:0:0:
356,76,42649,2,0,P|292:87|227:81,1,130,0|0,0:0|0:0,0:0:0:0:
152,60,43133,1,2,0:0:0:0:
84,100,43294,2,0,B|60:144|60:144|52:184|53:223,1,130,0|0,0:0|0:0,0:0:0:0:
60,300,43778,1,2,0:0:0:0:
124,344,43939,1,0,0:0:0:0:
200,352,44101,6,0,B|250:350|250:350|288:337|322:316,1,130,8|2,0:0|0:0,0:0:0:0:
376,260,44585,2,0,B|396:212|444:200|444:200|458:167,1,130,0|8,0:0|0:0,0:0:0:0:
256,192,45230,1,12,0:0:0:0:
256,192,45391,12,4,46359,0:0:0:0:
190,257,46681,5,4,0:0:0:0:
404,312,46843,1,4,0:0:0:0:
408,80,47327,1,2,0:0:0:0:
344,36,47488,1,0,0:0:0:0:
188,12,47810,1,0,0:0:0:0:
188,12,47891,1,0,0:0:0:0:
188,12,47972,6,0,P|127:33|86:83,1,130,4|8,0:0|0:0,0:0:0:0:
239,107,48617,2,0,P|179:95|148:147,1,130,2|8,0:0|0:0,0:0:0:0:
144,224,49101,1,0,0:0:0:0:
180,292,49262,1,2,0:0:0:0:
332,292,49585,2,0,L|362:234,1,65,8|0,0:0|0:0,0:0:0:0:
396,164,49907,1,2,0:0:0:0:
288,48,50230,2,0,L|225:29,1,65,8|0,0:0|0:0,0:0:0:0:
196,100,50552,6,0,L|320:138,1,130,2|8,0:0|0:0,0:0:0:0:
332,292,51198,1,2,0:0:0:0:
256,312,51359,1,0,0:0:0:0:
180,292,51520,2,0,L|150:234,1,65,8|0,0:0|0:0,0:0:0:0:
120,160,51843,2,0,P|142:100|194:61,1,130,2|8,0:0|0:0,0:0:0:0:
352,64,52488,1,2,0:0:0:0:
420,204,52810,1,8,0:0:0:0:
344,340,53133,6,0,P|291:303|268:243,1,130,4|8,0:0|0:0,0:0:0:0:
260,164,53617,1,0,0:0:0:0:
265,86,53778,2,0,P|206:109|183:168,1,130,2|8,0:0|0:0,0:0:0:0:
56,259,54423,2,0,P|120:269|181:249,1,130,2|8,0:0|0:0,0:0:0:0:
333,209,55069,1,2,0:0:0:0:
445,316,55391,1,8,0:0:0:0:
484,164,55714,6,0,P|461:103|411:61,1,130,2|8,0:0|0:0,0:0:0:0:
339,38,56198,1,4,0:0:0:0:
232,216,56520,1,4,0:0:0:0:
28,163,56843,2,0,P|49:103|99:62,1,130,4|0,0:0|0:0,0:0:0:0:
173,38,57327,1,8,0:0:0:0:
320,88,57649,2,0,L|344:148,1,65,2|0,0:0|0:0,0:0:0:0:
372,224,57972,1,8,0:0:0:0:
276,348,58294,6,0,P|230:302|218:240,1,130,4|8,0:0|0:0,0:0:0:0:
232,164,58778,1,0,0:0:0:0:
212,88,58939,2,0,P|156:55|92:60,1,130,2|8,0:0|0:0,0:0:0:0:
120,216,59585,1,2,0:0:0:0:
240,316,59907,1,8,0:0:0:0:
396,291,60230,2,0,P|426:235|423:171,1,130,2|8,0:0|0:0,0:0:0:0:
392,100,60714,1,0,0:0:0:0:
316,91,60875,6,0,P|251:95|195:64,1,130,2|8,0:0|0:0,0:0:0:0:
120,48,61359,1,0,0:0:0:0:
139,123,61520,2,0,P|191:163|253:179,1,130,2|8,0:0|0:0,0:0:0:0:
332,184,62004,1,0,0:0:0:0:
348,260,62165,2,0,P|283:268|220:255,1,130,2|8,0:0|0:0,0:0:0:0:
148,228,62649,1,0,0:0:0:0:
84,184,62810,1,2,0:0:0:0:
196,64,63133,1,8,0:0:0:0:
320,156,63456,6,0,P|376:187|440:183,1,130,2|8,0:0|0:0,0:0:0:0:
460,260,63939,1,0,0:0:0:0:
459,260,64101,2,0,P|396:272|333:258,1,130,2|8,0:0|0:0,0:0:0:0:
284,320,64585,1,0,0:0:0:0:
284,320,64747,2,0,P|342:348|406:351,1,130,2|8,0:0|0:0,0:0:0:0:
396,160,65391,2,0,P|337:131|273:128,1,130,2|8,0:0|0:0,0:0:0:0:
196,148,65875,1,0,0:0:0:0:
140,204,66036,1,2,0:0:0:0:
256,192,66198,12,4,67650,0:0:0:0:
166,223,67972,6,0,P|159:191|166:159,1,65,6|0,0:0|0:0,0:0:0:0:
276,48,68456,1,0,0:0:0:0:
316,48,68536,1,0,0:0:0:0:
351,63,68617,6,0,P|387:117|393:181,1,130,4|2,0:0|0:0,0:0:0:0:
364,252,69101,1,0,0:0:0:0:
361,327,69262,2,0,P|303:301|286:241,1,130,8|2,0:0|0:0,0:0:0:0:
256,169,69746,1,0,0:0:0:0:
220,100,69907,2,0,B|198:67|198:67|125:52|108:66,1,130,8|2,0:0|0:0,0:0:0:0:
52,120,70391,1,8,0:0:0:0:
32,196,70552,2,0,P|34:259|79:303,1,130,8|2,0:0|0:0,0:0:0:0:
156,320,71036,1,0,0:0:0:0:
214,264,71198,6,0,P|256:215|319:211,1,130,8|2,0:0|0:0,0:0:0:0:
292,288,71681,1,0,0:0:0:0:
372,283,71843,2,0,P|396:263|404:232,1,65,8|0,0:0|0:0,0:0:0:0:
392,156,72165,2,0,L|370:94,1,65,2|0,0:0|0:0,0:0:0:0:
292,80,72488,2,0,P|259:79|229:67,1,65,8|0,0:0|0:0,0:0:0:0:
164,28,72810,1,2,0:0:0:0:
28,105,73133,1,8,0:0:0:0:
163,184,73456,1,2,0:0:0:0:
100,328,73778,6,0,P|160:348|222:330,1,130,4|2,0:0|0:0,0:0:0:0:
284,280,74262,1,0,0:0:0:0:
360,292,74423,2,0,B|388:292|388:292|432:264|451:214,1,130,8|2,0:0|0:0,0:0:0:0:
424,60,75069,2,0,P|363:39|300:55,1,130,8|2,0:0|0:0,0:0:0:0:
160,124,75714,1,8,0:0:0:0:
92,264,76036,1,2,0:0:0:0:
240,311,76359,6,0,P|300:289|338:238,1,130,8|2,0:0|0:0,0:0:0:0:
419,183,76843,2,0,P|368:146|304:146,1,130,4|4,0:0|0:0,0:0:0:0:
108,140,77488,2,0,P|159:177|223:177,1,130,4|0,0:0|0:0,0:0:0:0:
236,256,77972,2,0,P|171:260|109:241,1,130,2|4,0:0|0:0,0:0:0:0:
48,195,78456,1,8,0:3:0:0:
20,120,78617,1,2,0:0:0:0:
140,20,78939,6,0,L|204:29,1,65,12|0,0:0|0:0,0:0:0:0:
316,84,79262,2,0,L|251:92,1,65,2|0,0:0|0:0,0:0:0:0:
320,162,79585,2,0,P|376:134|394:73,1,130,8|2,0:0|0:0,0:0:0:0:
444,224,80230,2,0,P|387:256|324:268,1,130,8|2,0:0|0:0,0:0:0:0:
168,264,80875,1,8,0:0:0:0:
60,152,81198,1,2,0:0:0:0:
152,28,81520,6,0,L|216:40,1,65,8|0,0:0|0:0,0:0:0:0:
292,56,81843,1,2,0:0:0:0:
376,184,82165,2,0,P|315:206|251:203,1,130,8|2,0:0|0:0,0:0:0:0:
99,160,82810,2,0,P|69:169|43:189,1,65,8|0,0:0|0:0,0:0:0:0:
104,240,83133,1,2,0:0:0:0:
228,332,83456,1,8,0:0:0:0:
384,316,83778,1,2,0:0:0:0:
484,196,84101,6,0,B|481:155|481:155|446:119|436:79,1,130,8|2,0:0|0:0,0:0:0:0:
360,64,84585,1,0,0:0:0:0:
284,44,84746,2,0,P|222:64|158:60,1,130,8|2,0:0|0:0,0:0:0:0:
92,100,85230,1,0,0:0:0:0:
44,164,85391,2,0,B|44:205|20:249|20:249|28:289,1,130,8|2,0:0|0:0,0:0:0:0:
172,352,86036,2,0,P|203:344|233:331,1,65,8|0,0:0|0:0,0:0:0:0:
280,268,86359,1,0,0:0:0:0:
256,192,86520,1,0,0:0:0:0:
256,192,86681,12,2,87972,0:0:0:0:
