osu file format v14

[General]
AudioFilename: 2-2.mp3
AudioLeadIn: 1500
PreviewTime: 67972
Countdown: 0
SampleSet: Soft
StackLeniency: 0.7
Mode: 0
LetterboxInBreaks: 0
WidescreenStoryboard: 0

[Editor]
DistanceSpacing: 1.5
BeatDivisor: 2
GridSize: 4
TimelineZoom: 1.7

[Metadata]
Title:2/2
TitleUnicode:2/2
Artist:Hotaka Miyabi (CV:Imamura Ayaka) xTachibana Tomoe (CV:Suwa Ayaka)
ArtistUnicode:穂高みやび(CV:今村彩夏)×橘巴(CV:諏訪彩花)
Creator:Setsurei
Version:Easy
Source:アブソリュート・デュオ
Tags:Absolute Duo ED Ending 3rd third TV size 白戸佑輔 高瀬愛虹 awaryuu Hinsvar
BeatmapID:653110
BeatmapSetID:289106

[Difficulty]
HPDrainRate:2
CircleSize:2.5
OverallDifficulty:2
ApproachRate:3
SliderMultiplier:0.599999999999999
SliderTickRate:1

[Events]
//Background and Video events
0,0,"BG.jpg",0,0
//Break Periods
//Storyboard Layer 0 (Background)
//Storyboard Layer 1 (Fail)
//Storyboard Layer 2 (Pass)
//Storyboard Layer 3 (Foreground)
//Storyboard Sound Samples

[TimingPoints]
-1060,322.58064516129,4,2,1,30,1,0
10552,-100,4,2,1,50,0,0
68617,-100,4,2,1,50,0,1
84101,-100,4,2,1,50,0,0
86681,-100,4,2,2,50,0,0

[Colours]
Combo1 : 192,192,192
Combo2 : 70,57,145
Combo3 : 255,197,100
Combo4 : 138,78,60

[HitObjects]
181,127,230,6,0,P|156:74|104:47,1,120,14|8,0:0|0:0,0:0:0:0:
40,215,1520,2,0,P|63:300|141:339,1,180,8|8,0:0|0:0,0:0:0:0:
228,323,2810,2,0,P|284:305|344:306,2,120,8|8|8,0:0|0:0|0:0,0:0:0:0:
476,220,5069,1,4,0:0:0:0:
443,135,5391,6,0,P|386:70|298:66,1,180,6|0,0:0|0:0,0:0:0:0:
227,124,6681,2,0,P|158:179|69:186,1,180,8|2,0:0|0:0,0:0:0:0:
168,279,8133,6,0,P|210:266|248:242,1,89.9999999999999,4|0,0:0|0:0,0:0:0:0:
360,320,9101,2,0,P|380:280|390:236,1,89.9999999999999,4|8,0:0|0:0,0:0:0:0:
148,116,10552,6,0,P|195:81|255:78,1,120,8|8,0:0|0:0,0:0:0:0:
424,140,11843,2,0,P|376:174|316:177,1,120,8|2,0:0|0:0,0:0:0:0:
228,176,12810,1,0,0:0:0:0:
180,252,13133,2,0,P|146:223|138:180,2,89.9999999999999,8|0|0,0:0|0:0|0:0,0:0:0:0:
256,304,14423,2,0,B|272:316|292:300|292:300|312:320|340:324|340:324|368:280|407:276,1,180,8|0,0:0|0:0,0:0:0:0:
456,200,15714,6,0,B|456:152|472:96|472:96|428:92|404:67,1,180,4|0,0:0|0:0,0:0:0:0:
316,71,17004,2,0,P|234:107|147:90,1,180,8|0,0:0|0:0,0:0:0:0:
64,120,18294,2,0,P|34:171|29:230,1,120,8|8,0:0|0:0,0:0:0:0:
208,228,19585,1,4,0:0:0:0:
364,316,20230,1,4,0:0:0:0:
468,172,20875,6,0,B|412:160|380:124|380:124|336:132|306:106,1,180,4|2,0:0|0:0,0:0:0:0:
218,59,22165,2,0,P|214:146|280:204,1,180,8|2,0:0|0:0,0:0:0:0:
348,265,23456,2,0,B|352:312|312:352|312:352|272:352|233:331,1,180,8|2,0:0|0:0,0:0:0:0:
146,303,24746,2,0,B|124:300|112:272|112:272|72:268|60:228|60:228|28:220|26:186,1,180,0|2,0:0|0:0,0:0:0:0:
28,96,26036,6,0,P|98:64|103:141,1,180,4|2,0:0|0:0,0:0:0:0:
168,202,27327,2,0,P|201:153|209:94,1,120,8|8,0:0|0:0,0:0:0:0:
264,24,28294,1,2,0:0:0:0:
344,64,28617,6,0,P|388:60|430:44,2,89.9999999999999,8|0|2,0:0|0:0|0:0,0:0:0:0:
296,140,29907,1,2,0:0:0:0:
412,280,30552,2,0,P|395:304|372:324,1,59.9999999999999,8|2,0:0|0:0,0:0:0:0:
283,340,31198,6,0,B|252:340|224:316|224:316|194:338|152:304|152:304|117:304,1,180,4|2,0:0|0:0,0:0:0:0:
59,231,32488,2,0,P|52:173|71:116,1,120,8|8,0:0|0:0,0:0:0:0:
160,100,33456,1,2,0:0:0:0:
170,187,33778,6,0,P|222:161|247:108,1,120,8|8,0:0|0:0,0:0:0:0:
292,32,34746,1,2,0:0:0:0:
336,110,35069,2,0,P|368:79|382:37,2,89.9999999999999,8|0|2,0:0|0:0|0:0,0:0:0:0:
316,200,36359,6,0,P|304:258|267:304,1,120,8|8,0:0|0:0,0:0:0:0:
184,340,37327,1,2,0:0:0:0:
99,311,37649,2,0,P|66:263|59:203,1,120,8|8,0:0|0:0,0:0:0:0:
80,116,38617,1,2,0:0:0:0:
160,76,38939,6,0,L|276:44,1,120,4|4,0:0|0:0,0:0:0:0:
444,108,40230,2,0,L|328:140,1,120,4|4,0:0|0:0,0:0:0:0:
184,248,41520,6,0,P|150:201|148:142,1,120,8|0,0:0|0:0,0:0:0:0:
292,32,42810,2,0,P|326:80|328:140,1,120,8|0,0:0|0:0,0:0:0:0:
256,312,44101,2,0,P|222:341|178:348,1,89.9999999999999,8|0,0:0|0:0,0:0:0:0:
184,260,44907,1,0,0:0:0:0:
136,172,45230,2,0,P|110:89|194:109,1,210,12|4,0:0|0:0,0:0:0:0:
248,180,46681,5,4,0:0:0:0:
403,99,47327,2,0,P|395:71|379:46,1,59.9999999999999,2|8,0:0|0:0,0:0:0:0:
312,108,47972,6,0,P|273:85|228:81,2,89.9999999999999,4|0|8,0:0|0:0|0:0,0:0:0:0:
360,184,49262,2,0,B|367:213|400:252|400:252|360:260|351:275|344:292|309:290,1,180,2|8,0:0|0:0,0:0:0:0:
222,266,50552,2,0,P|143:232|71:280,1,180,2|8,0:0|0:0,0:0:0:0:
152,324,51843,2,0,L|131:145,1,180,2|8,0:0|0:0,0:0:0:0:
160,60,53133,6,0,B|172:36|212:32|212:32|256:60|325:56,1,180,4|8,0:0|0:0,0:0:0:0:
416,56,54423,2,0,B|436:60|464:44|464:44|500:120|463:166,1,180,2|8,0:0|0:0,0:0:0:0:
403,236,55714,6,0,P|365:258|321:260,1,89.9999999999999,2|4,0:0|0:0,0:0:0:0:
236,236,56520,1,4,0:0:0:0:
176,304,56843,2,0,P|145:237|173:170,1,150,4|2,0:0|0:0,0:0:0:0:
344,111,58294,6,0,P|384:92|418:64,2,89.9999999999999,4|0|8,0:0|0:0|0:0,0:0:0:0:
251,107,59585,2,0,P|166:82|78:95,1,180,2|8,0:0|0:0,0:0:0:0:
20,164,60875,2,0,B|8:192|12:224|12:224|48:232|64:252|64:252|56:288|66:309,1,180,2|8,0:0|0:0,0:0:0:0:
152,280,62165,2,0,B|184:280|208:260|208:260|240:284|268:264|296:244|321:254,1,180,2|8,0:0|0:0,0:0:0:0:
411,251,63456,6,0,P|450:206|460:148,1,120,2|2,0:0|0:0,0:0:0:0:
300,64,64746,2,0,B|220:76|220:76|193:104,1,120,2|2,0:0|0:0,0:0:0:0:
132,172,65714,1,8,0:0:0:0:
108,260,66036,2,0,B|128:273|164:261|164:261|196:280|200:308|200:308|244:337|304:276|304:276|332:292|363:283,1,299.999999999999,2|4,0:0|0:0,0:0:0:0:
344,196,67972,5,6,0:0:0:0:
207,80,68617,2,0,P|149:90|101:125,1,120,4|8,0:0|0:0,0:0:0:0:
84,216,69585,1,2,0:0:0:0:
152,276,69907,2,0,P|210:265|258:230,1,120,8|8,0:0|0:0,0:0:0:0:
328,172,70875,1,2,0:0:0:0:
395,111,71198,6,0,P|451:180|443:267,1,180,8|2,0:0|0:0,0:0:0:0:
391,339,72488,2,0,P|419:350|449:357,2,59.9999999999999,8|2|8,0:0|0:0|0:0,0:0:0:0:
316,292,73456,1,2,0:0:0:0:
244,236,73778,6,0,B|221:213|212:187|212:187|184:204|145:204|145:204|116:182|112:164,1,180,4|2,0:0|0:0,0:0:0:0:
76,84,75069,2,0,P|80:52|91:27,2,59.9999999999999,8|2|8,0:0|0:0|0:0,0:0:0:0:
164,80,76037,1,2,0:0:0:0:
251,96,76359,6,0,P|296:89|338:75,1,89.9999999999999,8|4,0:0|0:0,0:0:0:0:
416,28,77165,1,4,0:0:0:0:
456,108,77488,2,0,B|451:139|451:139|434:172|431:194,1,89.9999999999999,4|2,0:0|0:0,0:0:0:0:
420,284,78294,1,4,0:0:0:0:
248,335,78939,6,0,P|160:336|103:270,1,180,12|2,0:0|0:0,0:0:0:0:
51,196,80230,2,0,P|28:214|15:241,2,59.9999999999999,8|2|8,0:0|0:0|0:0,0:0:0:0:
128,148,81198,1,2,0:0:0:0:
216,136,81520,6,0,B|276:128|313:67|313:67|344:68|368:76,1,180,8|2,0:0|0:0,0:0:0:0:
440,132,82810,2,0,P|471:213|436:294,1,180,8|2,0:0|0:0,0:0:0:0:
351,324,84101,6,0,P|269:290|233:210,1,180,8|2,0:0|0:0,0:0:0:0:
246,118,85391,2,0,P|164:146|142:229,1,180,8|0,0:0|0:0,0:0:0:0:
256,192,86681,12,2,87972,0:0:0:0:
