osu file format v14

[General]
AudioFilename: AD ed3.mp3
AudioLeadIn: 2000
PreviewTime: 67709
Countdown: 0
SampleSet: Soft
StackLeniency: 0.7
Mode: 0
LetterboxInBreaks: 0
WidescreenStoryboard: 0

[Editor]
DistanceSpacing: 1
BeatDivisor: 4
GridSize: 4
TimelineZoom: 1

[Metadata]
Title:2/2
TitleUnicode:2/2
Artist:Hotaka Miyabi (CV:Imamura Ayaka) xTachibana Tomoe (CV:Suwa Ayaka)
ArtistUnicode:穂高みやび(CV:今村彩夏)×橘巴(CV:諏訪彩花)
Creator:Owntrolf
Version:Normal
Source:アブソリュート・デュオ
Tags:absolute duo ed ending 3rd tv size
BeatmapID:654131
BeatmapSetID:290349

[Difficulty]
HPDrainRate:3
CircleSize:3
OverallDifficulty:3
ApproachRate:4.5
SliderMultiplier:0.9
SliderTickRate:1

[Events]
//Background and Video events
0,0,"3.jpg",0,0
//Break Periods
//Storyboard Layer 0 (Background)
//Storyboard Layer 1 (Fail)
//Storyboard Layer 2 (Pass)
//Storyboard Layer 3 (Foreground)
//Storyboard Sound Samples

[TimingPoints]
210,322.58064516129,4,2,1,40,1,0
10532,-100,4,2,1,35,0,0
18274,-100,4,2,1,40,0,0
18919,-100,4,2,1,45,0,0
19564,-100,4,2,1,50,0,0
20855,-100,4,2,1,35,0,0
31177,-100,4,2,1,40,0,0
38919,-100,4,2,1,40,0,0
41500,-100,4,2,1,45,0,0
42790,-100,4,2,1,50,0,0
44080,-100,4,2,1,55,0,0
45209,-100,4,2,1,30,0,0
46661,-100,4,2,1,60,0,0
47306,-100,4,3,0,50,0,0
47951,-100,4,2,1,40,0,0
57306,-100,4,2,1,40,0,0
58274,-100,4,2,1,50,0,1
67629,-100,4,2,1,40,0,0
67951,-100,4,2,0,80,0,0
68597,-100,4,2,1,60,0,1
76339,-100,4,2,1,40,0,0
77951,-100,4,2,1,50,0,0
78919,-100,4,2,1,40,0,1
86661,-100,4,2,1,40,0,0

[Colours]
Combo1 : 146,81,217
Combo2 : 16,252,175
Combo3 : 244,244,244
Combo4 : 165,63,14

[HitObjects]
165,53,210,5,0,1:0:0:0:
144,159,532,1,8,0:0:0:0:
168,264,855,2,0,P|227:332|328:332,1,180,0|2,1:0|0:0,0:0:0:0:
333,298,1661,1,10,0:0:0:0:
276,228,1984,2,0,P|273:152|344:96,1,135,10|10,0:0|0:0,0:0:0:0:
399,49,2790,5,10,0:0:0:0:
443,147,3113,2,0,L|364:190,1,90,0|0,1:0|1:0,0:0:0:0:
330,293,3758,2,0,P|290:313|245:306,1,90,0|0,1:0|1:0,0:0:0:0:
212,264,4242,2,0,L|151:301,2,45,0|10|0,1:0|0:0|1:0,0:0:0:0:
224,212,4726,2,0,L|285:249,2,45,8|0|12,0:0|1:0|0:0,0:0:0:0:
176,116,5371,6,0,P|110:111|37:208,1,180,6|0,0:0|1:0,0:0:0:0:
143,218,6339,1,10,0:0:0:0:
252,228,6661,2,0,L|304:196,1,45,0|0,1:0|0:0,0:0:0:0:
290,150,6984,2,0,L|238:118,1,45,10|0,0:0|1:0,0:0:0:0:
251,72,7306,2,0,L|329:23,1,90,0|8,1:0|3:0,0:0:0:0:
412,88,7951,5,4,3:0:0:0:
444,131,8113,2,0,P|461:197|432:273,2,135,4|4|4,0:0|0:0|0:0,0:0:0:0:
312,36,9564,1,4,0:0:0:0:
196,80,10532,6,0,L|246:193,1,90,0|0,1:0|1:0,0:0:0:0:
330,208,11177,1,0,0:0:0:0:
388,117,11500,2,0,L|429:151,1,45,0|0,1:0|0:0,0:0:0:0:
464,180,11822,2,0,P|460:236|436:284,1,90,0|0,1:0|0:0,0:0:0:0:
340,280,12468,1,0,1:0:0:0:
266,202,12790,1,0,1:0:0:0:
201,288,13113,6,0,P|145:318|65:314,2,135,10|10|10,0:0|0:0|0:0,0:0:0:0:
309,288,14403,2,0,P|365:318|445:314,2,135,0|0|8,1:0|1:0|0:0,0:0:0:0:
284,184,15693,5,12,0:0:0:0:
226,93,16016,1,10,0:0:0:0:
181,63,16177,2,0,P|136:50|85:59,2,90,0|0|2,1:0|1:0|0:0,0:0:0:0:
174,118,16984,1,12,0:0:0:0:
154,224,17306,1,0,1:0:0:0:
208,320,17629,2,0,P|255:351|308:353,1,90,2|0,0:0|0:0,0:0:0:0:
380,300,18274,6,0,P|388:256|377:212,1,90,6|8,0:0|0:0,0:0:0:0:
269,212,18919,2,0,P|260:168|271:124,1,90,6|8,0:0|0:0,0:0:0:0:
379,124,19564,2,0,P|384:92|376:61,1,45,4|4,0:0|0:0,0:0:0:0:
232,24,20209,2,0,L|188:44,1,45,0|0,1:0|1:0,0:0:0:0:
141,193,20855,6,0,P|132:236|143:280,2,90,6|0|0,0:0|3:0|0:0,0:0:0:0:
244,160,21822,1,0,1:0:0:0:
348,188,22145,2,0,P|357:231|346:275,2,90,2|0|0,0:0|3:0|0:0,0:0:0:0:
316,84,23113,1,0,1:0:0:0:
208,84,23435,6,0,P|168:60|145:2,2,90,0|2|2,1:0|0:0|0:0,0:0:0:0:
236,188,24403,1,2,0:0:0:0:
336,232,24726,2,0,L|388:260,2,45,0|0|0,1:0|0:0|1:0,0:0:0:0:
348,124,25371,2,0,L|392:148,2,45,8|8|8,0:0|0:0|0:0,0:0:0:0:
280,40,26016,6,0,P|248:68|224:128,1,90,4|0,0:0|0:0,0:0:0:0:
280,204,26661,2,0,P|260:244|227:274,1,90,0|0,0:0|0:0,0:0:0:0:
124,312,27306,2,0,P|79:312|37:296,2,90,4|0|0,0:0|0:0|0:0,0:0:0:0:
148,207,28274,1,0,0:0:0:0:
172,102,28597,6,0,P|216:101|258:117,1,90,6|0,0:0|0:0,0:0:0:0:
302,148,29080,2,0,P|328:184|339:227,1,90,2|0,0:0|0:0,0:0:0:0:
335,282,29564,1,2,0:0:0:0:
228,272,29887,2,0,P|201:235|190:192,1,90,2|2,0:0|0:0,0:0:0:0:
190,84,30532,1,2,0:0:0:0:
100,140,30855,1,2,0:0:0:0:
92,248,31177,6,0,P|104:291|128:328,1,90,6|0,0:0|0:0,0:0:0:0:
237,329,31822,2,0,P|261:291|273:248,1,90,2|0,0:0|1:0,0:0:0:0:
302,144,32468,2,0,P|314:100|338:63,2,90,0|2|2,1:0|0:0|0:0,0:0:0:0:
380,220,33435,1,2,0:0:0:0:
458,144,33758,6,0,P|445:100|421:63,2,90,4|2|2,0:0|0:0|0:0,0:0:0:0:
456,252,34726,1,2,0:0:0:0:
362,200,35048,2,0,L|298:263,1,90,0|0,1:0|1:0,0:0:0:0:
257,298,35532,2,0,L|167:298,1,90,0|0,1:0|0:0,0:0:0:0:
128,260,36016,1,0,1:0:0:0:
60,176,36339,6,0,P|103:157|168:160,1,90,6|0,0:0|0:0,0:0:0:0:
252,172,36984,1,0,0:0:0:0:
328,95,37306,1,0,0:0:0:0:
435,95,37629,2,0,P|424:140|382:190,1,90,0|0,1:0|1:0,0:0:0:0:
323,252,38274,1,0,1:0:0:0:
399,328,38597,1,0,1:0:0:0:
296,364,38919,6,0,P|256:347|220:305,1,90,4|2,0:0|0:0,0:0:0:0:
180,216,39564,2,0,P|149:183|108:165,1,90,4|2,0:0|0:0,0:0:0:0:
32,89,40209,2,0,P|69:64|113:57,1,90,4|2,0:0|0:0,0:0:0:0:
204,116,40855,2,0,P|248:108|285:84,1,90,4|2,0:0|0:0,0:0:0:0:
386,44,41500,6,0,L|387:172,1,90,6|2,0:0|0:0,0:0:0:0:
310,210,42145,1,0,1:0:0:0:
202,210,42468,1,2,0:0:0:0:
202,264,42629,2,0,P|226:301|264:324,1,90,0|0,1:0|1:0,0:0:0:0:
373,313,43274,2,0,P|407:285|426:244,1,90,0|0,1:0|0:0,0:0:0:0:
430,190,43758,1,0,0:0:0:0:
426,82,44080,6,0,P|401:44|363:21,1,90,6|2,0:0|0:0,0:0:0:0:
309,21,44564,2,0,P|284:58|246:81,1,90,2|2,0:0|0:0,0:0:0:0:
256,192,45209,12,6,46661,0:0:0:0:
256,69,47306,5,4,3:0:0:0:
48,124,47951,6,0,P|73:197|156:245,1,135,6|0,0:0|0:0,0:0:0:0:
171,227,48597,2,0,L|252:172,1,90,2|0,0:0|0:0,0:0:0:0:
245,68,49242,1,0,0:0:0:0:
339,121,49564,1,0,0:0:0:0:
339,229,49887,2,0,P|361:267|399:290,1,90,2|0,0:0|1:0,0:0:0:0:
480,218,50532,6,0,P|457:179|419:156,1,90,2|0,0:0|0:0,0:0:0:0:
311,156,51177,1,0,1:0:0:0:
233,232,51500,1,0,0:0:0:0:
155,156,51822,2,0,P|126:216|127:256,1,90,10|0,0:0|0:0,0:0:0:0:
143,290,52306,2,0,P|171:324|211:345,1,90,10|4,0:0|0:0,0:0:0:0:
265,353,52790,1,8,0:0:0:0:
373,348,53113,6,0,P|419:322|442:249,1,90,4|2,0:0|0:0,0:0:0:0:
441,237,53597,2,0,P|466:200|506:180,2,90,0|0|2,1:0|1:0|0:0,0:0:0:0:
389,251,54403,1,0,1:0:0:0:
312,174,54726,1,0,1:0:0:0:
280,276,55048,2,0,P|236:288|187:263,1,90,2|2,0:0|0:0,0:0:0:0:
104,214,55693,6,0,L|20:158,1,90,2|2,0:0|0:0,0:0:0:0:
29,109,56177,2,0,L|113:53,1,90,2|2,0:0|0:0,0:0:0:0:
209,33,56822,2,0,P|257:44|294:146,1,135,6|6,0:0|0:0,0:0:0:0:
306,222,57629,1,2,0:0:0:0:
396,284,57951,1,2,0:0:0:0:
472,207,58274,6,0,P|424:176|384:172,1,90,6|0,0:0|0:0,0:0:0:0:
340,176,58758,2,0,L|274:205,1,45,0|0,0:0|1:0,0:0:0:0:
222,270,59242,1,0,0:0:0:0:
126,220,59564,2,0,L|46:168,2,90,2|0|0,0:0|0:0|1:0,0:0:0:0:
176,204,60371,2,0,L|190:115,1,90,0|0,0:0|0:0,0:0:0:0:
200,60,60855,5,2,0:0:0:0:
307,60,61177,1,0,0:0:0:0:
328,168,61500,2,0,L|342:256,1,90,0|0,1:0|0:0,0:0:0:0:
356,364,62145,2,0,P|269:336|235:252,1,180,2|0,0:0|1:0,0:0:0:0:
228,152,63113,1,0,0:0:0:0:
122,174,63435,6,0,L|18:198,2,90,6|0|0,0:0|0:0|1:0,0:0:0:0:
336,140,64726,2,0,P|312:224|217:264,1,180,2|0,0:0|1:0,0:0:0:0:
256,192,66016,12,8,67951,0:0:0:0:
264,164,68597,22,0,P|328:148|408:180,2,135,14|10|0,0:0|0:0|1:0,0:0:0:0:
164,208,69887,2,0,P|125:218|69:198,2,90,4|0|0,0:0|1:0|0:0,0:0:0:0:
176,100,70855,1,0,1:0:0:0:
264,164,71177,6,0,P|300:184|364:172,1,90,2|2,0:0|0:0,0:0:0:0:
452,148,71822,2,0,P|458:193|437:245,1,90,2|2,0:0|0:0,0:0:0:0:
415,281,72306,1,0,0:0:0:0:
374,316,72468,2,0,P|283:336|204:253,1,180,6|10,0:0|0:0,0:0:0:0:
173,190,73435,1,10,0:0:0:0:
266,135,73758,6,0,P|237:100|196:83,1,90,6|0,0:0|1:0,0:0:0:0:
144,84,74242,2,0,P|103:103|77:139,1,90,2|2,0:0|0:0,0:0:0:0:
77,247,74887,1,0,0:0:0:0:
115,285,75048,2,0,L|207:313,1,90,6|4,0:0|2:0,0:0:0:0:
277,234,75693,1,2,0:0:0:0:
200,157,76016,1,8,0:0:0:0:
276,80,76339,6,0,P|322:108|353:162,1,90,6|2,0:0|0:0,0:0:0:0:
367,184,76822,2,0,P|400:227|456:252,1,90,2|2,0:0|0:0,0:0:0:0:
472,344,77468,2,0,P|407:345|345:310,1,135,6|6,0:0|0:0,0:0:0:0:
287,221,78274,1,2,0:0:0:0:
363,144,78597,1,2,0:0:0:0:
287,67,78919,6,0,P|227:81|165:143,2,135,6|2|0,0:0|0:0|1:0,0:0:0:0:
395,70,80209,1,6,0:0:0:0:
460,156,80532,1,0,1:0:0:0:
396,244,80855,2,0,P|362:273|320:287,1,90,0|0,0:0|1:0,0:0:0:0:
212,280,81500,6,0,P|174:264|137:224,2,90,2|0|2,0:0|1:0|0:0,0:0:0:0:
272,192,82468,1,0,1:0:0:0:
272,84,82790,2,0,P|302:56|354:41,1,90,2|0,0:0|1:0,0:0:0:0:
442,95,83435,1,2,0:0:0:0:
348,152,83758,1,2,0:0:0:0:
440,204,84080,6,0,P|423:244|371:282,1,90,4|2,0:0|0:0,0:0:0:0:
304,300,84726,2,0,P|259:293|223:267,1,90,0|2,1:0|0:0,0:0:0:0:
188,184,85371,2,0,P|151:158|107:151,1,90,4|0,0:0|0:0,0:0:0:0:
40,212,86016,1,2,0:0:0:0:
48,300,86339,2,0,L|54:344,2,45,0|0|4,0:0|0:0|0:0,0:0:0:0:
256,192,86822,12,2,87898,0:0:0:0:
