osu file format v14

[General]
AudioFilename: AD ed3.mp3
AudioLeadIn: 2000
PreviewTime: 67709
Countdown: 0
SampleSet: None
StackLeniency: 0.7
Mode: 0
LetterboxInBreaks: 0
WidescreenStoryboard: 0

[Editor]
DistanceSpacing: 1.3
BeatDivisor: 4
GridSize: 4
TimelineZoom: 1

[Metadata]
Title:2/2
TitleUnicode:2/2
Artist:Hotaka Miyabi (CV:Imamura Ayaka) xTachibana Tomoe (CV:Suwa Ayaka)
ArtistUnicode:穂高みやび(CV:今村彩夏)×橘巴(CV:諏訪彩花)
Creator:Owntrolf
Version:Hard
Source:アブソリュート・デュオ
Tags:absolute duo ed ending 3rd tv size
BeatmapID:654130
BeatmapSetID:290349

[Difficulty]
HPDrainRate:5
CircleSize:4
OverallDifficulty:5
ApproachRate:7
SliderMultiplier:1.2
SliderTickRate:1

[Events]
//Background and Video events
0,0,"3.jpg",0,0
//Break Periods
//Storyboard Layer 0 (Background)
//Storyboard Layer 1 (Fail)
//Storyboard Layer 2 (Pass)
//Storyboard Layer 3 (Foreground)
//Storyboard Sound Samples

[TimingPoints]
210,322.58064516129,4,2,1,40,1,0
10532,-100,4,2,1,35,0,0
18274,-100,4,2,1,40,0,0
18919,-100,4,2,1,45,0,0
19564,-100,4,2,1,50,0,0
20855,-100,4,2,1,35,0,0
31177,-100,4,2,1,40,0,0
38919,-100,4,2,1,40,0,0
41500,-100,4,2,1,45,0,0
42790,-100,4,2,1,50,0,0
44080,-100,4,2,1,55,0,0
45209,-100,4,2,1,30,0,0
46661,-100,4,2,1,60,0,0
47145,-100,4,3,1,20,0,0
47306,-111.111111111111,4,3,0,50,0,0
47951,-125,4,2,1,40,0,0
57306,-111.111111111111,4,2,1,40,0,0
58274,-125,4,2,1,50,0,1
67629,-100,4,2,1,40,0,0
67951,-100,4,2,0,80,0,0
68113,-100,4,2,0,50,0,0
68597,-90.9090909090909,4,2,1,60,0,1
76339,-100,4,2,1,40,0,0
77951,-100,4,2,1,50,0,0
78919,-83.3333333333333,4,2,1,40,0,1
86661,-83.3333333333333,4,2,1,40,0,0

[Colours]
Combo1 : 146,81,217
Combo2 : 16,252,175
Combo3 : 244,244,244
Combo4 : 165,63,14

[HitObjects]
147,166,48,6,0,L|135:198,2,30,0|0|2,0:0|0:0|0:0,0:0:0:0:
248,48,532,2,0,P|282:96|292:155,1,120,8|0,0:0|1:0,0:0:0:0:
291,233,1016,1,0,1:0:0:0:
291,311,1177,2,0,P|307:345|334:371,1,60,8|0,0:0|0:0,0:0:0:0:
399,361,1500,6,0,P|418:337|429:310,1,60,2|10,0:0|0:0,0:0:0:0:
379,163,1984,2,0,P|346:212|291:233,1,120,10|0,0:0|0:0,0:0:0:0:
213,233,2468,1,10,0:0:0:0:
168,84,2790,6,0,P|111:101|76:149,1,120,10|0,0:0|1:0,0:0:0:0:
131,203,3274,1,0,0:0:0:0:
186,258,3435,2,0,P|151:305|94:323,1,120,0|0,1:0|1:0,0:0:0:0:
39,267,3919,1,0,0:0:0:0:
3,197,4080,5,0,1:0:0:0:
39,127,4242,2,0,L|98:66,2,60,0|10|0,1:0|0:0|1:0,0:0:0:0:
3,197,4726,2,0,P|60:204|104:268,1,120,8|12,0:0|0:0,0:0:0:0:
148,323,5209,5,0,1:0:0:0:
148,323,5290,1,0,0:0:0:0:
148,323,5371,2,0,P|191:360|268:338,1,120,6|10,0:0|0:0,0:0:0:0:
306,297,5855,1,0,1:0:0:0:
316,220,6016,2,0,L|282:95,1,120,0|10,1:0|0:0,0:0:0:0:
208,118,6500,1,0,0:0:0:0:
134,140,6661,6,0,L|166:263,1,120,0|10,1:0|0:0,0:0:0:0:
242,241,7145,1,0,1:0:0:0:
295,184,7306,2,0,P|341:178|404:238,1,120,0|8,1:0|3:0,0:0:0:0:
416,296,7790,1,4,3:0:0:0:
364,352,7951,5,4,3:0:0:0:
288,348,8113,2,0,P|208:296|188:200,1,180,4|4,0:0|0:0,0:0:0:0:
420,218,9080,1,4,0:0:0:0:
254,52,9564,1,4,0:0:0:0:
254,208,9887,2,0,L|254:275,1,60,2|2,0:0|0:0,0:0:0:0:
88,102,10532,6,0,L|9:115,2,60,0|0|0,1:0|0:0|1:0,0:0:0:0:
143,157,11016,2,0,L|195:225,1,60,0|0,0:0|1:0,0:0:0:0:
335,204,11500,2,0,L|344:144,1,60,0|0,1:0|0:0,0:0:0:0:
364,68,11822,6,0,P|415:110|412:180,1,120,0|0,1:0|0:0,0:0:0:0:
264,184,12468,2,0,P|272:241|319:276,1,120,0|0,1:0|1:0,0:0:0:0:
375,220,12951,1,0,0:0:0:0:
429,165,13113,6,0,P|480:207|477:277,1,120,10|0,0:0|1:0,0:0:0:0:
461,332,13597,2,0,P|442:356|405:384,1,60,10|0,0:0|0:0,0:0:0:0:
309,264,14080,1,10,0:0:0:0:
201,151,14403,6,0,P|199:210|225:264,1,120,0|0,1:0|0:0,0:0:0:0:
268,330,14887,1,0,1:0:0:0:
309,264,15048,2,0,L|373:319,2,60,10|0|8,0:0|1:0|0:0,0:0:0:0:
268,196,15532,1,0,0:0:0:0:
322,117,15693,6,0,P|268:94|213:116,1,120,12|10,0:0|0:0,0:0:0:0:
158,170,16177,2,0,L|111:207,1,60,0|0,1:0|0:0,0:0:0:0:
112,285,16500,2,0,L|158:323,1,60,0|0,1:0|0:0,0:0:0:0:
213,267,16822,1,2,0:0:0:0:
276,348,16984,6,0,P|307:308|310:232,1,120,12|0,0:0|0:0,0:0:0:0:
274,172,17468,1,8,0:0:0:0:
270,94,17629,2,0,P|280:55|296:29,2,60,0|0|0,0:0|1:0|0:0,0:0:0:0:
276,300,18274,6,0,P|321:322|392:289,1,120,6|8,0:0|0:0,0:0:0:0:
440,152,18919,2,0,P|394:129|323:162,1,120,6|8,0:0|0:0,0:0:0:0:
231,269,19564,6,0,P|205:289|153:281,1,60,4|4,0:0|0:0,0:0:0:0:
165,59,20209,1,0,1:0:0:0:
193,131,20371,1,0,1:0:0:0:
427,129,20855,6,0,L|506:157,2,60,6|2|0,0:0|0:0|3:0,0:0:0:0:
377,179,21339,2,0,L|317:235,1,60,0|0,1:0|0:0,0:0:0:0:
223,109,21822,1,0,1:0:0:0:
112,219,22145,6,0,L|54:277,2,60,2|0|0,0:0|0:0|3:0,0:0:0:0:
182,239,22629,2,0,L|259:262,1,60,0|0,1:0|0:0,0:0:0:0:
349,145,23113,1,0,1:0:0:0:
492,88,23435,6,0,P|500:148|480:227,1,120,0|2,1:0|0:0,0:0:0:0:
440,264,23919,1,0,1:0:0:0:
368,292,24080,2,0,L|356:380,2,60,2|0|2,0:0|1:0|0:0,0:0:0:0:
376,216,24564,1,0,0:0:0:0:
384,140,24726,6,0,P|330:103|265:106,1,120,0|0,1:0|1:0,0:0:0:0:
222,157,25209,1,0,0:0:0:0:
166,212,25371,2,0,P|106:209|59:174,1,120,8|8,0:0|0:0,0:0:0:0:
113,117,25855,1,8,0:0:0:0:
171,65,26016,6,0,P|230:67|277:102,1,120,4|0,0:0|0:0,0:0:0:0:
277,270,26661,2,0,P|324:305|383:307,1,120,0|0,0:0|0:0,0:0:0:0:
385,140,27306,6,0,P|337:105|278:102,2,120,4|0|0,0:0|0:0|0:0,0:0:0:0:
385,295,28274,2,0,P|350:286|326:254,1,60,0|0,0:0|0:0,0:0:0:0:
298,174,28597,6,0,P|270:121|217:93,1,120,6|0,0:0|0:0,0:0:0:0:
140,94,29080,1,2,0:0:0:0:
70,128,29242,2,0,P|96:179|148:207,1,120,0|0,3:0|0:0,0:0:0:0:
305,228,29887,6,0,L|243:291,2,60,2|0|2,0:0|0:0|0:0,0:0:0:0:
360,172,30371,1,0,0:0:0:0:
415,116,30532,2,0,L|476:179,2,60,2|0|2,0:0|0:0|0:0,0:0:0:0:
263,79,31177,6,0,P|242:128|256:200,1,120,6|0,0:0|0:0,0:0:0:0:
278,267,31661,1,0,0:0:0:0:
316,336,31822,2,0,P|288:346|259:342,1,60,2|0,0:0|0:0,0:0:0:0:
201,289,32145,2,0,P|172:284|145:295,1,60,0|0,1:0|0:0,0:0:0:0:
84,346,32468,6,0,P|64:286|114:225,1,120,0|2,1:0|0:0,0:0:0:0:
144,183,32951,1,0,0:0:0:0:
204,130,33113,2,0,P|224:189|199:242,1,120,2|2,0:0|0:0,0:0:0:0:
145,295,33597,1,0,0:0:0:0:
240,336,33758,6,0,P|275:343|307:327,1,60,4|0,0:0|0:0,0:0:0:0:
346,274,34080,2,0,P|375:265|404:273,1,60,2|0,0:0|0:0,0:0:0:0:
448,337,34403,2,0,P|477:287|461:221,1,120,2|2,0:0|0:0,0:0:0:0:
432,160,34887,1,0,0:0:0:0:
344,104,35048,6,0,P|320:162|352:222,1,120,0|0,1:0|1:0,0:0:0:0:
362,288,35532,2,0,P|354:317|334:338,1,60,0|0,1:0|0:0,0:0:0:0:
256,348,35855,1,0,0:0:0:0:
180,340,36016,2,0,P|187:311|207:289,1,60,0|2,1:0|0:0,0:0:0:0:
284,224,36339,6,0,P|308:172|306:106,2,120,6|0|0,0:0|0:0|0:0,0:0:0:0:
208,88,37306,1,0,0:0:0:0:
71,163,37629,6,0,P|46:179|28:203,2,60,0|0|0,1:0|0:0|1:0,0:0:0:0:
142,132,38113,1,0,1:0:0:0:
132,210,38274,2,0,P|180:243|239:248,1,120,0|0,1:0|1:0,0:0:0:0:
368,159,38919,6,0,P|327:116|271:97,1,120,4|2,0:0|0:0,0:0:0:0:
241,251,39564,2,0,P|201:294|145:313,1,120,4|2,0:0|0:0,0:0:0:0:
18,221,40209,6,0,P|58:177|115:159,1,120,4|2,0:0|0:0,0:0:0:0:
146,314,40855,2,0,P|199:365|271:375,1,120,4|2,0:0|0:0,0:0:0:0:
272,224,41500,6,0,P|221:193|192:141,1,120,6|2,0:0|0:0,0:0:0:0:
247,85,41984,1,0,0:0:0:0:
313,44,42145,2,0,P|345:64|363:103,1,60,0|0,1:0|0:0,0:0:0:0:
425,120,42468,1,2,0:0:0:0:
359,160,42629,6,0,P|337:192|302:211,1,60,0|0,1:0|0:0,0:0:0:0:
292,120,42951,2,0,P|264:132|235:133,1,60,0|2,1:0|0:0,0:0:0:0:
184,192,43274,2,0,P|169:278|215:353,1,180,0|2,1:0|0:0,0:0:0:0:
294,353,43919,1,0,0:0:0:0:
349,297,44080,5,6,0:0:0:0:
349,141,44403,1,2,0:0:0:0:
293,85,44564,1,2,0:0:0:0:
168,180,44887,1,2,0:0:0:0:
278,292,45209,2,0,B|344:276|372:216|372:216|481:213|492:81|413:46|413:46|355:20|280:60|288:148,1,540,6|6,0:0|0:0,0:0:0:0:
377,127,46822,1,4,0:0:0:0:
148,43,47306,5,4,3:0:0:0:
140,116,47468,2,0,P|142:164|193:205,1,107.999996704102,4|0,3:0|0:0,0:0:0:0:
256,216,47951,6,0,P|302:224|334:259,1,96,6|0,0:0|0:0,0:0:0:0:
351,329,48435,1,0,0:0:0:0:
282,349,48597,2,0,P|235:339|205:302,1,96,2|0,0:0|0:0,0:0:0:0:
186,234,49080,1,0,0:0:0:0:
134,284,49242,6,0,P|92:305|45:296,2,96,2|0|2,0:0|1:0|0:0,0:0:0:0:
186,234,50048,2,0,P|228:213|275:222,1,96,0|0,1:0|0:0,0:0:0:0:
332,264,50532,5,2,0:0:0:0:
357,333,50693,2,0,P|392:303|374:205,1,144,0|0,0:0|1:0,0:0:0:0:
332,161,51339,2,0,L|335:101,2,48
308,248,51822,6,0,P|280:272|216:273,1,96,2|0,0:0|0:0,0:0:0:0:
173,225,52306,1,0,0:0:0:0:
160,152,52468,2,0,P|127:150|102:169,1,48,0|0,1:0|0:0,0:0:0:0:
51,194,52790,2,0,P|36:222|42:253,1,48,0|0,1:0|0:0,0:0:0:0:
56,328,53113,6,0,L|90:361,1,48,4|0,0:0|0:0,0:0:0:0:
162,362,53435,1,2,0:0:0:0:
212,310,53597,2,0,L|259:264,1,48,0|2,1:0|0:0,0:0:0:0:
246,204,53919,2,0,L|211:170,1,48,0|0,1:0|0:0,0:0:0:0:
161,119,54242,1,2,0:0:0:0:
112,172,54403,6,0,L|182:242,1,96,0|0,1:0|1:0,0:0:0:0:
260,76,55048,2,0,L|296:41,1,48,2|0,0:0|0:0,0:0:0:0:
346,92,55371,2,0,L|310:127,1,48,2|0,0:0|0:0,0:0:0:0:
262,178,55693,6,0,L|226:213,2,48,2|2|2,0:0|0:0|0:0,0:0:0:0:
312,127,56177,1,2,0:0:0:0:
311,271,56500,1,2,0:0:0:0:
180,212,56822,2,0,P|164:268|193:364,1,144,6|6,0:0|0:0,0:0:0:0:
296,236,57629,2,0,L|350:286,2,53.9999983520508,2|2|2,0:0|0:0|0:0,0:0:0:0:
248,175,58113,1,2,0:0:0:0:
180,212,58274,6,0,P|132:193|98:137,1,96,6|0,0:0|0:0,0:0:0:0:
108,88,58758,1,0,0:0:0:0:
175,62,58919,2,0,P|219:78|249:115,1,96,0|0,1:0|0:0,0:0:0:0:
264,186,59403,1,0,0:0:0:0:
283,256,59564,6,0,P|314:258|382:218,2,96,2|0|0,0:0|0:0|1:0,0:0:0:0:
212,240,60371,1,0,0:0:0:0:
193,170,60532,2,0,L|178:102,1,48
168,52,60855,6,0,P|143:48|83:102,2,96,2|0|0,0:0|0:0|1:0,0:0:0:0:
304,100,61822,1,0,0:0:0:0:
384,220,62145,6,0,L|360:276,1,48,2|0,0:0|0:0,0:0:0:0:
300,300,62468,2,0,L|248:308,1,48,0|0,0:0|0:0,0:0:0:0:
180,312,62790,2,0,P|135:286|118:239,1,96,0|0,1:0|0:0,0:0:0:0:
118,102,63435,6,0,P|160:95|205:127,1,96,6|0,0:0|0:0,0:0:0:0:
268,252,64080,2,0,P|314:258|352:230,1,96,0|0,1:0|0:0,0:0:0:0:
287,102,64726,6,0,P|245:95|200:127,1,96,2|0,0:0|0:0,0:0:0:0:
182,272,65371,2,0,P|229:278|267:252,1,96,0|2,1:0|0:0,0:0:0:0:
256,192,66016,12,0,67629,0:0:0:0:
328,48,67951,21,12,0:0:0:0:
316,132,68113,2,0,P|292:184|232:228,1,120
160,264,68597,6,0,P|171:303|194:337,2,66.0000020141602,14|0|0,0:0|0:0|1:0,0:0:0:0:
156,180,69080,2,0,P|144:141|121:107,1,66.0000020141602,10|0,0:0|0:0,0:0:0:0:
60,72,69403,1,0,0:0:0:0:
44,155,69564,2,0,P|56:194|79:228,1,66.0000020141602,0|2,1:0|0:0,0:0:0:0:
124,280,69887,6,0,P|164:269|195:242,1,66.0000020141602,4|2,0:0|0:0,0:0:0:0:
244,196,70209,2,0,P|274:169|314:159,1,66.0000020141602,0|0,1:0|0:0,0:0:0:0:
384,144,70532,1,0,0:0:0:0:
468,152,70693,2,0,P|454:191|425:220,1,66.0000020141602,2|0,0:0|1:0,0:0:0:0:
364,252,71016,1,0,0:0:0:0:
280,256,71177,6,0,P|293:296|322:326,2,66.0000020141602,2|2|0,0:0|0:0|1:0,0:0:0:0:
268,172,71661,2,0,P|252:136|208:108,1,66.0000020141602,0|2,0:0|0:0,0:0:0:0:
152,88,71984,2,0,P|112:87|68:115,2,66.0000020141602,0|0|0,0:0|1:0|0:0,0:0:0:0:
260,124,72468,6,0,P|299:124|343:96,1,66.0000020141602,10|0,0:0|0:0,0:0:0:0:
385,54,72790,2,0,P|424:53|468:81,1,66.0000020141602,10|0,0:0|0:0,0:0:0:0:
469,146,73113,2,0,P|436:147|405:136,1,66.0000020141602,10|0,0:0|0:0,0:0:0:0:
323,114,73435,2,0,P|291:113|260:124,1,66.0000020141602,10|0,0:0|0:0,0:0:0:0:
172,196,73758,6,0,P|221:237|286:231,1,132.00000402832,6|0,0:0|1:0,0:0:0:0:
356,164,74242,2,0,L|356:248,1,66.0000020141602,2|0,0:0|0:0,0:0:0:0:
356,315,74564,2,0,P|317:339|276:345,2,66.0000020141602,2|0|0,0:0|1:0|0:0,0:0:0:0:
424,260,75048,6,0,L|472:212,1,66.0000020141602,6|0,0:0|0:0,0:0:0:0:
470,127,75371,2,0,L|415:78,1,66.0000020141602,4|0,2:0|0:0,0:0:0:0:
341,50,75693,6,0,L|189:30,2,132.00000402832,2|8|6,0:0|0:0|0:0,0:0:0:0:
446,158,76661,1,2,0:0:0:0:
390,213,76822,2,0,P|328:240|256:240,2,120,2|2|6,0:0|0:0|0:0,0:0:0:0:
446,158,77629,5,2,0:0:0:0:
390,102,77790,1,2,0:0:0:0:
308,164,77951,2,0,P|240:168|186:161,1,120,6|2,0:0|0:0,0:0:0:0:
138,102,78435,1,2,0:0:0:0:
61,121,78596,1,2,0:0:0:0:
116,178,78758,1,2,0:0:0:0:
28,264,78919,6,0,P|47:292|72:316,1,71.9999978027344,6|0,0:0|0:0,0:0:0:0:
165,344,79242,1,0,1:0:0:0:
260,328,79403,2,0,P|291:311|318:287,2,71.9999978027344,2|0|0,0:0|0:0|1:0,0:0:0:0:
221,242,79887,2,0,L|189:164,1,71.9999978027344,0|0,1:0|0:0,0:0:0:0:
205,54,80209,6,0,P|253:67|289:103,1,71.9999978027344,6|0,0:0|0:0,0:0:0:0:
298,170,80532,2,0,P|328:189|363:195,1,71.9999978027344,0|0,1:0|0:0,0:0:0:0:
457,186,80855,1,2,0:0:0:0:
409,266,81016,2,0,P|377:282|313:282,2,71.9999978027344,0|0|0,0:0|1:0|0:0,0:0:0:0:
476,164,81500,6,0,P|445:92|368:68,1,143.999995605469,2|0,0:0|1:0,0:0:0:0:
321,133,81984,1,0,0:0:0:0:
255,199,82145,2,0,P|191:168|166:102,1,143.999995605469,2|0,0:0|1:0,0:0:0:0:
233,35,82629,1,0,0:0:0:0:
299,101,82790,6,0,L|372:172,2,71.9999978027344,2|2|0,0:0|0:0|1:0,0:0:0:0:
233,35,83274,1,0,1:0:0:0:
167,102,83435,2,0,L|94:173,1,71.9999978027344,2|0,0:0|0:0,0:0:0:0:
115,245,83758,2,0,L|188:316,1,71.9999978027344,2|0,0:0|0:0,0:0:0:0:
260,288,84080,6,0,L|311:338,2,71.9999978027344,4|0|2,0:0|0:0|0:0,0:0:0:0:
260,193,84564,1,2,0:0:0:0:
353,193,84726,2,0,P|386:205|449:186,2,71.9999978027344,0|0|2,1:0|0:0|0:0,0:0:0:0:
353,98,85209,1,0,0:0:0:0:
260,193,85371,6,0,P|291:263|369:286,1,143.999995605469,4|0,0:0|0:0,0:0:0:0:
482,154,86016,1,2,0:0:0:0:
316,64,86339,1,0,0:0:0:0:
238,113,86500,1,0,0:0:0:0:
320,157,86661,5,4,0:0:0:0:
256,192,86822,12,2,87898,0:0:0:0:
