osu file format v14

[General]
AudioFilename: Medley Top Hot 2017 ft Wany Hasrita.mp3
AudioLeadIn: 0
PreviewTime: 35747
Countdown: 0
SampleSet: Normal
StackLeniency: 0.7
Mode: 0
LetterboxInBreaks: 1
WidescreenStoryboard: 0

[Editor]
Bookmarks: 271357
DistanceSpacing: 0.5
BeatDivisor: 4
GridSize: 32
TimelineZoom: 1.2

[Metadata]
Title:Medley Top Hot 2017 ft. Warny Hasrita
TitleUnicode:Medley Top Hot 2017 ft. Warny Hasrita
Artist:HotFM
ArtistUnicode:HotFM
Creator:KecHik445
Version:Marathon
Source:
Tags:ajl cover hotfm gegar vaganza
BeatmapID:1495580
BeatmapSetID:707222

[Difficulty]
HPDrainRate:6
CircleSize:4
OverallDifficulty:8.4
ApproachRate:9
SliderMultiplier:1.8
SliderTickRate:1

[Events]
//Background and Video events
0,0,"hotfm.jpg",0,0
//Break Periods
2,198125,201059
//Storyboard Layer 0 (Background)
//Storyboard Layer 1 (Fail)
//Storyboard Layer 2 (Pass)
//Storyboard Layer 3 (Foreground)
//Storyboard Sound Samples

[TimingPoints]
1841,461.538461538462,4,1,0,100,1,0
5533,-100,4,1,0,100,0,1
20302,-100,4,1,0,100,0,0
22033,428.571428571429,4,1,0,100,1,1
35747,-100,4,1,0,100,0,0
37461,444.444444444444,4,1,0,100,1,0
40854,461.538461538462,4,1,0,100,1,0
40854,-83.3333333333333,4,1,0,100,0,0
42314,480,4,1,0,100,1,0
43274,-76.9230769230769,4,1,0,100,0,1
44714,483.870967741935,4,1,0,100,1,1
45197,-100,4,1,0,100,0,1
52939,-100,4,1,0,100,0,0
56326,-200,4,1,0,100,0,0
56810,-100,4,1,0,100,0,0
59230,483.870967741935,4,1,0,100,1,0
61165,-100,4,1,0,100,0,1
76165,-100,4,1,0,100,0,0
76647,483.870967741935,4,1,0,100,1,0
77614,-133.333333333333,4,1,0,100,0,0
99388,500,4,1,0,100,1,0
100388,508.474576271186,4,1,0,100,1,0
101404,500,4,1,0,100,1,0
103404,333.333333333333,4,1,0,100,1,0
105404,500,4,1,0,100,1,1
113779,-100,4,1,0,5,0,1
113904,-100,4,1,0,100,0,1
121404,333.333333333333,4,1,0,100,1,0
123404,600,4,1,0,100,1,0
124904,-100,4,1,0,50,0,0
125204,-100,4,1,0,100,0,0
126704,-100,4,1,0,50,0,0
126854,-100,4,1,0,100,0,0
128204,-100,4,1,0,100,0,1
137804,-100,4,1,0,100,0,0
140204,428.571428571429,4,1,0,100,1,0
141918,-125,4,1,0,100,0,0
143632,-100,4,1,0,100,0,0
163346,-133.333333333333,4,1,0,100,0,0
169346,-117.647058823529,4,1,0,100,0,0
169668,-117.647058823529,4,1,0,5,0,0
169775,-117.647058823529,4,1,0,100,0,0
170096,-117.647058823529,4,1,0,5,0,0
170204,-117.647058823529,4,1,0,100,0,0
170525,-117.647058823529,4,1,0,5,0,0
170632,-117.647058823529,4,1,0,100,0,0
170954,-117.647058823529,4,1,0,5,0,0
171060,447.761194029851,4,1,0,100,1,0
199716,447.761194029851,4,1,0,100,1,0
202402,-133.333333333333,4,1,0,100,0,0
228372,447.761194029851,4,1,0,100,1,0

[Colours]
Combo1 : 0,255,255
Combo2 : 255,0,0
Combo3 : 0,255,0
Combo4 : 255,255,0
Combo5 : 255,0,255

[HitObjects]
186,28,1841,6,0,P|130:56|114:92,1,90
113,91,2187,1,0,0:0:0:0:
111,104,2302,1,0,0:0:0:0:
174,202,2533,1,0,0:0:0:0:
77,268,2764,6,0,P|133:296|149:332,1,90
150,331,3110,1,0,0:0:0:0:
152,344,3225,1,0,0:0:0:0:
260,300,3456,1,0,0:0:0:0:
386,347,3687,6,0,B|451:305|451:305|470:238,1,135
340,261,4148,2,0,B|416:277|416:277|466:249,1,135
369,168,4610,2,0,B|411:233|411:233|466:249,1,135
454,123,5071,2,0,B|438:199|438:199|466:249,1,135
451,315,5533,5,0,0:0:0:0:
338,346,5764,1,0,0:0:0:0:
338,346,5879,1,0,0:0:0:0:
338,346,5994,2,0,P|297:352|243:349,1,90
127,271,6456,1,0,0:0:0:0:
215,194,6687,1,0,0:0:0:0:
215,194,6917,6,0,P|236:233|242:277,1,90
38,350,7379,2,0,P|16:311|11:267,1,90
63,93,7841,2,0,P|84:132|90:176,1,90
230,207,8302,2,0,P|208:167|202:123,1,90
208,106,8648,1,0,0:0:0:0:
219,91,8764,5,0,0:0:0:0:
336,134,8994,1,0,0:0:0:0:
456,94,9225,2,0,P|430:48|381:24,2,90
444,210,9917,1,0,0:0:0:0:
444,210,10033,1,0,0:0:0:0:
444,210,10148,2,0,L|468:312,1,90
354,338,10610,1,0,0:0:0:0:
263,264,10841,1,0,0:0:0:0:
351,151,11071,6,0,P|261:122|167:160,1,180
94,260,11764,2,0,P|184:289|278:251,1,180
274,257,12341,1,0,0:0:0:0:
285,250,12456,1,0,0:0:0:0:
351,151,12687,1,0,0:0:0:0:
379,340,12917,6,0,P|366:298|376:255,1,90
467,100,13379,2,0,P|480:142|471:186,1,90
351,151,13841,1,0,0:0:0:0:
227,78,14071,1,0,0:0:0:0:
198,255,14302,1,0,0:0:0:0:
254,173,14533,1,0,0:0:0:0:
254,173,14764,6,0,P|205:178|158:169,1,90
75,95,15225,1,0,0:0:0:0:
75,95,15341,1,0,0:0:0:0:
75,95,15456,2,0,P|80:144|71:191,1,90
15,286,15917,1,0,0:0:0:0:
146,344,16148,1,0,0:0:0:0:
279,290,16379,1,0,0:0:0:0:
411,346,16610,1,0,0:0:0:0:
256,192,16725,12,0,17533,0:0:0:0:
497,98,17764,5,0,0:0:0:0:
366,40,17995,1,0,0:0:0:0:
233,94,18226,1,0,0:0:0:0:
256,192,18456,12,0,20302,0:0:0:0:
66,124,21167,5,0,0:0:0:0:
84,124,21398,1,0,0:0:0:0:
117,124,21610,1,0,0:0:0:0:
161,124,21802,1,0,0:0:0:0:
226,43,22033,6,0,P|191:113|238:200,1,180
341,243,22675,1,0,0:0:0:0:
341,243,22783,1,0,0:0:0:0:
341,243,22890,2,0,P|336:313|308:347,1,90
227,267,23318,1,0,0:0:0:0:
90,330,23533,2,0,P|133:345|178:342,1,90
146,229,23961,6,0,P|103:214|58:217,2,90
253,180,24604,1,0,0:0:0:0:
349,246,24818,1,0,0:0:0:0:
465,207,25033,1,0,0:0:0:0:
465,207,25247,2,0,P|428:118|461:41,1,180
341,60,25890,5,0,0:0:0:0:
341,60,26104,2,0,P|252:97|175:64,1,180
54,44,26747,1,0,0:0:0:0:
54,44,26961,2,0,L|31:138,1,90
140,301,27390,1,0,0:0:0:0:
140,301,27497,1,0,0:0:0:0:
140,301,27604,6,0,P|150:258|137:216,1,90
233,148,28033,1,0,0:0:0:0:
323,292,28247,1,0,0:0:0:0:
323,193,28461,1,0,0:0:0:0:
233,337,28675,1,0,0:0:0:0:
413,337,28890,1,0,0:0:0:0:
413,337,29104,6,0,P|467:344|505:325,1,90
489,158,29533,1,0,0:0:0:0:
451,252,29747,1,0,0:0:0:0:
451,64,29961,1,0,0:0:0:0:
263,64,30175,1,0,0:0:0:0:
357,26,30390,1,0,0:0:0:0:
225,158,30604,1,0,0:0:0:0:
263,252,30819,1,0,0:0:0:0:
106,321,31033,6,0,L|146:240,1,90
157,76,31461,2,0,P|75:104|42:185,1,180
160,267,32104,1,0,0:0:0:0:
160,267,32318,1,0,0:0:0:0:
354,76,32747,2,0,P|436:104|470:185,1,180
352,267,33390,1,0,0:0:0:0:
352,267,33604,1,0,0:0:0:0:
256,192,34033,12,0,35747,0:0:0:0:
128,192,35961,5,0,0:0:0:0:
220,136,36175,2,0,L|220:81,2,45
384,192,36604,5,0,0:0:0:0:
292,248,36818,2,0,L|292:303,2,45
256,64,37461,5,0,0:0:0:0:
256,64,40854,2,0,B|205:175|302:175|255:291,1,215.999993408203
131,344,42314,1,0,0:0:0:0:
104,307,42434,1,0,0:0:0:0:
105,264,42554,1,0,0:0:0:0:
119,221,42674,1,0,0:0:0:0:
110,177,42794,1,0,0:0:0:0:
78,146,42914,1,0,0:0:0:0:
74,103,43034,1,0,0:0:0:0:
98,66,43154,1,0,0:0:0:0:
140,53,43274,6,0,B|200:88|200:88|258:61,1,116.999994644165
343,130,43634,1,0,0:0:0:0:
343,130,43754,2,0,B|296:123|296:123|234:155,1,116.999994644165
208,226,44114,1,0,0:0:0:0:
208,226,44234,2,0,B|246:279|238:337|238:337|302:319|302:319|359:350,1,233.999989288331
371,349,44834,1,0,0:0:0:0:
397,346,44954,1,0,0:0:0:0:
485,231,45197,6,0,P|437:242|394:234,1,90
288,190,45681,1,0,0:0:0:0:
288,190,45923,1,0,0:0:0:0:
384,123,46165,2,0,L|442:128,2,45
283,61,46649,1,0,0:0:0:0:
283,61,46891,1,0,0:0:0:0:
140,39,47133,2,0,L|189:139,1,90
51,219,47617,2,0,L|91:139,2,90
129,330,48343,1,0,0:0:0:0:
129,330,48584,6,0,P|171:341|226:331,1,90
318,219,49068,2,0,P|274:207|230:214,1,90
140,214,49431,1,0,0:0:0:0:
140,214,49552,2,0,P|171:176|188:132,1,90
243,68,49915,1,0,0:0:0:0:
243,68,50036,2,0,P|260:109|289:143,1,90
406,135,50520,5,0,0:0:0:0:
420,157,50641,1,0,0:0:0:0:
433,180,50762,1,0,0:0:0:0:
429,278,51004,2,0,L|476:257,3,45
337,327,51488,2,0,L|384:348,3,45
240,288,51972,2,0,L|254:337,3,45
213,201,52455,1,0,0:0:0:0:
177,208,52576,1,0,0:0:0:0:
141,215,52697,1,0,0:0:0:0:
105,222,52818,1,0,0:0:0:0:
69,230,52939,5,0,0:0:0:0:
69,230,54391,5,0,0:0:0:0:
37,52,54875,1,0,0:0:0:0:
37,52,56326,6,0,B|60:52|60:52|72:63|72:63|90:53|90:53|103:68|123:58,1,90
150,103,57052,1,0,0:0:0:0:
217,31,57294,1,0,0:0:0:0:
266,164,57536,1,0,0:0:0:0:
380,32,57778,1,0,0:0:0:0:
431,280,58020,1,0,0:0:0:0:
439,137,58262,1,0,0:0:0:0:
285,348,58504,1,0,0:0:0:0:
73,274,58746,1,0,0:0:0:0:
256,192,58867,12,0,60318,0:0:0:0:
256,192,60802,5,0,0:0:0:0:
330,46,61165,2,0,P|364:105|435:135,1,135
460,215,61649,2,0,L|389:338,1,135
317,281,62133,1,0,0:0:0:0:
118,242,62496,1,0,0:0:0:0:
97,329,62617,2,0,P|170:319|211:273,1,135
193,60,63100,6,0,L|236:189,1,135
172,137,63584,2,0,P|99:125|23:148,1,135
31,229,64068,2,0,B|113:229|76:353|165:353,1,180
147,351,65036,1,0,0:0:0:0:
322,351,65399,1,0,0:0:0:0:
322,351,65520,6,0,P|281:294|322:195,1,180
459,173,66367,1,0,0:0:0:0:
451,83,66488,2,0,L|322:31,1,135
240,60,66971,2,0,P|256:128|226:192,1,135
118,173,67455,5,0,0:0:0:0:
39,229,67617,1,0,0:0:0:0:
61,322,67778,1,0,0:0:0:0:
155,335,67939,1,0,0:0:0:0:
197,249,68100,1,0,0:0:0:0:
293,249,68262,1,0,0:0:0:0:
330,337,68423,2,0,P|297:300|447:257,1,315
370,271,69391,6,0,L|337:124,1,135
282,33,69875,2,0,L|253:165,1,135
206,243,70359,2,0,P|126:285|56:239,1,180
105,30,71205,1,0,0:0:0:0:
105,30,71326,6,0,P|139:92|128:204,1,180
215,352,72173,1,0,0:0:0:0:
215,352,72294,2,0,P|181:290|192:178,1,180
306,52,73141,5,0,0:0:0:0:
306,52,73262,2,0,L|443:98,1,135
506,149,73746,2,0,L|369:195,1,135
288,187,74229,5,0,0:0:0:0:
205,99,74391,1,0,0:0:0:0:
90,132,74552,1,0,0:0:0:0:
288,187,74713,1,0,0:0:0:0:
175,142,74875,1,0,0:0:0:0:
85,220,75036,1,0,0:0:0:0:
288,187,75197,5,0,0:0:0:0:
166,193,75359,1,0,0:0:0:0:
117,302,75520,1,0,0:0:0:0:
288,187,75681,1,0,0:0:0:0:
179,243,75843,1,0,0:0:0:0:
181,363,76004,1,0,0:0:0:0:
295,329,76165,1,0,0:0:0:0:
322,69,77614,6,0,P|255:53|188:69,1,135.000005149842
87,38,78582,2,0,P|116:94|113:177,1,135.000005149842
72,263,79550,2,0,L|0:282,2,67.5000025749208
177,287,80517,1,0,0:0:0:0:
449,335,81001,6,0,P|383:331|339:283,1,135.000005149842
385,127,81969,1,0,0:0:0:0:
385,127,82453,2,0,L|420:259,2,135.000005149842
293,68,83905,1,0,0:0:0:0:
170,124,84388,1,0,0:0:0:0:
212,280,84872,6,0,P|78:302|16:198,1,270.000010299683
149,179,86324,2,0,P|283:157|345:261,1,270.000010299683
437,314,87776,1,0,0:0:0:0:
507,199,88259,2,0,L|459:54,1,135.000005149842
304,42,89227,1,0,0:0:0:0:
304,42,89711,6,0,L|166:70,1,135.000005149842
107,187,90679,2,0,L|245:159,1,135.000005149842
342,191,91646,1,0,0:0:0:0:
306,293,92130,1,0,0:0:0:0:
174,322,92614,6,0,P|108:340|39:311,2,135.000005149842
160,173,94066,2,0,L|120:234,2,67.5000025749208
211,77,95034,1,0,0:0:0:0:
105,56,95517,1,0,0:0:0:0:
38,141,96001,1,0,0:0:0:0:
76,242,96485,1,0,0:0:0:0:
210,245,96969,6,0,L|281:245,1,67.5000025749208
256,192,97453,12,0,99388,0:0:0:0:
256,192,99513,12,0,100388,0:0:0:0:
256,192,100515,12,0,101404,0:0:0:0:
256,192,101529,12,0,102404,0:0:0:0:
256,192,102529,12,0,103404,0:0:0:0:
172,148,103737,6,0,L|155:244,1,90
355,236,104070,2,0,L|340:148,1,90
256,329,104404,1,0,0:0:0:0:
112,64,105404,6,0,P|98:132|52:177,1,135
10,230,105904,2,0,L|161:216,1,135
188,211,106404,1,0,0:0:0:0:
305,74,106737,2,0,P|390:78|413:109,2,120
341,185,107654,1,0,0:0:0:0:
322,318,107904,1,0,0:0:0:0:
57,334,108404,6,0,L|147:323,1,90
213,354,108737,2,0,L|202:264,1,90
235,197,109070,2,0,L|145:208,1,90
126,231,109404,2,0,P|66:113|21:169,1,240
214,48,110279,5,0,0:0:0:0:
214,48,110404,2,0,L|352:43,1,135
458,86,111029,1,0,0:0:0:0:
456,265,111279,1,0,0:0:0:0:
464,184,111404,2,0,P|404:201|375:272,1,135
315,346,111904,6,0,B|224:351|224:351|121:340,1,180
104,163,112716,1,0,0:0:0:0:
39,281,113029,1,0,0:0:0:0:
205,228,113341,2,0,B|295:180|334:249|406:211,1,202.5
412,44,114279,1,0,0:0:0:0:
412,44,114404,6,0,P|451:102|450:145,1,90
443,136,114737,2,0,L|315:140,1,120
142,143,115404,1,0,0:0:0:0:
23,32,115654,2,0,P|69:45|103:80,1,90
31,240,116404,6,0,P|63:298|132:326,1,120
302,336,117070,2,0,P|269:277|214:247,1,120
79,215,117737,1,0,0:0:0:0:
249,45,118279,5,0,0:0:0:0:
249,45,118404,2,0,L|275:100,1,60
382,96,118737,2,0,L|361:153,1,60
439,226,119070,2,0,L|384:252,1,60
256,192,119404,12,0,121404,0:0:0:0:
178,125,121737,6,0,P|130:139|84:126,1,90
334,125,122070,2,0,P|382:139|428:126,1,90
177,258,122404,2,0,P|135:245|91:253,1,90
334,258,122737,2,0,P|376:245|420:253,1,90
256,192,123070,1,0,0:0:0:0:
256,192,123404,5,0,0:0:0:0:
256,192,124904,1,0,0:0:0:0:
146,311,125204,1,0,0:0:0:0:
146,311,125804,5,0,0:0:0:0:
146,311,126704,1,0,0:0:0:0:
73,274,126854,1,0,0:0:0:0:
2,235,127004,1,0,0:0:0:0:
28,57,127604,5,0,0:0:0:0:
43,84,127754,1,0,0:0:0:0:
67,104,127904,1,0,0:0:0:0:
95,117,128054,1,0,0:0:0:0:
127,120,128204,2,0,P|186:115|228:133,1,90
255,206,128654,1,0,0:0:0:0:
255,206,128804,2,0,P|211:213|168:202,1,90
63,228,129404,1,0,0:0:0:0:
85,333,129704,1,0,0:0:0:0:
176,276,130004,1,0,0:0:0:0:
254,349,130304,1,0,0:0:0:0:
472,314,130604,6,0,L|388:346,1,90
263,222,131204,2,0,L|348:254,1,90
421,68,131804,2,0,B|473:72|494:134|440:156|415:149|415:149|385:127|367:141|367:141|349:127|327:138|327:138|297:117|234:134,1,315
161,41,133004,6,0,L|154:131,1,90
61,325,133604,2,0,L|69:236,1,90
228,203,134204,2,0,P|159:311|256:331,1,270
223,276,135254,1,0,0:0:0:0:
223,276,135404,2,0,P|283:324|399:324,1,180
493,187,136304,5,0,0:0:0:0:
493,187,136454,1,0,0:0:0:0:
493,187,136604,2,0,L|397:176,1,90
348,223,137054,2,0,P|374:149|328:95,1,135
249,56,137804,1,0,0:0:0:0:
256,192,137954,12,0,140204,0:0:0:0:
87,207,141918,6,0,L|61:289,1,72
159,260,142346,2,0,L|162:345,1,72
244,285,142775,2,0,L|276:364,1,72
332,279,143204,2,0,L|390:342,1,72
435,91,143632,6,0,P|479:165|443:244,2,180
302,35,144918,1,0,0:0:0:0:
222,120,145132,1,0,0:0:0:0:
138,38,145346,1,0,0:0:0:0:
81,172,145561,2,0,P|73:128|39:101,2,90
34,299,146204,5,0,0:0:0:0:
158,226,146418,1,0,0:0:0:0:
252,346,146632,1,0,0:0:0:0:
299,172,146846,1,0,0:0:0:0:
252,346,147061,2,0,P|358:333|419:270,1,180
460,112,147704,1,0,0:0:0:0:
460,112,147918,6,0,L|474:211,1,90
322,260,148346,2,0,L|334:170,1,90
378,42,148775,1,0,0:0:0:0:
279,85,148989,1,0,0:0:0:0:
236,99,149096,1,0,0:0:0:0:
190,96,149204,2,0,P|124:97|92:89,1,90
32,175,149632,2,0,L|45:278,1,90
155,340,150061,1,0,0:0:0:0:
155,340,150275,2,0,P|195:354|247:333,1,90
349,284,150704,1,0,0:0:0:0:
337,149,150918,6,0,P|247:192|219:271,1,180
219,262,151775,1,0,0:0:0:0:
84,274,151989,1,0,0:0:0:0:
14,190,152204,2,0,L|57:97,1,90
135,40,152632,1,0,0:0:0:0:
269,43,152846,1,0,0:0:0:0:
269,43,152954,1,0,0:0:0:0:
269,43,153061,2,0,P|360:38|451:47,2,180
269,43,154775,1,0,0:0:0:0:
198,168,155204,5,0,0:0:0:0:
183,210,155311,1,0,0:0:0:0:
178,254,155418,1,0,0:0:0:0:
185,298,155525,1,0,0:0:0:0:
201,339,155632,2,0,B|246:349|246:349|305:338,1,90
397,343,156061,2,0,B|407:298|407:298|396:239,1,90
401,147,156489,2,0,B|356:137|356:137|297:148,1,90
111,147,156918,2,0,B|156:137|156:137|215:148,2,90
42,230,157561,1,0,0:0:0:0:
108,336,157775,1,0,0:0:0:0:
242,342,157989,1,0,0:0:0:0:
242,342,158204,6,0,L|254:147,1,180
309,70,158846,1,0,0:0:0:0:
440,165,159061,1,0,0:0:0:0:
404,72,159275,1,0,0:0:0:0:
338,239,159489,1,0,0:0:0:0:
385,336,159704,1,0,0:0:0:0:
472,272,159918,2,0,P|465:210|443:173,1,90
289,261,160346,1,0,0:0:0:0:
289,261,160561,2,0,P|271:302|269:346,1,90
256,192,160989,12,0,162918,0:0:0:0:
178,153,163346,6,0,P|122:216|130:278,2,135.000005149842
256,262,164632,2,0,L|256:341,2,67.5000025749208
334,153,165489,2,0,P|390:216|382:278,2,135.000005149842
244,92,166775,1,0,0:0:0:0:
137,108,167204,1,0,0:0:0:0:
256,192,167632,12,0,168918,0:0:0:0:
473,130,169346,6,0,B|456:191|456:191|423:235,1,114.750002188683
383,167,169775,2,0,B|366:228|366:228|333:272,1,114.750002188683
293,205,170204,2,0,B|276:266|276:266|243:310,1,114.750002188683
203,243,170632,2,0,B|186:304|186:304|153:348,1,114.750002188683
75,313,171060,6,0,P|74:113|204:60,1,360
249,155,172403,1,0,0:0:0:0:
339,95,172851,2,0,B|465:50|465:50|412:203|490:280,2,360
264,173,175089,1,0,0:0:0:0:
302,274,175537,1,0,0:0:0:0:
302,274,176433,5,0,0:0:0:0:
234,333,176657,1,0,0:0:0:0:
144,327,176880,1,0,0:0:0:0:
78,265,177104,1,0,0:0:0:0:
78,265,177328,2,0,P|182:150|39:57,1,360
139,47,178448,1,0,0:0:0:0:
216,92,178671,1,0,0:0:0:0:
292,44,178895,1,0,0:0:0:0:
383,102,179119,6,0,L|365:202,1,90
461,243,179567,1,0,0:0:0:0:
461,243,179679,1,0,0:0:0:0:
461,243,179791,2,0,L|375:285,1,90
304,332,180239,1,0,0:0:0:0:
196,334,180462,1,0,0:0:0:0:
196,334,180686,2,0,L|197:228,1,90
107,258,181134,2,0,L|108:152,1,90
102,77,181582,1,0,0:0:0:0:
204,41,181806,6,0,P|317:151|170:181,1,360
185,300,183149,2,0,L|296:295,1,90
418,313,183597,2,0,B|348:346|348:347|348:347|342:249|389:180|389:180|457:126|462:86,1,360
367,42,184716,1,0,0:0:0:0:
290,89,184940,1,0,0:0:0:0:
212,42,185164,1,0,0:0:0:0:
103,43,185388,6,0,P|129:135|211:168,1,180
163,344,186283,2,0,P|137:252|55:219,1,180
40,324,186955,1,0,0:0:0:0:
150,246,187179,1,0,0:0:0:0:
249,336,187403,1,0,0:0:0:0:
328,263,187627,1,0,0:0:0:0:
328,263,188074,5,0,0:0:0:0:
404,187,188298,1,0,0:0:0:0:
473,269,188522,1,0,0:0:0:0:
404,187,188746,1,0,0:0:0:0:
404,187,188858,1,0,0:0:0:0:
404,187,188970,2,0,P|457:141|434:37,1,180
258,45,189865,5,0,0:0:0:0:
161,94,190089,1,0,0:0:0:0:
200,194,190313,2,0,P|109:215|23:187,1,180
312,194,190985,1,0,0:0:0:0:
312,194,191209,2,0,P|403:215|489:187,1,180
443,109,191768,2,0,L|422:46,1,60
344,116,192048,2,0,L|325:59,1,60
245,123,192328,2,0,B|230:71|230:71|192:60,1,90
256,192,192664,12,0,197925,0:0:0:0:
133,78,202402,6,0,B|64:167|64:167|110:331,1,270.000010299683
106,318,204193,1,0,0:0:0:0:
239,297,205089,2,0,P|297:333|354:304,1,135.000005149842
