osu file format v9

[General]
AudioFilename: Son of Sun (Extended Mix).mp3
AudioLeadIn: 2500
PreviewTime: 19528
Countdown: 0
SampleSet: Soft
StackLeniency: 0.4
Mode: 0
LetterboxInBreaks: 0

[Editor]
Bookmarks: 41878,52365,55530,96303
DistanceSpacing: 1
BeatDivisor: 4
GridSize: 8

[Metadata]
Title:Son of Sun (Extended Mix)
Artist:Hosoe Shinji
Creator:MoonFragrance
Version:Easy
Source:DJMAX
Tags:TECHNIKA Trilogy BLACK SQARE ECO Hoon Chujang EOS Sampling Masters MEGA brikel

[Difficulty]
HPDrainRate:2
CircleSize:3
OverallDifficulty:1
ApproachRate:3
SliderMultiplier:0.6
SliderTickRate:1

[Events]
//Background and Video events
0,0,"chujang.jpg"
Video,0,"[video]chujang.flv"
//Break Periods
2,86930,94890
2,106130,112890
2,143330,150090
//Storyboard Layer 0 (Background)
//Storyboard Layer 1 (Fail)
//Storyboard Layer 2 (Pass)
//Storyboard Layer 3 (Foreground)
//Storyboard Sound Samples
//Background Colour Transformations
3,100,0,0,0

[TimingPoints]
330,300,4,2,1,75,1,0
9930,-100,4,2,1,100,0,0
18330,-100,4,1,1,100,0,0
19530,-100,4,2,1,100,0,0
27930,-100,4,1,1,100,0,0
29130,-100,4,2,1,100,0,0
38580,-100,4,1,1,60,0,0
46530,-100,4,1,1,100,0,0
48330,-100,4,2,1,100,0,0
77130,-100,4,1,1,100,0,1
77205,-100,4,1,2,100,0,1
85530,-100,4,2,1,100,0,0
86205,-100,4,1,2,100,0,0
86730,-100,4,1,1,100,0,0
90030,-100,4,1,1,60,0,0
96330,-100,4,2,1,100,0,1
103530,-100,4,2,1,100,0,0
106005,-100,4,2,1,70,0,0
114330,-100,4,2,1,100,0,0
182580,-100,4,2,1,5,0,0

[Colours]
Combo1 : 255,150,0
Combo2 : 255,64,159
Combo3 : 255,169,128
Combo4 : 255,64,64

[HitObjects]
256,192,5130,12,4,9930
316,88,11130,5,0
196,88,11730,1,2
136,192,12330,1,0
196,296,12930,1,0
316,296,13530,1,0
376,192,14130,1,2
316,88,14730,6,0,B|256:120|256:184,1,120,2|0
256,244,15630,1,2
256,304,15930,5,0
152,248,16530,1,2
196,136,17130,1,0
316,136,17730,1,0
360,248,18330,6,2,B|256:356|152:248,1,240,0|12
80,152,20130,5,8
144,48,20730,1,8
359,248,21930,5,10
432,152,22530,1,8
368,48,23130,1,8
128,232,24330,5,10
68,336,24930,1,8
188,336,25530,1,8
384,152,26730,5,10
440,48,27330,1,8
324,48,27930,6,2,B|256:64|256:136,2,120,12|0|12
368,160,29730,6,8,B|368:288,1,120,8|8
256,312,30930,2,8,B|256:184,1,120,8|8
144,160,32130,6,8,B|144:288,2,120
200,56,33930,6,8,B|256:20|312:56,1,120,8|8
368,160,35130,2,8,B|312:196|256:160,1,120,8|8
136,144,36330,2,8,B|99:200|135:256,2,120,8|8|12
256,56,38730,5,12
392,192,41130,5,8
256,328,43530,5,8
120,192,45930,5,12
256,56,47730,6,2,B|256:176,1,120,0|12
196,280,48930,5,8
316,280,49530,1,8
196,72,50730,5,8
316,72,51330,1,8
256,176,51930,1,8
48,296,53130,5,8
152,240,53730,1,8
256,304,54330,1,8
464,88,55530,5,8
360,144,56130,1,8
256,80,56730,1,8
48,184,57930,5,12
152,248,58530,2,12,B|192:300|256:296,1,120,12|8
464,184,60330,5,12
360,248,60930,2,12,B|320:300|256:296,1,120,12|8
256,176,62130,2,2,B|256:56,1,120,2|12
136,56,63330,5,12
72,160,63930,1,12
256,328,65130,5,12
376,328,65730,1,12
440,224,66330,2,0,B|440:160,3,60,2|0|2|0
440,104,67530,6,8,B|416:40|344:40,1,120,12|8
312,152,68730,2,8,B|256:188|200:152,1,120
163,40,69930,2,8,B|96:40|72:104,1,120,8|8
72,224,71130,2,0,B|72:344,2,120,12|2|8
164,148,72930,6,8,B|164:28,2,120
256,224,74730,2,0,B|256:344,2,120,8|2|12
320,120,76530,2,0,B|384:152|384:216,1,120,2|12
320,312,77730,6,0,B|284:268|228:268|192:312,2,150,8|2|12
368,236,79680,1,2
316,160,80130,2,0,B|316:64,2,90,8|2|12
196,160,81630,1,12
144,236,82080,1,2
192,312,82530,6,0,B|228:268|284:268|320:312,2,150,8|2|12
144,236,84480,2,0,B|144:104,1,120,2|2
184,40,85530,5,12
256,208,86430,2,4,B|256:280,1,60,4|12
160,288,96330,6,0,B|80:192|160:96,1,210,12|8
256,216,98130,1,8
304,252,98430,1,8
352,288,98730,6,0,B|432:192|352:96,1,210,8|8
256,216,100530,1,8
200,216,100830,1,8
144,216,101130,6,8,B|80:176|80:80|144:40,1,210,8|8
256,144,102930,1,8
312,144,103230,1,8
368,144,103530,6,8,B|432:144,1,60,8|2
200,336,105330,5,0
256,320,105630,1,2
312,336,105930,1,12
256,192,114330,12,12,115530
196,244,116130,6,2,B|132:260,2,60,10|8|12
320,244,117330,2,2,B|384:260,2,60,10|8|12
256,140,118530,2,10,B|256:68,2,60,10|8|12
88,296,120330,5,12
88,176,120930,2,2,B|88:112,2,60,10|8|12
208,176,122130,2,2,B|256:128,2,60,10|8|12
208,296,123330,2,2,B|280:296,2,60,10|0|12
352,96,125130,6,12,B|404:140|404:200|344:248,1,180
256,168,126630,1,0
256,168,126930,1,2
160,96,127530,2,0,B|108:140|108:200|168:248,1,180
224,272,128730,2,2,B|256:256|256:208|256:208|256:128|256:128|256:64|288:48,1,240,2|12
400,88,130530,5,0
400,88,130830,1,12
456,192,131430,1,0
456,192,131730,1,2
392,296,132330,2,0,B|372:360|272:360|256:296,1,180,0|2
256,232,133530,2,2,B|256:104,2,120,2|0|12
196,336,135330,5,8
196,336,135630,1,12
316,336,136230,1,8
316,336,136530,1,10
288,216,137130,2,8,B|344:172|344:116|288:64,1,180
224,63,138330,2,8,B|168:116|168:172|224:216,1,180
256,264,139530,6,12,B|256:352,2,90
352,192,141030,1,8
352,192,141330,1,8
256,192,141930,12,12,143130
256,192,151530,12,8,152730
256,64,153930,5,12
136,64,154530,2,8,B|64:64,2,60
196,168,155730,1,8
316,168,156330,1,8
436,168,156930,2,8,B|508:168,2,60
376,272,158130,1,8
256,272,158730,5,8
136,272,159330,2,8,B|64:272,2,60
192,168,160530,1,8
316,168,161130,1,8
436,168,161730,2,8,B|508:168,2,60,8|8|2
376,64,162930,1,2
256,64,163530,5,12
136,64,164130,1,12
16,64,164730,1,12
216,192,165930,1,12
336,192,166530,1,12
456,192,167130,1,12
256,320,168330,5,12
136,320,168930,1,12
16,320,169530,1,12
216,192,170730,1,12
336,192,171330,1,12
456,192,171930,2,0,B|488:192|512:224,4,60,2|0|2|2|12
360,264,173730,6,8,B|360:328,2,60
360,128,174930,1,8
356,68,175230,2,8,B|348:36|314:29,1,60
197,29,176130,2,8,B|163:36|156:68,1,60
152,128,176729,1,8
256,344,177930,5,12
144,304,178530,1,8
144,244,178830,2,8,B|144:176,1,60
252,132,179730,1,8
252,192,180030,2,8,B|252:260,1,60
368,304,180930,1,8
368,244,181230,2,8,B|368:176,1,60,8|12
252,192,182130,5,12
252,192,182430,1,12
256,192,182580,12,0,185130
