osu file format v14

[General]
AudioFilename: Beat in Angel.mp3
AudioLeadIn: 500
PreviewTime: 58479
Countdown: 0
SampleSet: Soft
StackLeniency: 0.7
Mode: 3
LetterboxInBreaks: 0
SpecialStyle: 1
WidescreenStoryboard: 0

[Editor]
DistanceSpacing: 1.2
BeatDivisor: 4
GridSize: 4
TimelineZoom: 1.3

[Metadata]
Title:Beat in Angel
TitleUnicode:Beat in Angel
Artist:Hoshizora Rin (CV.Iida Riho) & Nishikino Maki (CV.Pile)
ArtistUnicode:星空凛 (CV.飯田里穂) & 西木野真姫 (CV.Pile)
Creator:dosyeru
Version:Normal
Source:Love Live! School idol project
Tags:μ's muse u's Hori Eriko Kurauchi Tatsuya Hata Aki Lantis EMOTION Bandai Visual 堀絵梨子 倉内達矢 畑亜貴 バンダイビジュアル
BeatmapID:568458
BeatmapSetID:238297

[Difficulty]
HPDrainRate:7
CircleSize:8
OverallDifficulty:8
ApproachRate:8
SliderMultiplier:1.6
SliderTickRate:1

[Events]
//Background and Video events
0,0,"bg.png",0,0
//Break Periods
//Storyboard Layer 0 (Background)
//Storyboard Layer 1 (Fail)
//Storyboard Layer 2 (Pass)
//Storyboard Layer 3 (Foreground)
//Storyboard Sound Samples

[TimingPoints]
79,400,4,2,1,25,1,0
59279,-100,4,2,1,25,0,1
84879,-100,4,2,1,25,0,0
115679,-100,4,2,1,25,0,1
134379,-100,4,2,1,25,0,0
134479,-100,4,2,1,25,0,1
134579,-100,4,2,1,25,0,0

[HitObjects]
32,192,779,5,2,0:0:0:0:
352,192,2479,5,0,0:0:0:50:snare.wav
224,192,2879,1,0,0:0:0:50:snare.wav
32,192,3279,1,0,0:0:0:100:LR_CymbalSSD.wav
480,192,3279,1,0,0:0:0:70:LR_Chm loong.wav
96,192,3679,1,0,0:0:0:50:snare.wav
352,192,4079,1,0,0:0:0:70:LR_Chm loong.wav
96,192,4479,1,0,0:0:0:50:snare.wav
224,192,4879,1,0,0:0:0:70:LR_Chm loong.wav
96,192,5279,1,0,0:0:0:50:snare.wav
480,192,5679,1,0,0:0:0:70:LR_Chm loong.wav
96,192,6079,1,0,0:0:0:50:snare.wav
224,192,6479,1,0,0:0:0:70:LR_Chm loong.wav
96,192,6879,1,0,0:0:0:50:snare.wav
288,192,7279,1,0,0:0:0:50:kick.wav
288,192,7679,1,0,0:0:0:50:kick.wav
480,192,8079,1,0,0:0:0:50:kick.wav
352,192,8479,1,0,0:0:0:50:kick.wav
224,192,8879,1,0,0:0:0:50:kick.wav
96,192,9279,1,0,0:0:0:50:kick.wav
32,192,9679,1,0,0:0:0:100:LR_CymbalSSD.wav
416,192,9679,1,0,0:0:0:70:LR_Chm loong.wav
96,192,10079,1,0,0:0:0:50:snare.wav
288,192,10479,1,0,0:0:0:70:LR_Chm loong.wav
96,192,10879,1,0,0:0:0:50:snare.wav
160,192,11279,1,0,0:0:0:70:LR_Chm loong.wav
96,192,11679,1,0,0:0:0:50:snare.wav
416,192,12079,1,0,0:0:0:70:LR_Chm loong.wav
96,192,12479,1,0,0:0:0:50:snare.wav
160,192,12879,1,0,0:0:0:70:LR_Chm loong.wav
96,192,13279,1,0,0:0:0:50:snare.wav
288,192,13679,1,0,0:0:0:50:kick.wav
288,192,14079,1,0,0:0:0:50:kick.wav
96,192,14479,1,0,0:0:0:50:kick.wav
224,192,14879,1,0,0:0:0:50:kick.wav
352,192,15279,1,0,0:0:0:50:kick.wav
480,192,15679,1,0,0:0:0:50:kick.wav
32,192,16079,1,0,0:0:0:100:LR_CymbalSSD.wav
288,192,16279,1,0,0:0:0:0:
288,192,16679,1,0,0:0:0:0:
288,192,17079,1,0,0:0:0:70:LR_Kick Low Strong Beat.wav
160,192,17279,1,0,0:0:0:0:
288,192,17479,1,0,0:0:0:70:LR_Kick Low Strong Beat.wav
288,192,17879,1,0,0:0:0:0:
288,192,18279,1,0,0:0:0:0:
160,192,18479,1,0,0:0:0:50:kick.wav
416,192,18479,1,0,0:0:0:100:LR_CymbalSSD.wav
224,192,18879,1,0,0:0:0:50:kick.wav
480,192,18879,1,0,0:0:0:85:LR_CymbalRDW.wav
96,192,19279,1,0,0:0:0:50:kick.wav
352,192,19279,1,0,0:0:0:0:
32,192,19279,1,0,0:0:0:100:LR_CymbalSSD.wav
224,192,19879,1,0,0:0:0:0:
224,192,20279,1,0,0:0:0:0:
352,192,20679,1,0,0:0:0:0:
160,192,21079,1,0,0:0:0:0:
288,192,21279,1,0,0:0:0:0:
416,192,21479,1,0,0:0:0:0:
96,192,21679,1,0,0:0:0:0:
352,192,21679,1,0,0:0:0:65:LR_CymbalSSD.wav
160,192,22079,1,0,0:0:0:0:
416,192,22079,1,0,0:0:0:65:LR_CymbalRDW.wav
224,192,22479,1,0,0:0:0:0:
480,192,22479,1,0,0:0:0:0:
32,192,22479,1,0,0:0:0:65:LR_CymbalSSD.wav
352,192,23079,1,0,0:0:0:0:
352,192,23479,1,0,0:0:0:0:
224,192,23879,1,0,0:0:0:0:
416,192,24279,1,0,0:0:0:0:
288,192,24479,1,0,0:0:0:0:
160,192,24679,1,0,0:0:0:0:
96,192,24879,1,0,0:0:0:0:
352,192,24879,1,0,0:0:0:65:LR_CymbalSSD.wav
160,192,25279,1,0,0:0:0:0:
416,192,25279,1,0,0:0:0:65:LR_CymbalRDW.wav
32,192,25679,1,0,0:0:0:65:LR_CymbalSSD.wav
96,192,25679,1,0,0:0:0:0:
352,192,25679,1,0,0:0:0:0:
160,192,26079,1,0,0:0:0:0:
416,192,26279,1,0,0:0:0:0:
224,192,26679,1,0,0:0:0:0:
288,192,27079,1,0,0:0:0:0:
224,192,27479,1,0,0:0:0:0:
352,192,27479,1,0,0:0:0:0:
224,192,27879,1,0,0:0:0:0:
352,192,27879,1,0,0:0:0:0:
160,192,28079,1,0,0:0:0:0:
416,192,28279,1,0,0:0:0:0:
288,192,28279,1,0,0:0:0:0:
224,192,28479,1,0,0:0:0:0:
480,192,28679,1,0,0:0:0:0:
32,192,28879,1,0,0:0:0:65:LR_CymbalSSD.wav
416,192,29079,1,2,0:0:0:0:
288,192,29479,1,2,0:0:0:0:
96,192,29879,1,2,0:0:0:0:
224,192,30279,1,2,0:0:0:0:
352,192,30679,1,8,3:0:0:0:
224,192,30779,1,8,3:0:0:0:
288,192,30979,1,4,3:0:0:0:
352,192,31179,1,4,3:0:0:0:
224,192,31279,1,0,0:0:0:50:kick.wav
416,192,31479,1,4,3:0:0:0:
288,192,31679,1,4,3:0:0:0:
160,192,31879,1,4,3:0:0:0:
32,192,32079,1,0,0:0:0:100:LR_CymbalSSD.wav
352,192,32479,1,0,0:0:0:50:snare.wav
224,192,32679,1,0,0:0:0:0:
352,192,32879,1,0,0:0:0:0:
288,192,33279,1,0,0:0:0:50:snare.wav
160,192,33479,1,0,0:0:0:0:
288,192,33679,1,0,0:0:0:0:
224,192,34079,1,0,0:0:0:50:snare.wav
352,192,34279,1,0,0:0:0:0:
416,192,34479,1,0,0:0:0:0:
288,192,34679,1,0,0:0:0:0:
160,192,34879,1,0,0:0:0:50:snare.wav
224,192,35079,1,0,0:0:0:0:
32,192,35279,1,0,0:0:0:100:LR_CymbalSSD.wav
224,192,35679,1,0,0:0:0:50:snare.wav
352,192,35879,1,0,0:0:0:0:
480,192,36079,1,0,0:0:0:0:
416,192,36479,1,0,0:0:0:50:snare.wav
288,192,36679,1,0,0:0:0:0:
160,192,36879,1,0,0:0:0:0:
352,192,37279,1,0,0:0:0:50:snare.wav
224,192,37479,1,0,0:0:0:0:
160,192,37679,1,0,0:0:0:0:
288,192,37879,1,0,0:0:0:0:
416,192,38079,1,0,0:0:0:50:snare.wav
352,192,38279,1,0,0:0:0:0:
32,192,38479,1,0,0:0:0:100:LR_CymbalSSD.wav
352,192,38879,1,0,0:0:0:50:snare.wav
160,192,38879,1,0,0:0:0:0:
288,192,39079,1,0,0:0:0:0:
416,192,39279,1,0,0:0:0:0:
224,192,39679,1,0,0:0:0:50:snare.wav
416,192,39679,1,0,0:0:0:0:
288,192,39879,1,0,0:0:0:0:
160,192,40079,1,0,0:0:0:0:
480,192,40479,1,0,0:0:0:50:snare.wav
96,192,40479,1,0,0:0:0:0:
224,192,40679,1,0,0:0:0:0:
352,192,40879,1,0,0:0:0:0:
224,192,41079,1,0,0:0:0:0:
416,192,41279,1,0,0:0:0:50:snare.wav
288,192,41279,1,0,0:0:0:0:
160,192,41479,1,0,0:0:0:0:
32,192,41679,1,0,0:0:0:100:LR_CymbalSSD.wav
480,192,42079,1,0,0:0:0:50:snare.wav
96,192,42079,1,0,0:0:0:0:
224,192,42279,1,0,0:0:0:0:
352,192,42479,1,0,0:0:0:0:
480,192,42879,1,0,0:0:0:50:snare.wav
32,192,43079,1,0,0:0:0:100:LR_CymbalSSD.wav
480,192,43079,1,0,0:0:0:50:snare.wav
416,192,43479,1,0,0:0:0:50:snare.wav
288,192,43679,1,0,0:0:0:50:snare.wav
160,192,43879,1,0,0:0:0:50:snare.wav
96,192,44079,1,0,0:0:0:100:LR_CymbalSSD.wav
352,192,44079,1,0,0:0:0:50:kick.wav
160,192,44479,1,0,0:0:0:85:LR_CymbalRDW.wav
416,192,44479,1,0,0:0:0:50:kick.wav
32,192,44879,1,0,0:0:0:100:LR_CymbalSSD.wav
96,192,44879,1,0,0:0:0:50:kick.wav
480,192,44879,1,0,0:0:0:70:LR_Chm loong.wav
96,192,45279,1,0,0:0:0:50:kick.wav
224,192,45679,1,0,0:0:0:70:LR_Chm loong.wav
96,192,45679,1,0,0:0:0:50:kick.wav
96,192,46079,1,0,0:0:0:50:kick.wav
96,192,46479,1,0,0:0:0:50:kick.wav
352,192,46479,1,0,0:0:0:70:LR_Chm loong.wav
96,192,46879,1,0,0:0:0:50:kick.wav
96,192,47279,1,0,0:0:0:50:kick.wav
480,192,47279,1,0,0:0:0:70:LR_Chm loong.wav
96,192,47679,1,0,0:0:0:50:kick.wav
96,192,48079,1,0,0:0:0:50:kick.wav
288,192,48079,1,0,0:0:0:70:LR_Chm loong.wav
96,192,48479,1,0,0:0:0:50:kick.wav
416,192,48679,1,0,0:0:0:70:LR_Chm loong.wav
96,192,48879,1,0,0:0:0:50:kick.wav
96,192,49279,1,0,0:0:0:50:kick.wav
96,192,49679,1,0,0:0:0:70:LR_Chm Soft Whistle Echo.wav
160,192,49879,1,0,0:0:0:70:LR_Chm Soft Whistle Echo.wav
288,192,50279,1,0,0:0:0:70:LR_Chm Soft Whistle Echo.wav
416,192,50679,1,0,0:0:0:70:LR_Chm Soft Whistle Echo.wav
224,192,51079,1,0,0:0:0:50:kick.wav
480,192,51079,1,0,0:0:0:100:LR_CymbalSSD.wav
224,192,51479,1,0,0:0:0:50:kick.wav
480,192,51479,1,0,0:0:0:0:
224,192,51679,1,0,0:0:0:50:snare.wav
480,192,51679,1,0,0:0:0:0:
288,192,52079,1,0,0:0:0:50:kick.wav
416,192,52079,1,0,0:0:0:0:
288,192,52479,1,0,0:0:0:50:snare.wav
416,192,52479,1,0,0:0:0:0:
96,192,52879,1,0,0:0:0:50:kick.wav
352,192,52879,1,0,0:0:0:0:
96,192,53279,1,0,0:0:0:50:snare.wav
352,192,53279,1,0,0:0:0:0:
160,192,53679,1,0,0:0:0:50:kick.wav
288,192,53679,1,0,0:0:0:0:
224,192,53879,1,0,0:0:0:0:
160,192,54079,1,0,0:0:0:50:snare.wav
288,192,54079,1,0,0:0:0:0:
224,192,54479,1,0,0:0:0:50:kick.wav
224,192,54679,1,0,0:0:0:50:kick.wav
352,192,54879,1,0,0:0:0:50:snare.wav
224,192,55079,1,0,0:0:0:50:kick.wav
416,192,55479,1,0,0:0:0:50:kick.wav
288,192,55679,1,0,0:0:0:50:snare.wav
160,192,55879,1,0,0:0:0:50:kick.wav
160,192,56279,1,0,0:0:0:50:kick.wav
352,192,56479,1,0,0:0:0:50:snare.wav
96,192,56679,1,0,0:0:0:50:kick.wav
416,192,56879,1,0,0:0:0:50:snare.wav
160,192,57079,1,0,0:0:0:50:kick.wav
480,192,57279,1,0,0:0:0:50:snare.wav
224,192,57479,1,0,0:0:0:50:kick.wav
416,192,57679,1,0,0:0:0:50:kick.wav
160,192,57979,1,0,0:0:0:50:kick.wav
288,192,58279,1,0,0:0:0:50:kick.wav
416,192,59279,1,0,0:0:0:0:
32,192,59279,1,0,0:0:0:100:LR_CymbalSSD.wav
160,192,59279,1,0,0:0:0:50:kick.wav
352,192,59679,1,0,0:0:0:0:
224,192,59679,1,0,0:0:0:50:snare.wav
416,192,60079,1,0,0:0:0:0:
160,192,60279,1,0,0:0:0:0:
288,192,60479,1,0,0:0:0:50:snare.wav
416,192,60679,1,0,0:0:0:0:
416,192,61079,1,0,0:0:0:0:
160,192,61279,1,0,0:0:0:50:snare.wav
416,192,61479,1,0,0:0:0:0:
32,192,61679,1,0,1:0:0:100:LR_CymbalSSD.wav
32,192,62079,1,0,1:0:0:85:LR_CymbalRDW.wav
32,192,62479,1,0,1:0:0:100:LR_CymbalSSD.wav
96,192,62879,1,0,0:0:0:50:snare.wav
352,192,62879,1,0,0:0:0:0:
352,192,63279,1,0,0:0:0:0:
96,192,63479,1,0,0:0:0:0:
224,192,63679,1,0,0:0:0:50:snare.wav
352,192,63879,1,0,0:0:0:0:
480,192,64279,1,0,0:0:0:0:
224,192,64479,1,0,0:0:0:50:snare.wav
352,192,64679,1,0,0:0:0:0:
32,192,64879,1,0,1:0:0:100:LR_CymbalSSD.wav
32,192,65279,1,0,1:0:0:85:LR_CymbalRDW.wav
32,192,65679,1,0,1:0:0:100:LR_CymbalSSD.wav
416,192,66079,1,0,0:0:0:0:
160,192,66079,1,0,0:0:0:50:snare.wav
416,192,66479,1,0,0:0:0:0:
288,192,66679,1,0,0:0:0:0:
160,192,66879,1,0,0:0:0:50:snare.wav
224,192,67079,1,0,0:0:0:0:
416,192,67479,1,0,0:0:0:0:
160,192,67679,1,0,0:0:0:50:snare.wav
416,192,67879,1,0,0:0:0:0:
32,192,68079,1,0,1:0:0:100:LR_CymbalSSD.wav
32,192,68479,1,0,1:0:0:85:LR_CymbalRDW.wav
32,192,68879,1,0,1:0:0:100:LR_CymbalSSD.wav
288,192,69279,1,0,0:0:0:0:
416,192,69279,1,0,0:0:0:0:
288,192,69679,1,0,0:0:0:0:
416,192,69679,1,0,0:0:0:0:
96,192,69879,1,0,0:0:0:0:
224,192,69879,1,0,0:0:0:0:
160,192,70279,1,0,0:0:0:0:
288,192,70279,1,0,0:0:0:0:
352,192,70679,1,0,0:0:0:0:
480,192,70679,1,0,0:0:0:0:
160,192,71079,1,0,0:0:0:0:
288,192,71079,1,0,0:0:0:0:
32,192,71279,1,0,1:0:0:100:LR_CymbalSSD.wav
32,192,71679,1,0,1:0:0:85:LR_CymbalRDW.wav
32,192,72079,1,0,1:0:0:100:LR_CymbalSSD.wav
288,192,72279,1,0,0:0:0:0:
96,192,72479,1,0,0:0:0:50:snare.wav
288,192,72679,1,0,0:0:0:0:
288,192,73079,1,0,0:0:0:0:
96,192,73279,1,0,0:0:0:50:snare.wav
288,192,73479,1,0,0:0:0:0:
32,192,73679,1,0,0:0:0:70:LR_Chm Fast.wav
352,192,73879,1,0,0:0:0:0:
96,192,74079,1,0,0:0:0:50:snare.wav
352,192,74279,1,0,0:0:0:0:
352,192,74679,1,0,0:0:0:0:
96,192,74879,1,0,0:0:0:50:snare.wav
352,192,75079,1,0,0:0:0:0:
32,192,75279,1,0,0:0:0:70:LR_Chm Fast.wav
224,192,75479,1,0,0:0:0:0:
480,192,75679,1,0,0:0:0:50:snare.wav
224,192,75879,1,0,0:0:0:0:
160,192,76279,1,0,0:0:0:0:
480,192,76479,1,0,0:0:0:50:snare.wav
160,192,76679,1,0,0:0:0:0:
32,192,76879,1,0,0:0:0:70:LR_Chm Fast.wav
96,192,77079,1,0,0:0:0:0:
480,192,77279,1,0,0:0:0:50:snare.wav
96,192,77479,1,0,0:0:0:0:
352,192,77479,1,2,0:0:0:0:
96,192,77879,1,0,0:0:0:0:
352,192,77879,1,2,0:0:0:0:
480,192,78079,1,0,0:0:0:50:snare.wav
96,192,78279,1,0,0:0:0:0:
480,192,78479,1,0,0:0:0:50:kick.wav
32,192,78479,1,0,0:0:0:100:LR_CymbalSSD.wav
480,192,78879,1,0,0:0:0:50:kick.wav
224,192,78879,1,0,0:0:0:50:snare.wav
480,192,79279,1,0,0:0:0:50:kick.wav
480,192,79679,1,0,0:0:0:50:kick.wav
224,192,79679,1,0,0:0:0:50:snare.wav
96,192,80079,1,0,0:0:0:50:kick.wav
32,192,80079,1,0,0:0:0:100:LR_CymbalSSD.wav
352,192,80479,1,0,0:0:0:50:snare.wav
96,192,80479,1,0,0:0:0:50:kick.wav
96,192,80879,1,0,0:0:0:50:kick.wav
352,192,81279,1,0,0:0:0:50:snare.wav
96,192,81279,1,0,0:0:0:50:kick.wav
96,192,81679,1,0,0:0:0:50:kick.wav
224,192,81679,1,0,0:0:0:0:
352,192,81879,1,0,0:0:0:50:kick.wav
480,192,81879,1,0,0:0:0:0:
160,192,82279,1,0,0:0:0:50:kick.wav
416,192,82279,1,0,0:0:0:0:
224,192,82679,1,0,0:0:0:50:kick.wav
352,192,82679,1,0,0:0:0:0:
96,192,83079,1,0,0:0:0:50:kick.wav
480,192,83079,1,0,0:0:0:0:
32,192,84079,1,4,3:0:0:0:
352,192,84879,1,0,0:0:0:0:
32,192,84879,1,0,0:0:0:100:LR_CymbalSSD.wav
352,192,85279,1,0,0:0:0:0:
224,192,85679,1,0,0:0:0:0:
352,192,85879,1,0,0:0:0:0:
96,192,86279,1,0,0:0:0:0:
288,192,86679,1,0,0:0:0:0:
160,192,87079,1,0,0:0:0:0:
224,192,87279,1,0,0:0:0:0:
288,192,87679,1,0,0:0:0:0:
352,192,88079,1,0,0:0:0:0:
224,192,88479,1,0,0:0:0:0:
352,192,88779,1,0,0:0:0:0:
224,192,89079,1,0,0:0:0:0:
352,192,89279,1,0,0:0:0:0:
480,192,89479,1,0,0:0:0:0:
96,192,90479,1,0,0:0:0:50:kick.wav
352,192,90479,1,0,0:0:0:100:LR_CymbalSSD.wav
160,192,90879,1,0,0:0:0:50:kick.wav
416,192,90879,1,0,0:0:0:100:LR_CymbalRDW.wav
480,192,91279,1,2,0:0:0:0:
32,192,91279,1,0,0:0:0:100:LR_CymbalSSD.wav
224,192,91279,1,0,0:0:0:0:
480,192,91479,1,2,0:0:0:0:
96,192,91679,1,0,0:0:0:50:snare.wav
480,192,91879,1,2,0:0:0:0:
480,192,92279,1,2,0:0:0:0:
96,192,92479,1,0,0:0:0:50:snare.wav
224,192,92679,1,0,0:0:0:0:
416,192,92879,1,2,0:0:0:0:
416,192,93079,1,2,0:0:0:0:
160,192,93279,1,0,0:0:0:50:snare.wav
416,192,93479,1,2,0:0:0:0:
416,192,93879,1,2,0:0:0:0:
160,192,94079,1,0,0:0:0:50:snare.wav
288,192,94279,1,0,0:0:0:0:
352,192,94479,1,2,0:0:0:0:
352,192,94679,1,2,0:0:0:0:
224,192,94879,1,0,0:0:0:50:snare.wav
352,192,95079,1,2,0:0:0:0:
352,192,95479,1,2,0:0:0:0:
224,192,95679,1,0,0:0:0:50:snare.wav
352,192,95879,1,0,0:0:0:0:
288,192,96079,1,0,0:0:0:50:kick.wav
480,192,96279,1,0,0:0:0:0:
224,192,96479,1,0,0:0:0:50:kick.wav
416,192,96679,1,0,0:0:0:0:
160,192,96879,1,0,0:0:0:50:kick.wav
352,192,97079,1,0,0:0:0:0:
96,192,97279,1,0,0:0:0:50:kick.wav
288,192,97479,1,0,0:0:0:0:
32,192,97679,1,0,0:0:0:100:LR_CymbalSSD.wav
224,192,97879,1,2,0:0:0:0:
416,192,98079,1,0,0:0:0:50:snare.wav
224,192,98279,5,2,0:0:0:0:
96,192,98479,1,0,0:0:0:0:
224,192,98679,5,2,0:0:0:0:
416,192,98879,1,0,0:0:0:50:snare.wav
288,192,99079,1,0,0:0:0:0:
288,192,99479,1,2,0:0:0:0:
224,192,99679,1,0,0:0:0:50:snare.wav
352,192,99879,1,2,0:0:0:0:
96,192,100079,1,0,0:0:0:0:
352,192,100279,1,2,0:0:0:0:
160,192,100479,1,0,0:0:0:50:snare.wav
416,192,100679,1,0,0:0:0:0:
224,192,100879,1,0,0:0:0:0:
224,192,101079,1,2,0:0:0:0:
480,192,101279,1,0,0:0:0:50:snare.wav
224,192,101479,1,2,0:0:0:0:
224,192,101879,1,2,0:0:0:0:
480,192,102079,1,0,0:0:0:50:snare.wav
224,192,102279,1,0,0:0:0:0:
96,192,102479,1,0,0:0:0:50:kick.wav
288,192,102679,1,0,0:0:0:0:
160,192,102879,1,0,0:0:0:50:kick.wav
352,192,103079,1,0,0:0:0:0:
224,192,103279,1,0,0:0:0:50:kick.wav
416,192,103479,1,0,0:0:0:0:
288,192,103679,1,0,0:0:0:50:kick.wav
480,192,103879,1,0,0:0:0:0:
160,192,104279,1,0,0:0:0:50:kick.wav
416,192,104279,1,0,0:0:0:0:
160,192,104479,1,0,0:0:0:50:kick.wav
416,192,104479,1,0,0:0:0:0:
160,192,104679,1,0,0:0:0:50:kick.wav
416,192,104679,1,0,0:0:0:0:
160,192,104879,1,0,0:0:0:50:kick.wav
416,192,104879,1,0,0:0:0:0:
96,192,105479,1,0,0:0:0:50:kick.wav
480,192,105479,1,0,0:0:0:0:
96,192,105679,1,0,0:0:0:50:kick.wav
480,192,105679,1,0,0:0:0:0:
96,192,105879,1,0,0:0:0:50:kick.wav
480,192,105879,1,0,0:0:0:0:
480,192,106079,1,0,0:0:0:0:
96,192,106079,1,0,0:0:0:50:kick.wav
224,192,106679,1,0,0:0:0:50:kick.wav
352,192,106679,1,0,0:0:0:0:
160,192,106979,1,0,0:0:0:50:kick.wav
416,192,106979,1,0,0:0:0:0:
96,192,107279,1,0,0:0:0:50:kick.wav
480,192,107279,1,0,0:0:0:0:
32,192,107279,1,0,0:0:0:100:LR_CymbalSSD.wav
224,192,108479,1,0,0:0:0:0:
96,192,108879,1,0,0:0:0:50:kick.wav
352,192,108879,1,0,0:0:0:0:
32,192,108879,1,0,0:0:0:100:LR_CymbalSSD.wav
288,192,109479,1,0,0:0:0:50:kick.wav
160,192,109679,1,0,0:0:0:50:snare.wav
416,192,109679,1,0,0:0:0:0:
224,192,110479,1,0,0:0:0:50:kick.wav
480,192,110479,1,0,0:0:0:0:
480,192,111079,1,0,0:0:0:50:kick.wav
288,192,111279,1,0,0:0:0:50:snare.wav
416,192,111279,1,0,0:0:0:0:
160,192,111679,1,0,0:0:0:50:kick.wav
288,192,111679,1,0,0:0:0:0:
96,192,112079,1,0,0:0:0:50:kick.wav
352,192,112079,1,0,0:0:0:80:LR_CymbalRDW.wav
288,192,112679,1,0,0:0:0:50:kick.wav
160,192,112879,1,0,0:0:0:50:snare.wav
416,192,112879,1,0,0:0:0:80:LR_CymbalRDW.wav
224,192,113679,1,0,0:0:0:50:kick.wav
480,192,113679,1,0,0:0:0:80:LR_CymbalRDW.wav
288,192,114479,1,0,0:0:0:50:snare.wav
416,192,114479,1,0,0:0:0:80:LR_CymbalRDW.wav
352,192,114879,1,0,0:0:0:50:snare.wav
480,192,114879,1,0,0:0:0:80:LR_CymbalRDW.wav
96,192,115279,1,0,0:0:0:50:kick.wav
96,192,115679,1,0,0:0:0:50:kick.wav
480,192,115679,1,0,0:0:0:0:
32,192,115679,1,0,0:0:0:100:LR_CymbalSSD.wav
416,192,115879,1,0,0:0:0:0:
288,192,116079,1,0,0:0:0:50:kick.wav
160,192,116279,1,0,0:0:0:0:
96,192,116479,1,0,0:0:0:50:kick.wav
352,192,116679,1,0,0:0:0:0:
352,192,117079,1,0,0:0:0:0:
96,192,117279,1,0,0:0:0:50:kick.wav
224,192,117279,1,0,0:0:0:0:
352,192,117479,1,0,0:0:0:0:
480,192,117679,1,0,0:0:0:100:LR_CymbalSSD.wav
224,192,117679,1,0,0:0:0:50:kick.wav
416,192,118079,1,0,0:0:0:85:LR_CymbalRDW.wav
160,192,118079,1,0,0:0:0:50:kick.wav
96,192,118479,1,0,0:0:0:50:kick.wav
352,192,118479,1,2,0:0:0:0:
32,192,118479,1,0,0:0:0:100:LR_CymbalSSD.wav
416,192,118879,1,0,0:0:0:0:
160,192,118879,1,0,0:0:0:0:
160,192,119279,1,0,0:0:0:0:
416,192,119279,1,0,0:0:0:0:
96,192,119479,1,0,0:0:0:0:
224,192,119479,1,0,0:0:0:0:
160,192,119879,1,0,0:0:0:0:
416,192,119879,1,0,0:0:0:0:
352,192,120279,1,0,0:0:0:0:
480,192,120279,1,0,0:0:0:0:
160,192,120679,1,0,0:0:0:0:
416,192,120679,1,0,0:0:0:0:
96,192,120879,1,0,0:0:0:50:kick.wav
352,192,120879,1,0,0:0:0:100:LR_CymbalSSD.wav
160,192,121279,1,0,0:0:0:50:kick.wav
416,192,121279,1,0,0:0:0:85:LR_CymbalRDW.wav
224,192,121679,1,0,0:0:0:50:kick.wav
480,192,121679,1,4,0:0:0:0:
32,192,121679,1,0,0:0:0:100:LR_CymbalSSD.wav
352,192,121879,1,0,0:0:0:0:
160,192,122079,1,0,0:0:0:50:snare.wav
352,192,122279,1,0,0:0:0:0:
352,192,122679,1,0,0:0:0:0:
160,192,122879,1,0,0:0:0:50:snare.wav
352,192,123079,1,0,0:0:0:0:
32,192,123279,1,0,0:0:0:70:LR_Chm Fast.wav
416,192,123479,1,0,0:0:0:0:
224,192,123679,1,0,0:0:0:50:snare.wav
416,192,123879,1,0,0:0:0:0:
416,192,124279,1,0,0:0:0:0:
224,192,124479,1,0,0:0:0:50:snare.wav
416,192,124679,1,0,0:0:0:0:
32,192,124879,1,0,0:0:0:70:LR_Chm Fast.wav
480,192,125079,1,0,0:0:0:0:
224,192,125279,1,0,0:0:0:50:snare.wav
480,192,125479,1,0,0:0:0:0:
416,192,125879,1,0,0:0:0:0:
160,192,126079,1,0,0:0:0:50:snare.wav
416,192,126279,1,0,0:0:0:0:
32,192,126479,1,0,0:0:0:70:LR_Chm Fast.wav
352,192,126679,1,0,0:0:0:0:
96,192,126879,1,0,0:0:0:50:snare.wav
352,192,127079,1,0,0:0:0:0:
480,192,127079,1,2,0:0:0:0:
352,192,127479,1,0,0:0:0:0:
480,192,127479,1,2,0:0:0:0:
96,192,127679,1,0,0:0:0:50:snare.wav
352,192,127879,1,0,0:0:0:0:
32,192,128079,1,0,0:0:0:100:LR_CymbalSSD.wav
96,192,128079,1,0,0:0:0:50:kick.wav
288,192,128279,1,0,0:0:0:0:
96,192,128479,1,0,0:0:0:50:kick.wav
288,192,128679,1,0,0:0:0:0:
96,192,128879,1,0,0:0:0:50:kick.wav
288,192,129079,1,0,0:0:0:0:
96,192,129279,1,0,0:0:0:50:kick.wav
288,192,129479,1,0,0:0:0:0:
96,192,129679,1,0,0:0:0:50:kick.wav
32,192,129679,1,0,0:0:0:100:LR_CymbalSSD.wav
416,192,129879,1,0,0:0:0:0:
96,192,130079,1,0,0:0:0:50:kick.wav
416,192,130279,1,0,0:0:0:0:
96,192,130479,1,0,0:0:0:50:kick.wav
416,192,130679,1,0,0:0:0:0:
96,192,130879,1,0,0:0:0:50:kick.wav
224,192,131279,1,0,0:0:0:50:kick.wav
352,192,131279,1,0,0:0:0:0:
224,192,131479,1,0,0:0:0:50:kick.wav
352,192,131479,1,0,0:0:0:0:
160,192,131879,1,0,0:0:0:50:kick.wav
416,192,131879,1,0,0:0:0:0:
224,192,132279,1,0,0:0:0:50:kick.wav
352,192,132279,1,0,0:0:0:0:
96,192,132679,1,0,0:0:0:50:kick.wav
480,192,132679,1,0,0:0:0:0:
160,192,133079,1,0,0:0:0:50:snare.wav
288,192,133279,1,0,0:0:0:40:snare.wav
416,192,133479,1,0,0:0:0:50:snare.wav
32,192,133679,1,4,3:0:0:0:
32,192,134479,1,0,0:0:0:85:LR_CymbalRDW.wav
224,192,134479,1,0,0:0:0:50:kick.wav
352,192,134479,1,0,0:0:0:100:LR_CymbalSSD.wav
