osu file format v14

[General]
AudioFilename: Beat in Angel.mp3
AudioLeadIn: 500
PreviewTime: 58479
Countdown: 0
SampleSet: Soft
StackLeniency: 0.7
Mode: 3
LetterboxInBreaks: 0
SpecialStyle: 1
WidescreenStoryboard: 0

[Editor]
DistanceSpacing: 1.2
BeatDivisor: 4
GridSize: 4
TimelineZoom: 3.399997

[Metadata]
Title:Beat in Angel
TitleUnicode:Beat in Angel
Artist:Hoshizora Rin (CV.Iida Riho) & Nishikino Maki (CV.Pile)
ArtistUnicode:星空凛 (CV.飯田里穂) & 西木野真姫 (CV.Pile)
Creator:dosyeru
Version:Another
Source:Love Live! School idol project
Tags:μ's muse u's Hori Eriko Kurauchi Tatsuya Hata Aki Lantis EMOTION Bandai Visual 堀絵梨子 倉内達矢 畑亜貴 バンダイビジュアル
BeatmapID:551155
BeatmapSetID:238297

[Difficulty]
HPDrainRate:8
CircleSize:8
OverallDifficulty:8.5
ApproachRate:8
SliderMultiplier:1.6
SliderTickRate:1

[Events]
//Background and Video events
0,0,"bg.png",0,0
//Break Periods
//Storyboard Layer 0 (Background)
//Storyboard Layer 1 (Fail)
//Storyboard Layer 2 (Pass)
//Storyboard Layer 3 (Foreground)
//Storyboard Sound Samples

[TimingPoints]
79,400,4,2,1,25,1,0
59279,-100,4,2,1,25,0,1
84879,-100,4,2,1,25,0,0
115679,-100,4,2,1,25,0,1
134379,-100,4,2,1,25,0,0
134479,-100,4,2,1,25,0,1
134579,-100,4,2,1,25,0,0

[HitObjects]
32,192,779,5,2,0:0:0:0:
224,192,2479,1,0,0:0:0:60:snare.wav
352,192,2579,1,0,0:0:0:40:snare.wav
160,192,2679,1,0,0:0:0:30:snare.wav
416,192,2779,1,0,0:0:0:40:snare.wav
96,192,2879,1,0,0:0:0:60:snare.wav
480,192,2979,1,0,0:0:0:40:snare.wav
160,192,3079,1,0,0:0:0:30:snare.wav
416,192,3179,1,0,0:0:0:40:snare.wav
224,192,3279,1,0,0:0:0:50:kick.wav
352,192,3279,1,0,0:0:0:0:
32,192,3279,1,0,0:0:0:100:LR_CymbalSSD.wav
480,192,3379,1,0,0:0:0:0:
288,192,3479,1,0,0:0:0:0:
160,192,3479,1,0,0:0:0:0:
224,192,3679,1,0,0:0:0:50:kick.wav
352,192,3679,1,0,0:0:0:50:snare.wav
480,192,3779,1,0,0:0:0:0:
160,192,3879,1,0,0:0:0:0:
288,192,3879,1,0,0:0:0:0:
96,192,4079,1,0,0:0:0:50:kick.wav
224,192,4079,1,0,0:0:0:0:
352,192,4179,1,0,0:0:0:0:
160,192,4279,1,2,0:0:0:0:
288,192,4379,1,2,0:0:0:0:
416,192,4379,1,0,0:0:0:0:
224,192,4479,1,0,0:0:0:50:snare.wav
96,192,4479,1,0,0:0:0:50:kick.wav
416,192,4579,1,0,0:0:0:0:
288,192,4679,1,0,0:0:0:0:
160,192,4679,1,2,0:0:0:0:
352,192,4779,1,2,0:0:0:0:
480,192,4779,1,0,0:0:0:0:
96,192,4879,1,0,0:0:0:50:kick.wav
224,192,4879,1,0,0:0:0:0:
416,192,4979,1,0,0:0:0:0:
160,192,5079,1,0,0:0:0:0:
288,192,5079,1,0,0:0:0:0:
224,192,5279,1,2,0:0:0:50:snare.wav
96,192,5279,1,0,0:0:0:50:kick.wav
416,192,5379,1,0,0:0:0:0:
160,192,5479,1,0,0:0:0:0:
288,192,5479,1,0,0:0:0:0:
96,192,5679,1,0,0:0:0:50:kick.wav
416,192,5679,1,0,0:0:0:0:
288,192,5779,1,0,0:0:0:0:
160,192,5879,1,0,0:0:0:0:
352,192,5979,1,0,0:0:0:0:
224,192,6079,1,0,0:0:0:50:kick.wav
480,192,6079,1,0,0:0:0:50:snare.wav
288,192,6179,1,0,0:0:0:0:
160,192,6279,1,0,0:0:0:0:
416,192,6379,1,0,0:0:0:0:
224,192,6479,1,0,0:0:0:50:kick.wav
352,192,6479,1,0,0:0:0:0:
480,192,6579,1,0,0:0:0:0:
288,192,6679,1,0,0:0:0:0:
160,192,6679,1,0,0:0:0:0:
352,192,6879,1,0,0:0:0:50:kick.wav
480,192,6879,1,0,0:0:0:50:snare.wav
288,192,6979,1,0,0:0:0:0:
160,192,7079,1,0,0:0:0:0:
224,192,7179,1,0,0:0:0:0:
96,192,7279,1,0,0:0:0:50:kick.wav
416,192,7379,1,0,0:0:0:0:
160,192,7479,1,2,0:0:0:0:
288,192,7479,1,0,0:0:0:0:
352,192,7579,1,0,0:0:0:0:
224,192,7579,1,2,0:0:0:0:
96,192,7679,1,0,0:0:0:50:snare.wav
416,192,7779,1,0,0:0:0:0:
288,192,7879,1,0,0:0:0:0:
160,192,7879,1,2,0:0:0:0:
480,192,7979,1,0,0:0:0:0:
352,192,7979,1,2,0:0:0:0:
224,192,8079,1,0,0:0:0:0:
96,192,8079,1,0,0:0:0:50:kick.wav
224,192,8179,1,0,0:0:0:0:
416,192,8279,1,0,0:0:0:0:
288,192,8379,1,0,0:0:0:0:
480,192,8479,1,0,0:0:0:50:snare.wav
96,192,8479,1,0,0:0:0:50:kick.wav
480,192,8579,1,0,0:0:0:0:
160,192,8679,1,0,0:0:0:0:
288,192,8779,1,0,0:0:0:0:
352,192,8879,1,0,0:0:0:0:
96,192,8879,1,0,0:0:0:50:kick.wav
352,192,8979,1,0,0:0:0:0:
416,192,9079,1,0,0:0:0:0:
288,192,9179,1,0,0:0:0:0:
160,192,9179,1,0,0:0:0:50:kick.wav
480,192,9279,1,0,0:0:0:0:
96,192,9279,1,0,0:0:0:50:kick.wav
416,192,9379,1,0,0:0:0:0:
352,192,9479,1,0,0:0:0:0:
224,192,9479,1,0,0:0:0:50:snare.wav
416,192,9579,1,0,0:0:0:0:
288,192,9579,1,0,0:0:0:50:snare.wav
96,192,9679,1,0,0:0:0:50:kick.wav
224,192,9679,1,0,0:0:0:0:
32,192,9679,1,0,0:0:0:100:LR_CymbalSSD.wav
480,192,9779,1,0,0:0:0:0:
416,192,9879,1,0,0:0:0:0:
288,192,9879,1,0,0:0:0:0:
96,192,10079,1,0,0:0:0:50:kick.wav
224,192,10079,1,0,0:0:0:50:snare.wav
480,192,10179,1,0,0:0:0:0:
416,192,10279,1,0,0:0:0:0:
288,192,10279,1,0,0:0:0:0:
224,192,10479,1,0,0:0:0:50:kick.wav
352,192,10479,1,0,0:0:0:0:
416,192,10579,1,0,0:0:0:0:
160,192,10679,1,2,0:0:0:0:
352,192,10779,1,2,0:0:0:0:
480,192,10779,1,0,0:0:0:0:
96,192,10879,1,0,0:0:0:50:kick.wav
224,192,10879,1,0,0:0:0:50:snare.wav
416,192,10979,1,0,0:0:0:0:
160,192,11079,1,2,0:0:0:0:
288,192,11079,1,0,0:0:0:0:
224,192,11179,1,2,0:0:0:0:
352,192,11179,1,0,0:0:0:0:
160,192,11279,1,0,0:0:0:50:kick.wav
416,192,11279,1,0,0:0:0:0:
288,192,11379,1,0,0:0:0:0:
224,192,11479,1,0,0:0:0:0:
352,192,11479,1,0,0:0:0:0:
160,192,11679,1,0,0:0:0:50:kick.wav
416,192,11679,1,0,0:2:0:50:snare.wav
288,192,11779,1,0,0:0:0:0:
224,192,11879,1,0,0:0:0:0:
352,192,11879,1,0,0:0:0:0:
160,192,12079,1,0,0:0:0:50:kick.wav
416,192,12079,1,0,0:0:0:0:
288,192,12179,1,0,0:0:0:0:
224,192,12279,1,0,0:0:0:0:
288,192,12379,1,0,0:0:0:0:
480,192,12479,1,0,0:0:0:50:kick.wav
352,192,12479,1,0,0:0:0:50:snare.wav
224,192,12579,1,0,0:0:0:0:
160,192,12679,1,0,0:0:0:0:
288,192,12779,1,0,0:0:0:0:
96,192,12879,1,0,0:0:0:50:kick.wav
416,192,12879,1,0,0:0:0:0:
480,192,12979,1,0,0:0:0:0:
160,192,13079,1,0,0:0:0:0:
288,192,13079,1,0,0:0:0:0:
96,192,13279,1,0,0:0:0:50:kick.wav
480,192,13279,1,0,0:0:0:50:snare.wav
288,192,13379,1,0,0:0:0:0:
160,192,13479,1,0,0:0:0:0:
416,192,13479,1,0,0:0:0:0:
96,192,13679,1,0,0:0:0:50:kick.wav
224,192,13679,1,0,0:0:0:0:
416,192,13779,1,0,0:0:0:0:
160,192,13879,1,2,0:0:0:0:
352,192,13879,1,0,0:0:0:0:
480,192,13979,1,0,0:0:0:0:
288,192,13979,1,2,0:0:0:0:
96,192,14079,1,0,0:0:0:50:snare.wav
416,192,14179,1,0,0:0:0:0:
160,192,14279,1,2,0:0:0:0:
352,192,14279,1,0,0:0:0:0:
288,192,14379,1,2,0:0:0:0:
480,192,14379,1,0,0:0:0:0:
224,192,14479,1,0,0:0:0:0:
96,192,14479,1,0,0:0:0:50:kick.wav
96,192,14579,1,0,0:0:0:0:
480,192,14679,1,0,0:0:0:0:
352,192,14679,1,0,0:0:0:0:
160,192,14879,1,0,0:0:0:50:kick.wav
416,192,14879,1,0,0:0:0:50:snare.wav
160,192,14979,1,0,0:0:0:0:
480,192,15079,1,0,0:0:0:0:
352,192,15079,1,0,0:0:0:0:
416,192,15279,1,0,0:0:0:0:
160,192,15279,1,0,0:0:0:50:kick.wav
416,192,15379,1,0,0:0:0:0:
96,192,15479,1,0,0:0:0:0:
224,192,15479,1,0,0:0:0:0:
480,192,15679,1,0,0:0:0:50:snare.wav
352,192,15679,1,0,0:0:0:50:kick.wav
480,192,15779,1,8,0:3:0:0:
224,192,15879,1,0,0:0:0:0:
96,192,15879,1,4,0:3:0:0:
96,192,16079,1,0,0:0:0:50:kick.wav
352,192,16079,1,0,0:0:0:0:
32,192,16079,1,0,0:0:0:100:LR_CymbalSSD.wav
416,192,16279,1,0,0:0:0:0:
288,192,16279,1,0,0:0:0:0:
96,192,16479,1,0,0:0:0:50:kick.wav
416,192,16679,1,0,0:0:0:0:
288,192,16679,1,0,0:0:0:0:
96,192,16879,1,0,0:0:0:50:kick.wav
32,192,17079,1,0,0:0:0:65:LR_Kick Low Strong Beat.wav
416,192,17079,1,0,0:0:0:0:
288,192,17079,1,0,0:0:0:0:
96,192,17279,1,0,0:0:0:50:kick.wav
224,192,17279,1,0,0:0:0:0:
32,192,17479,1,0,0:0:0:65:LR_Kick Low Strong Beat.wav
416,192,17479,1,0,0:0:0:0:
288,192,17479,1,0,0:0:0:0:
96,192,17679,1,0,0:0:0:50:kick.wav
416,192,17879,1,0,0:0:0:0:
288,192,17879,1,0,0:0:0:0:
96,192,18079,1,0,0:0:0:50:kick.wav
288,192,18279,1,0,0:0:0:0:
416,192,18279,1,0,0:0:0:0:
96,192,18479,1,0,0:0:0:50:kick.wav
32,192,18479,1,0,0:0:0:100:LR_CymbalSSD.wav
224,192,18479,1,0,0:0:0:0:
416,192,18479,1,0,0:0:0:0:
288,192,18479,1,0,0:0:0:0:
160,192,18879,1,0,0:0:0:50:kick.wav
32,192,18879,1,0,0:0:0:85:LR_CymbalRDW.wav
288,192,18879,1,0,0:0:0:0:
480,192,18879,1,0,0:0:0:0:
352,192,18879,1,0,0:0:0:0:
32,192,19079,1,0,0:0:0:65:LR_CymbalSSD.wav
32,192,19279,1,0,0:0:0:100:LR_CymbalSSD.wav
96,192,19279,1,0,0:0:0:50:kick.wav
352,192,19279,1,0,0:0:0:0:
480,192,19279,1,0,0:0:0:0:
352,192,19479,1,0,0:0:0:0:
480,192,19479,1,0,0:0:0:0:
224,192,19479,1,0,0:0:0:0:
96,192,19679,1,0,0:0:0:50:kick.wav
224,192,19879,1,0,0:0:0:0:
288,192,19879,1,0,0:0:0:0:
416,192,19879,1,0,0:0:0:0:
96,192,20079,1,0,0:0:0:50:kick.wav
416,192,20279,1,0,0:0:0:0:
224,192,20279,1,2,0:0:0:0:
288,192,20279,1,0,0:0:0:0:
224,192,20379,1,2,0:0:0:0:
96,192,20479,1,0,0:0:0:50:kick.wav
480,192,20679,1,0,0:0:0:0:
224,192,20679,1,0,0:0:0:0:
352,192,20679,1,2,0:0:0:0:
352,192,20779,1,2,0:0:0:0:
96,192,20879,1,0,0:0:0:50:kick.wav
352,192,21079,1,0,0:0:0:0:
480,192,21179,1,0,0:0:0:0:
96,192,21279,1,0,0:0:0:50:kick.wav
224,192,21279,1,0,0:0:0:0:
288,192,21379,1,0,0:0:0:0:
416,192,21479,1,0,0:0:0:0:
480,192,21579,1,0,0:0:0:0:
96,192,21679,1,0,0:0:0:50:kick.wav
352,192,21679,1,0,0:0:0:0:
224,192,21679,1,0,0:0:0:0:
160,192,21879,1,0,0:0:0:0:
96,192,22079,1,0,0:0:0:50:kick.wav
288,192,22079,1,0,0:0:0:0:
416,192,22079,1,0,0:0:0:0:
32,192,22279,1,0,0:0:0:65:LR_CymbalSSD.wav
32,192,22379,1,0,0:0:0:65:LR_CymbalRDW.wav
32,192,22479,1,0,0:0:0:65:LR_CymbalSSD.wav
96,192,22479,1,0,0:0:0:50:kick.wav
352,192,22479,1,0,0:0:0:0:
480,192,22479,1,0,0:0:0:0:
224,192,22679,1,0,0:0:0:0:
352,192,22679,1,0,0:0:0:0:
480,192,22679,1,0,0:0:0:0:
96,192,22879,1,0,0:0:0:50:kick.wav
224,192,23079,1,0,0:0:0:0:
352,192,23079,1,0,0:0:0:0:
416,192,23079,1,0,0:0:0:0:
96,192,23279,1,0,0:0:0:50:kick.wav
416,192,23479,1,0,0:0:0:0:
352,192,23479,1,0,0:0:0:0:
224,192,23479,1,2,0:0:0:0:
224,192,23579,1,2,0:0:0:0:
96,192,23679,1,0,0:0:0:50:kick.wav
224,192,23879,1,0,0:0:0:0:
288,192,23879,1,0,0:0:0:0:
352,192,23879,1,2,0:0:0:0:
352,192,23979,1,2,0:0:0:0:
96,192,24079,1,0,0:0:0:50:kick.wav
288,192,24279,1,0,0:0:0:0:
160,192,24379,1,0,0:0:0:0:
96,192,24479,1,0,0:0:0:50:kick.wav
352,192,24479,1,0,0:0:0:0:
480,192,24579,1,0,0:0:0:0:
416,192,24679,1,0,0:0:0:0:
288,192,24779,1,0,0:0:0:0:
96,192,24879,1,0,0:0:0:50:kick.wav
352,192,24879,1,0,0:0:0:0:
160,192,24879,1,0,0:0:0:0:
224,192,25079,1,0,0:0:0:0:
96,192,25279,1,0,0:0:0:50:kick.wav
480,192,25279,1,0,0:0:0:0:
288,192,25279,1,0,0:0:0:0:
32,192,25479,1,0,0:0:0:65:LR_CymbalSSD.wav
32,192,25579,1,0,0:0:0:65:LR_CymbalRDW.wav
96,192,25679,1,0,0:0:0:50:kick.wav
480,192,25679,1,0,0:0:0:0:
352,192,25679,1,0,0:0:0:0:
32,192,25679,1,0,0:0:0:65:LR_CymbalSSD.wav
224,192,25879,1,0,0:0:0:0:
96,192,26079,1,0,0:0:0:50:kick.wav
288,192,26079,1,0,0:0:0:0:
416,192,26279,1,0,0:0:0:0:
224,192,26279,1,0,0:0:0:0:
96,192,26479,1,0,0:0:0:50:kick.wav
224,192,26679,1,2,0:0:0:0:
352,192,26679,1,0,0:0:0:0:
224,192,26779,1,2,0:0:0:0:
96,192,26879,1,0,0:0:0:50:kick.wav
352,192,27079,1,2,0:0:0:0:
224,192,27079,1,0,0:0:0:0:
352,192,27179,1,2,0:0:0:0:
96,192,27279,1,0,0:0:0:50:kick.wav
224,192,27279,1,0,0:0:0:0:
288,192,27479,1,0,0:0:0:0:
416,192,27479,1,0,0:0:0:0:
96,192,27679,1,0,0:0:0:50:kick.wav
352,192,27679,1,0,0:0:0:0:
160,192,27879,1,0,0:0:0:0:
288,192,27879,1,0,0:0:0:0:
416,192,27879,1,0,0:0:0:0:
96,192,28079,1,0,0:0:0:50:kick.wav
224,192,28079,1,0,0:0:0:0:
480,192,28279,1,0,0:0:0:0:
352,192,28279,1,0,0:0:0:0:
160,192,28279,1,0,0:0:0:0:
96,192,28479,1,0,0:0:0:50:kick.wav
288,192,28479,1,0,0:0:0:0:
416,192,28679,1,0,0:0:0:0:
224,192,28679,1,0,0:0:0:0:
96,192,28879,1,0,0:0:0:50:kick.wav
32,192,28879,1,0,0:0:0:65:LR_CymbalSSD.wav
352,192,28879,1,0,0:0:0:0:
480,192,29079,1,2,0:0:0:0:
224,192,29079,1,0,0:0:0:0:
352,192,29079,1,0,0:0:0:0:
96,192,29279,1,0,0:0:0:50:kick.wav
416,192,29479,1,2,0:0:0:0:
160,192,29479,1,0,0:0:0:0:
288,192,29479,1,0,0:0:0:0:
96,192,29679,1,0,0:0:0:50:kick.wav
160,192,29879,1,2,0:0:0:0:
352,192,29879,1,2,0:0:0:0:
288,192,29879,1,0,0:0:0:0:
160,192,29979,1,2,0:0:0:0:
96,192,30079,1,0,0:0:0:50:kick.wav
224,192,30279,1,2,0:0:0:0:
416,192,30279,1,2,0:0:0:0:
288,192,30279,1,0,0:0:0:0:
416,192,30379,1,2,0:0:0:0:
96,192,30479,1,0,0:0:0:50:kick.wav
352,192,30679,1,8,0:3:0:0:
160,192,30679,1,0,0:0:0:0:
480,192,30779,1,8,0:3:0:0:
288,192,30779,1,0,0:0:0:0:
96,192,30879,1,0,0:0:0:50:kick.wav
480,192,30979,1,4,0:3:0:0:
352,192,30979,1,0,0:0:0:0:
160,192,31079,1,0,0:0:0:0:
288,192,31079,1,0,0:0:0:0:
416,192,31179,1,4,0:3:0:0:
224,192,31179,1,0,0:0:0:0:
32,192,31279,1,0,0:0:0:60:LR_CymbalRDW.wav
96,192,31279,1,0,0:0:0:50:kick.wav
352,192,31279,1,0,3:0:0:0:
416,192,31479,1,4,0:3:0:0:
288,192,31479,1,0,0:0:0:0:
416,192,31679,1,4,0:3:0:0:
96,192,31679,1,0,0:0:0:50:kick.wav
288,192,31679,1,0,0:0:0:0:
352,192,31879,1,4,3:0:0:0:
224,192,31879,1,0,0:0:0:0:
96,192,32079,1,0,0:0:0:50:kick.wav
480,192,32079,1,0,0:0:0:0:
32,192,32079,1,0,0:0:0:100:LR_CymbalSSD.wav
416,192,32279,1,0,0:0:0:0:
288,192,32279,1,0,0:0:0:0:
96,192,32479,1,0,0:0:0:50:kick.wav
480,192,32479,1,0,0:0:0:50:snare.wav
160,192,32579,1,0,0:0:0:0:
224,192,32679,1,0,0:0:0:0:
416,192,32679,1,0,0:0:0:0:
288,192,32779,1,0,0:0:0:0:
96,192,32879,1,0,0:0:0:50:kick.wav
352,192,33079,1,0,0:0:0:0:
224,192,33079,1,0,0:0:0:0:
416,192,33179,1,0,0:0:0:0:
160,192,33179,1,0,0:0:0:0:
96,192,33279,1,0,0:0:0:50:kick.wav
480,192,33279,1,0,0:0:0:50:snare.wav
416,192,33379,1,0,0:0:0:0:
352,192,33479,1,0,0:0:0:0:
224,192,33479,1,0,0:0:0:0:
288,192,33579,1,0,0:0:0:0:
160,192,33579,1,0,0:0:0:0:
96,192,33679,1,0,0:0:0:50:kick.wav
352,192,33879,1,0,0:0:0:0:
416,192,33979,1,0,0:0:0:0:
480,192,34079,1,2,0:0:0:50:snare.wav
96,192,34079,1,0,0:0:0:50:kick.wav
416,192,34179,1,0,0:0:0:0:
160,192,34179,1,0,0:0:0:0:
224,192,34279,1,0,0:0:0:0:
352,192,34279,1,0,0:0:0:0:
288,192,34379,1,0,0:0:0:0:
160,192,34379,1,0,0:0:0:0:
96,192,34479,1,0,0:0:0:50:kick.wav
480,192,34479,1,0,0:0:0:0:
416,192,34579,1,0,0:0:0:0:
352,192,34679,1,0,0:0:0:0:
288,192,34779,1,0,0:0:0:0:
352,192,34879,1,0,0:0:0:50:snare.wav
96,192,34879,1,0,0:0:0:50:kick.wav
288,192,34979,1,0,0:0:0:0:
224,192,35079,1,0,0:0:0:0:
416,192,35079,1,0,0:0:0:0:
160,192,35179,1,0,0:0:0:0:
352,192,35179,1,0,0:0:0:0:
96,192,35279,1,0,0:0:0:50:kick.wav
32,192,35279,1,0,0:0:0:85:LR_CymbalSSD.wav
288,192,35279,1,0,0:0:0:0:
224,192,35479,1,0,0:0:0:0:
416,192,35479,1,0,0:0:0:0:
96,192,35679,1,0,0:0:0:50:kick.wav
352,192,35679,1,0,0:0:0:50:snare.wav
160,192,35779,1,0,0:0:0:0:
224,192,35879,1,0,0:0:0:0:
416,192,35879,1,0,0:0:0:0:
288,192,35979,1,0,0:0:0:0:
96,192,36079,1,0,0:0:0:50:kick.wav
480,192,36279,1,0,0:0:0:0:
224,192,36279,1,0,0:0:0:0:
416,192,36379,1,0,0:0:0:0:
160,192,36379,1,0,0:0:0:0:
96,192,36479,1,0,0:0:0:50:kick.wav
352,192,36479,1,0,0:0:0:50:snare.wav
480,192,36579,1,0,0:0:0:0:
416,192,36679,1,0,0:0:0:0:
224,192,36679,1,0,0:0:0:0:
352,192,36779,1,0,0:0:0:0:
160,192,36779,1,0,0:0:0:0:
96,192,36879,1,0,0:0:0:50:kick.wav
288,192,37079,1,0,0:0:0:0:
352,192,37179,1,0,0:0:0:0:
160,192,37279,1,0,0:0:0:50:kick.wav
416,192,37279,1,2,0:0:0:50:snare.wav
224,192,37379,1,0,0:0:0:0:
480,192,37379,1,0,0:0:0:0:
96,192,37479,1,0,0:0:0:0:
288,192,37479,1,0,0:0:0:0:
160,192,37579,1,0,0:0:0:0:
352,192,37579,1,0,0:0:0:0:
224,192,37679,1,0,0:0:0:50:kick.wav
416,192,37679,1,0,0:0:0:0:
352,192,37779,1,0,0:0:0:0:
288,192,37879,1,0,0:0:0:0:
224,192,37979,1,0,0:0:0:0:
480,192,38079,1,0,0:0:0:50:snare.wav
160,192,38079,1,0,0:0:0:50:kick.wav
352,192,38179,1,0,0:0:0:0:
224,192,38279,1,0,0:0:0:0:
96,192,38279,1,0,0:0:0:0:
416,192,38379,1,0,0:0:0:0:
288,192,38379,1,0,0:0:0:0:
96,192,38479,1,0,0:0:0:50:kick.wav
32,192,38479,1,0,0:0:0:85:LR_CymbalSSD.wav
224,192,38479,1,0,0:0:0:0:
288,192,38679,1,0,0:0:0:0:
160,192,38679,1,0,0:0:0:0:
352,192,38879,1,0,0:0:0:50:snare.wav
96,192,38879,1,0,0:0:0:50:kick.wav
160,192,38979,1,0,0:0:0:0:
416,192,39079,1,0,0:0:0:0:
224,192,39079,1,0,0:0:0:0:
288,192,39179,1,0,0:0:0:0:
352,192,39279,1,0,0:0:0:50:kick.wav
480,192,39479,1,0,0:0:0:0:
224,192,39479,1,0,0:0:0:0:
416,192,39579,1,0,0:0:0:0:
160,192,39579,1,0,0:0:0:0:
96,192,39679,1,0,0:0:0:50:kick.wav
352,192,39679,1,0,0:0:0:50:snare.wav
288,192,39779,1,0,0:0:0:0:
480,192,39879,1,0,0:0:0:0:
224,192,39879,1,0,0:0:0:0:
416,192,39979,1,0,0:0:0:0:
160,192,39979,1,0,0:0:0:0:
352,192,40079,1,0,0:0:0:0:
96,192,40079,1,0,0:0:0:50:kick.wav
416,192,40279,1,0,0:0:0:0:
224,192,40279,1,0,0:0:0:0:
288,192,40379,1,0,0:0:0:0:
96,192,40479,1,0,0:0:0:50:kick.wav
352,192,40479,1,0,0:0:0:50:snare.wav
160,192,40579,1,0,0:0:0:0:
224,192,40679,1,0,0:0:0:0:
480,192,40679,1,0,0:0:0:0:
288,192,40779,1,0,0:0:0:0:
416,192,40879,1,0,0:0:0:50:kick.wav
352,192,40979,1,0,0:0:0:0:
96,192,41079,1,0,0:0:0:0:
288,192,41079,1,0,0:0:0:0:
224,192,41179,1,0,0:0:0:0:
160,192,41279,1,0,0:0:0:50:kick.wav
352,192,41279,1,0,0:0:0:50:snare.wav
288,192,41379,1,0,0:0:0:0:
416,192,41479,1,0,0:0:0:0:
224,192,41479,1,0,0:0:0:0:
160,192,41579,1,0,0:0:0:0:
352,192,41579,1,0,0:0:0:0:
96,192,41679,1,0,0:0:0:50:kick.wav
32,192,41679,1,0,0:0:0:80:LR_CymbalSSD.wav
288,192,41679,1,0,0:0:0:0:
352,192,41879,1,0,0:0:0:0:
480,192,41879,1,0,0:0:0:0:
160,192,42079,1,0,0:0:0:50:kick.wav
288,192,42079,1,0,0:0:0:50:snare.wav
352,192,42179,1,0,0:0:0:0:
224,192,42279,1,0,0:0:0:0:
416,192,42279,1,0,0:0:0:0:
480,192,42379,1,0,0:0:0:0:
96,192,42479,1,0,0:0:0:50:kick.wav
160,192,42679,1,0,0:0:0:0:
352,192,42679,1,0,0:0:0:0:
224,192,42779,1,0,0:0:0:0:
416,192,42779,1,0,0:0:0:0:
96,192,42879,1,0,0:0:0:50:kick.wav
288,192,42879,1,0,0:0:0:50:snare.wav
480,192,42879,1,0,0:0:0:0:
416,192,42979,1,0,0:0:0:0:
96,192,43079,1,0,0:0:0:50:kick.wav
352,192,43079,1,0,0:0:0:0:
224,192,43079,1,0,0:0:0:50:snare.wav
32,192,43079,1,0,0:0:0:100:LR_CymbalSSD.wav
480,192,43479,1,0,0:0:0:30:snare.wav
96,192,43479,1,0,0:0:0:50:kick.wav
416,192,43529,1,0,0:0:0:20:snare.wav
352,192,43579,1,0,0:0:0:30:snare.wav
288,192,43629,1,0,0:0:0:20:snare.wav
96,192,43679,1,0,0:0:0:50:kick.wav
480,192,43679,1,0,0:0:0:30:snare.wav
416,192,43729,1,0,0:0:0:20:snare.wav
352,192,43779,1,0,0:0:0:30:snare.wav
288,192,43829,1,0,0:0:0:20:snare.wav
96,192,43879,1,0,0:0:0:50:kick.wav
480,192,43879,1,0,0:0:0:30:snare.wav
416,192,43929,1,0,0:0:0:20:snare.wav
352,192,43979,1,0,0:0:0:30:snare.wav
288,192,44029,1,0,0:0:0:20:snare.wav
96,192,44079,1,0,0:0:0:50:kick.wav
224,192,44079,1,0,0:0:0:0:
480,192,44079,1,0,0:0:0:0:
32,192,44079,1,0,0:0:0:100:LR_CymbalSSD.wav
416,192,44479,1,0,0:0:0:0:
160,192,44479,1,0,0:0:0:50:kick.wav
288,192,44479,1,0,0:0:0:0:
32,192,44479,1,0,0:0:0:80:LR_CymbalRDW.wav
480,192,44879,1,0,0:0:0:0:
96,192,44879,1,0,0:0:0:50:kick.wav
352,192,44879,1,0,0:0:0:0:
32,192,44879,1,0,0:0:0:70:LR_Chm loong.wav
288,192,45079,1,0,0:0:0:0:
416,192,45079,1,0,0:0:0:0:
96,192,45279,1,0,0:0:0:50:kick.wav
224,192,45279,1,0,0:0:0:50:snare.wav
288,192,45479,1,0,0:0:0:0:
416,192,45479,1,0,0:0:0:0:
480,192,45579,1,0,0:0:0:0:
96,192,45679,1,0,0:0:0:50:kick.wav
32,192,45679,1,0,0:0:0:70:LR_Chm loong.wav
352,192,45679,1,0,0:0:0:0:
288,192,45879,1,0,0:0:0:0:
416,192,45879,1,0,0:0:0:0:
96,192,46079,1,0,0:0:0:50:kick.wav
352,192,46079,1,0,0:0:0:0:
224,192,46079,1,0,0:0:0:50:snare.wav
288,192,46279,1,0,0:0:0:0:
416,192,46279,1,0,0:0:0:0:
480,192,46379,1,0,0:0:0:0:
96,192,46479,1,0,0:0:0:50:kick.wav
352,192,46479,1,0,0:0:0:0:
32,192,46479,1,0,0:0:0:70:LR_Chm loong.wav
288,192,46679,1,0,0:0:0:0:
416,192,46679,1,0,0:0:0:0:
96,192,46879,1,0,0:0:0:50:kick.wav
224,192,46879,1,0,0:0:0:50:snare.wav
288,192,47079,1,0,0:0:0:0:
416,192,47079,1,0,0:0:0:0:
480,192,47179,1,0,0:0:0:0:
96,192,47279,1,0,0:0:0:50:kick.wav
352,192,47279,1,0,0:0:0:0:
32,192,47279,1,0,0:0:0:70:LR_Chm loong.wav
288,192,47479,1,0,0:0:0:0:
416,192,47479,1,0,0:0:0:0:
96,192,47679,1,0,0:0:0:50:kick.wav
352,192,47679,1,0,0:0:0:0:
224,192,47679,1,0,0:0:0:50:snare.wav
160,192,47879,1,0,0:0:0:0:
416,192,47879,1,0,0:0:0:0:
480,192,47979,1,0,0:0:0:0:
96,192,48079,1,0,0:0:0:50:kick.wav
224,192,48079,1,0,0:0:0:0:
352,192,48079,1,0,0:0:0:0:
32,192,48079,1,0,0:0:0:70:LR_Chm loong.wav
160,192,48279,1,0,0:0:0:0:
288,192,48279,1,0,0:0:0:0:
96,192,48479,1,0,0:0:0:50:kick.wav
352,192,48479,1,0,0:0:0:50:snare.wav
288,192,48679,1,0,0:0:0:0:
160,192,48679,1,0,0:0:0:0:
416,192,48679,1,0,0:0:0:0:
32,192,48679,1,0,0:0:0:70:LR_Chm loong.wav
480,192,48779,1,0,0:0:0:0:
96,192,48879,1,0,0:0:0:50:kick.wav
352,192,48879,1,0,0:0:0:0:
288,192,49079,1,0,0:0:0:0:
160,192,49079,1,0,0:0:0:0:
96,192,49279,1,0,0:0:0:50:kick.wav
480,192,49279,1,0,0:0:0:0:
352,192,49279,1,0,0:0:0:50:snare.wav
160,192,49379,1,0,0:0:0:0:
288,192,49479,1,0,0:0:0:0:
416,192,49579,1,0,0:0:0:0:
32,192,49679,1,0,0:0:0:80:LR_Chm Soft Whistle Echo.wav
96,192,49679,1,0,0:0:0:50:kick.wav
224,192,49679,1,0,0:0:0:0:
480,192,49679,1,0,0:0:0:0:
32,192,49879,1,0,0:0:0:80:LR_Chm Soft Whistle Echo.wav
416,192,49879,1,0,0:0:0:0:
288,192,49879,1,0,0:0:0:0:
224,192,50079,1,0,0:0:0:50:kick.wav
288,192,50279,1,0,0:0:0:50:snare.wav
32,192,50279,1,0,0:0:0:80:LR_Chm Soft Whistle Echo.wav
416,192,50279,1,0,0:0:0:0:
96,192,50279,1,0,0:0:0:0:
32,192,50679,1,0,0:0:0:80:LR_Chm Soft Whistle Echo.wav
160,192,50679,1,0,0:0:0:50:kick.wav
288,192,50679,1,0,0:0:0:0:
416,192,50679,1,0,0:0:0:0:
224,192,50879,1,0,0:0:0:50:snare.wav
96,192,51079,1,0,0:0:0:50:kick.wav
352,192,51079,1,0,0:0:0:0:
480,192,51079,1,0,0:0:0:0:
32,192,51079,1,0,0:0:0:100:LR_CymbalSSD.wav
96,192,51479,1,0,0:0:0:50:kick.wav
352,192,51479,1,0,0:0:0:0:
480,192,51479,1,0,0:0:0:0:
160,192,51679,1,0,0:0:0:50:snare.wav
288,192,51679,1,0,0:0:0:0:
416,192,51679,1,0,0:0:0:0:
32,192,51879,1,0,0:0:0:70:LR_Chm Fast.wav
96,192,52079,1,0,0:0:0:50:kick.wav
352,192,52079,1,0,0:0:0:0:
224,192,52079,1,0,0:0:0:0:
160,192,52479,1,0,0:0:0:50:snare.wav
288,192,52479,1,0,0:0:0:0:
416,192,52479,1,0,0:0:0:0:
96,192,52879,1,0,0:0:0:50:kick.wav
224,192,52879,1,0,0:0:0:0:
416,192,52879,1,0,0:0:0:0:
32,192,52879,1,0,0:0:0:100:LR_CymbalSSD.wav
160,192,53279,1,0,0:0:0:50:snare.wav
352,192,53279,1,0,0:0:0:0:
480,192,53279,1,0,0:0:0:0:
32,192,53479,1,0,0:0:0:70:LR_Chm Fast.wav
96,192,53679,1,0,0:0:0:50:kick.wav
224,192,53679,1,0,0:0:0:0:
416,192,53679,1,0,0:0:0:0:
352,192,53879,1,0,0:0:0:0:
160,192,53879,1,0,0:0:0:0:
96,192,54079,1,0,0:0:0:50:snare.wav
224,192,54079,1,0,0:0:0:0:
416,192,54079,1,0,0:0:0:0:
288,192,54479,1,0,0:0:0:0:
416,192,54479,1,0,0:0:0:0:
96,192,54479,1,0,0:0:0:50:kick.wav
32,192,54479,1,0,0:0:0:100:LR_CymbalSSD.wav
288,192,54679,1,0,0:0:0:0:
416,192,54679,1,0,0:0:0:0:
96,192,54679,1,0,0:0:0:50:kick.wav
352,192,54879,1,0,0:0:0:0:
480,192,54879,1,0,0:0:0:0:
160,192,54879,1,0,0:0:0:50:snare.wav
288,192,55079,1,0,0:0:0:0:
416,192,55079,1,0,0:0:0:0:
96,192,55079,1,0,0:0:0:50:kick.wav
32,192,55279,1,0,0:0:0:100:LR_CymbalSSD.wav
352,192,55479,1,0,0:0:0:0:
480,192,55479,1,0,0:0:0:0:
160,192,55479,1,0,0:0:0:50:kick.wav
288,192,55679,1,0,0:0:0:50:snare.wav
416,192,55879,1,0,0:0:0:0:
160,192,55879,1,0,0:0:0:50:kick.wav
480,192,55979,1,0,0:0:0:0:
96,192,55979,1,0,0:0:0:0:
352,192,56079,1,0,0:0:0:0:
224,192,56079,1,0,0:0:0:0:
480,192,56179,1,0,0:0:0:0:
96,192,56179,1,0,0:0:0:0:
352,192,56279,1,0,0:0:0:0:
160,192,56279,1,0,0:0:0:50:kick.wav
224,192,56379,1,0,0:0:0:0:
416,192,56379,1,0,0:0:0:0:
352,192,56479,1,0,0:0:0:50:snare.wav
160,192,56479,1,0,0:0:0:0:
288,192,56579,1,0,0:0:0:0:
96,192,56579,1,0,0:0:0:0:
352,192,56679,1,0,0:0:0:50:kick.wav
480,192,56679,1,0,0:0:0:0:
416,192,56779,1,0,0:0:0:50:kick.wav
288,192,56779,1,0,0:0:0:0:
352,192,56879,1,0,0:0:0:50:snare.wav
224,192,56879,1,0,0:0:0:0:
160,192,56979,1,0,0:0:0:0:
480,192,56979,1,0,0:0:0:0:
96,192,57079,1,0,0:0:0:50:kick.wav
416,192,57079,1,0,0:0:0:0:
352,192,57179,1,0,0:0:0:0:
224,192,57179,1,0,0:0:0:0:
288,192,57279,1,0,0:0:0:0:
480,192,57279,1,0,0:0:0:50:snare.wav
416,192,57379,1,0,0:0:0:0:
224,192,57379,1,0,0:0:0:0:
352,192,57479,1,0,0:0:0:0:
160,192,57479,1,0,0:0:0:50:kick.wav
288,192,57579,1,0,0:0:0:0:
96,192,57579,1,0,0:0:0:0:
224,192,57679,1,0,0:0:0:50:kick.wav
352,192,57679,1,2,0:0:0:0:
32,192,57679,1,0,0:0:0:80:LR_CymbalSSD.wav
480,192,57679,1,0,0:0:0:0:
160,192,57979,1,0,0:0:0:50:kick.wav
32,192,57979,1,0,0:0:0:80:LR_CymbalSSD.wav
288,192,57979,1,2,0:0:0:0:
416,192,57979,1,0,0:0:0:0:
96,192,58279,1,0,0:0:0:50:kick.wav
352,192,58279,1,2,0:0:0:0:
32,192,58279,1,0,0:0:0:80:LR_CymbalSSD.wav
480,192,58279,1,0,0:0:0:0:
96,192,59279,1,0,0:0:0:50:kick.wav
224,192,59279,1,0,0:0:0:0:
416,192,59279,1,0,0:0:0:0:
32,192,59279,1,0,0:0:0:100:LR_CymbalSSD.wav
288,192,59479,1,0,0:0:0:0:
160,192,59479,1,0,0:0:0:0:
96,192,59679,1,0,0:0:0:50:kick.wav
352,192,59679,1,0,0:0:0:50:snare.wav
480,192,59679,1,0,0:0:0:0:
160,192,59879,1,0,0:0:0:0:
288,192,59879,1,0,0:0:0:0:
224,192,59979,1,0,0:0:0:0:
352,192,59979,1,0,0:0:0:0:
96,192,60079,1,0,0:0:0:50:kick.wav
288,192,60079,1,0,0:0:0:0:
416,192,60079,1,0,0:0:0:0:
480,192,60179,1,0,0:0:0:0:
288,192,60279,1,0,0:0:0:0:
160,192,60279,1,0,0:0:0:0:
224,192,60379,1,0,0:0:0:0:
352,192,60379,1,0,0:0:0:0:
416,192,60479,1,0,0:0:0:50:snare.wav
96,192,60479,1,0,0:0:0:50:kick.wav
288,192,60679,1,0,0:0:0:0:
160,192,60679,1,0,0:0:0:0:
480,192,60679,1,0,0:0:0:0:
352,192,60779,1,0,0:0:0:0:
224,192,60779,1,0,0:0:0:0:
96,192,60879,1,0,0:0:0:50:kick.wav
160,192,61079,1,0,0:0:0:0:
288,192,61079,1,0,0:0:0:0:
480,192,61079,1,0,0:0:0:0:
416,192,61279,1,0,0:0:0:0:
96,192,61279,1,0,0:0:0:50:kick.wav
224,192,61279,1,0,0:0:0:50:snare.wav
480,192,61479,1,0,0:0:0:0:
160,192,61479,1,0,0:0:0:0:
288,192,61479,1,0,0:0:0:0:
224,192,61679,1,0,0:0:0:50:kick.wav
352,192,61679,1,0,0:0:0:0:
480,192,61679,1,0,0:0:0:0:
32,192,61679,1,0,0:0:0:100:LR_CymbalSSD.wav
160,192,62079,1,0,0:0:0:50:kick.wav
32,192,62079,1,0,1:0:0:85:LR_CymbalRDW.wav
288,192,62079,1,0,0:0:0:50:snare.wav
416,192,62079,1,0,0:0:0:0:
416,192,62279,1,0,0:0:0:0:
288,192,62379,1,0,0:0:0:0:
96,192,62479,1,0,0:0:0:50:kick.wav
480,192,62479,1,0,0:0:0:0:
224,192,62479,1,0,0:0:0:0:
32,192,62479,1,0,0:0:0:100:LR_CymbalSSD.wav
160,192,62679,1,0,0:0:0:0:
352,192,62679,1,0,0:0:0:0:
416,192,62879,1,0,0:0:0:0:
96,192,62879,1,0,0:0:0:50:kick.wav
288,192,62879,1,0,0:0:0:50:snare.wav
352,192,63079,1,0,0:0:0:0:
160,192,63079,1,0,0:0:0:0:
416,192,63179,1,0,0:0:0:0:
224,192,63179,1,0,0:0:0:0:
96,192,63279,1,0,0:0:0:50:kick.wav
352,192,63279,1,0,0:0:0:0:
480,192,63279,1,0,0:0:0:0:
224,192,63379,1,0,0:0:0:0:
160,192,63479,1,0,0:0:0:0:
352,192,63479,1,0,0:0:0:0:
224,192,63579,1,0,0:0:0:0:
416,192,63579,1,0,0:0:0:0:
480,192,63679,1,0,0:0:0:50:snare.wav
96,192,63679,1,0,0:0:0:50:kick.wav
160,192,63879,1,0,0:0:0:0:
416,192,63879,1,0,0:0:0:0:
288,192,63879,1,0,0:0:0:0:
224,192,63979,1,0,0:0:0:0:
352,192,63979,1,0,0:0:0:0:
96,192,64079,1,0,0:0:0:50:kick.wav
480,192,64279,1,0,0:0:0:0:
352,192,64279,1,0,0:0:0:0:
160,192,64279,1,0,0:0:0:0:
96,192,64479,1,0,0:0:0:50:kick.wav
224,192,64479,1,0,0:0:0:50:snare.wav
416,192,64479,1,0,0:0:0:0:
160,192,64679,1,0,0:0:0:0:
480,192,64679,1,0,0:0:0:0:
288,192,64679,1,0,0:0:0:0:
224,192,64879,1,0,0:0:0:0:
352,192,64879,1,0,0:0:0:0:
96,192,64879,1,0,0:0:0:50:kick.wav
32,192,64879,1,0,0:0:0:100:LR_CymbalSSD.wav
288,192,65279,1,0,0:0:0:50:snare.wav
416,192,65279,1,0,0:0:0:0:
160,192,65279,1,0,0:0:0:50:kick.wav
32,192,65279,1,0,1:0:0:85:LR_CymbalRDW.wav
480,192,65479,1,0,0:0:0:0:
352,192,65579,1,0,0:0:0:0:
480,192,65679,1,0,0:0:0:0:
224,192,65679,1,0,0:0:0:0:
96,192,65679,1,0,0:0:0:50:kick.wav
32,192,65679,1,0,0:0:0:100:LR_CymbalSSD.wav
288,192,65879,1,0,0:0:0:0:
160,192,65879,1,0,0:0:0:0:
480,192,66079,1,0,0:0:0:0:
96,192,66079,1,0,0:0:0:50:kick.wav
352,192,66079,1,0,0:0:0:50:snare.wav
288,192,66279,1,0,0:0:0:0:
160,192,66279,1,0,0:0:0:0:
224,192,66379,1,0,0:0:0:0:
352,192,66379,1,0,0:0:0:0:
288,192,66479,1,0,0:0:0:0:
416,192,66479,1,0,0:0:0:0:
96,192,66479,1,0,0:0:0:50:kick.wav
480,192,66579,1,0,0:0:0:0:
160,192,66679,1,0,0:0:0:0:
288,192,66679,1,0,0:0:0:0:
224,192,66779,1,0,0:0:0:0:
352,192,66779,1,0,0:0:0:0:
416,192,66879,1,0,0:0:0:50:snare.wav
96,192,66879,1,0,0:0:0:50:kick.wav
224,192,67079,1,0,0:0:0:0:
352,192,67079,1,0,0:0:0:0:
480,192,67079,1,0,0:0:0:0:
416,192,67179,1,0,0:0:0:0:
288,192,67179,1,0,0:0:0:0:
96,192,67279,1,0,0:0:0:50:kick.wav
288,192,67479,1,0,0:0:0:0:
416,192,67479,1,0,0:0:0:0:
160,192,67479,1,0,0:0:0:0:
96,192,67679,1,0,0:0:0:50:kick.wav
224,192,67679,1,0,0:0:0:50:snare.wav
352,192,67679,1,0,0:0:0:0:
288,192,67879,1,0,0:0:0:0:
480,192,67879,1,0,0:0:0:0:
160,192,67879,1,0,0:0:0:0:
224,192,68079,1,0,0:0:0:50:kick.wav
352,192,68079,1,0,0:0:0:0:
480,192,68079,1,0,0:0:0:0:
32,192,68079,1,0,0:0:0:100:LR_CymbalSSD.wav
160,192,68479,1,0,0:0:0:50:kick.wav
288,192,68479,1,0,0:0:0:50:snare.wav
416,192,68479,1,0,0:0:0:0:
32,192,68479,1,0,1:0:0:85:LR_CymbalRDW.wav
416,192,68679,1,0,0:0:0:0:
288,192,68779,1,0,0:0:0:0:
96,192,68879,1,0,0:0:0:50:kick.wav
416,192,68879,1,0,0:0:0:0:
224,192,68879,1,0,0:0:0:0:
32,192,68879,1,0,0:0:0:100:LR_CymbalSSD.wav
160,192,69079,1,0,0:0:0:0:
288,192,69079,1,0,0:0:0:0:
96,192,69279,1,0,0:0:0:50:kick.wav
480,192,69279,1,0,0:0:0:0:
224,192,69279,1,0,0:0:0:50:snare.wav
160,192,69479,1,0,0:0:0:0:
352,192,69479,1,0,0:0:0:0:
224,192,69579,1,0,0:0:0:0:
416,192,69579,1,0,0:0:0:0:
96,192,69679,1,0,0:0:0:50:kick.wav
288,192,69679,1,0,0:0:0:0:
480,192,69679,1,0,0:0:0:0:
416,192,69779,1,0,0:0:0:0:
224,192,69879,1,0,0:0:0:0:
352,192,69879,1,0,0:0:0:0:
160,192,69979,1,0,0:0:0:0:
288,192,69979,1,0,0:0:0:0:
480,192,70079,1,0,0:0:0:50:snare.wav
96,192,70079,1,0,0:0:0:50:kick.wav
160,192,70279,1,0,0:0:0:0:
288,192,70279,1,0,0:0:0:0:
416,192,70279,1,0,0:0:0:0:
224,192,70379,1,0,0:0:0:0:
352,192,70379,1,0,0:0:0:0:
96,192,70479,1,0,0:0:0:50:kick.wav
160,192,70679,1,8,0:3:0:0:
480,192,70679,1,0,0:0:0:0:
288,192,70679,1,0,0:0:0:0:
416,192,70779,1,8,0:3:0:0:
96,192,70879,1,0,0:0:0:50:kick.wav
224,192,70879,1,0,0:0:0:0:
416,192,70979,1,4,0:3:0:0:
288,192,71079,1,0,0:0:0:0:
480,192,71079,1,0,0:0:0:0:
160,192,71079,1,0,0:0:0:0:
352,192,71179,1,4,0:3:0:0:
96,192,71279,1,0,0:0:0:50:kick.wav
224,192,71279,1,0,3:0:0:0:
416,192,71279,1,2,0:0:0:0:
32,192,71279,1,0,0:0:0:100:LR_CymbalSSD.wav
288,192,71379,1,0,0:0:0:0:
160,192,71479,1,4,0:3:0:0:
352,192,71479,1,0,0:0:0:0:
416,192,71579,1,0,0:0:0:0:
96,192,71679,1,0,0:0:0:50:kick.wav
480,192,71679,1,2,0:0:0:0:
224,192,71679,1,0,0:0:0:0:
32,192,71679,1,0,1:0:0:85:LR_CymbalRDW.wav
288,192,71779,1,0,0:0:0:0:
160,192,71879,1,0,0:0:0:50:kick.wav
352,192,71879,1,0,0:0:0:0:
416,192,71979,1,0,0:0:0:0:
288,192,72079,1,0,0:0:0:0:
96,192,72079,128,0,73479:0:0:0:70:LR_Chm Soft Whistle Echo.wav
480,192,72079,1,0,0:0:0:50:kick.wav
32,192,72079,1,0,0:0:0:100:LR_CymbalSSD.wav
224,192,72279,1,0,0:0:0:0:
352,192,72479,1,0,0:0:0:50:snare.wav
480,192,72479,1,0,0:0:0:50:kick.wav
224,192,72679,1,0,0:0:0:0:
480,192,72879,1,0,0:0:0:50:kick.wav
224,192,73079,1,0,0:0:0:0:
352,192,73279,1,0,0:0:0:50:snare.wav
480,192,73279,1,0,0:0:0:50:kick.wav
288,192,73479,1,0,0:0:0:0:
160,192,73479,1,0,0:0:0:0:
96,192,73579,1,0,0:0:0:0:
224,192,73679,128,0,75079:0:0:0:70:LR_Chm Soft Whistle Echo.wav
352,192,73679,1,0,0:0:0:50:kick.wav
416,192,73879,1,0,0:0:0:0:
480,192,74079,1,0,0:0:0:50:snare.wav
288,192,74079,1,0,0:0:0:50:kick.wav
416,192,74279,1,0,0:0:0:0:
352,192,74379,1,0,0:0:0:0:
288,192,74479,1,0,0:0:0:50:kick.wav
352,192,74579,1,0,0:0:0:0:
416,192,74679,1,0,0:0:0:0:
480,192,74879,1,0,0:0:0:50:snare.wav
288,192,74879,1,0,0:0:0:50:kick.wav
416,192,75079,1,0,0:0:0:0:
160,192,75079,1,0,0:0:0:0:
224,192,75179,1,0,0:0:0:0:
352,192,75279,128,0,76679:0:0:0:70:LR_Chm Soft Whistle Echo.wav
96,192,75279,1,0,0:0:0:50:kick.wav
224,192,75479,1,0,0:0:0:0:
288,192,75679,1,0,0:0:0:50:snare.wav
160,192,75679,1,0,0:0:0:50:kick.wav
224,192,75879,1,0,0:0:0:0:
160,192,75979,1,0,0:0:0:0:
96,192,76079,1,0,0:0:0:50:kick.wav
160,192,76179,1,0,0:0:0:0:
224,192,76279,1,0,0:0:0:0:
288,192,76479,1,0,0:0:0:50:snare.wav
96,192,76479,1,0,0:0:0:50:kick.wav
416,192,76679,1,0,0:0:0:0:
224,192,76679,1,0,0:0:0:0:
352,192,76779,1,0,0:0:0:0:
480,192,76879,128,0,77879:0:0:0:70:LR_Chm Soft Whistle Echo.wav
96,192,76879,1,0,0:0:0:50:kick.wav
352,192,77079,1,0,0:0:0:0:
224,192,77279,1,0,0:0:0:50:snare.wav
96,192,77279,1,0,0:0:0:50:kick.wav
416,192,77479,1,0,0:0:0:0:
288,192,77579,1,0,0:0:0:0:
96,192,77679,1,0,0:0:0:50:kick.wav
224,192,77679,1,0,0:0:0:0:
288,192,77779,1,0,0:0:0:0:
416,192,77879,1,0,0:0:0:0:
160,192,77879,1,0,0:0:0:0:
480,192,77979,1,0,0:0:0:0:
96,192,77979,1,0,0:0:0:50:kick.wav
224,192,78079,1,0,0:0:0:50:kick.wav
352,192,78079,1,0,0:0:0:50:snare.wav
96,192,78279,1,0,0:0:0:50:kick.wav
480,192,78279,1,0,0:0:0:0:
288,192,78279,1,0,0:0:0:0:
416,192,78379,1,0,0:0:0:0:
96,192,78479,1,0,0:0:0:50:kick.wav
224,192,78479,1,0,0:0:0:0:
32,192,78479,1,0,0:0:0:100:LR_CymbalSSD.wav
416,192,78679,1,0,0:0:0:0:
160,192,78679,1,0,0:0:0:0:
288,192,78779,1,0,0:0:0:0:
96,192,78879,1,0,0:0:0:50:kick.wav
480,192,78879,1,0,0:0:0:0:
224,192,78879,1,0,0:0:0:50:snare.wav
416,192,79079,1,0,0:0:0:0:
160,192,79079,1,0,0:0:0:0:
96,192,79279,1,0,0:0:0:50:kick.wav
352,192,79279,1,0,0:0:0:0:
224,192,79379,1,0,0:0:0:0:
416,192,79479,1,0,0:0:0:0:
160,192,79479,1,0,0:0:0:0:
96,192,79679,1,0,0:0:0:50:kick.wav
352,192,79679,1,0,0:0:0:0:
224,192,79679,1,0,0:0:0:50:snare.wav
416,192,79879,1,0,0:0:0:0:
160,192,79879,1,0,0:0:0:0:
288,192,79979,1,0,0:0:0:0:
96,192,80079,1,0,0:0:0:50:kick.wav
352,192,80079,1,0,0:0:0:0:
32,192,80079,1,0,0:0:0:100:LR_CymbalSSD.wav
416,192,80279,1,0,0:0:0:0:
288,192,80279,1,0,0:0:0:0:
96,192,80479,1,0,0:0:0:50:kick.wav
352,192,80479,1,0,0:0:0:0:
224,192,80479,1,0,0:0:0:50:snare.wav
288,192,80679,1,0,0:0:0:0:
160,192,80679,1,0,0:0:0:0:
416,192,80779,1,0,0:0:0:0:
96,192,80879,1,0,0:0:0:50:kick.wav
480,192,80879,1,0,0:0:0:0:
288,192,80979,1,0,0:0:0:0:
416,192,80979,1,0,0:0:0:0:
224,192,81079,1,0,0:0:0:0:
352,192,81079,1,0,0:0:0:0:
480,192,81179,1,0,0:0:0:0:
160,192,81179,1,0,0:0:0:0:
416,192,81279,1,0,0:0:0:50:kick.wav
96,192,81279,1,0,0:0:0:50:snare.wav
352,192,81379,1,0,0:0:0:0:
224,192,81379,1,0,0:0:0:0:
416,192,81479,1,0,0:0:0:0:
288,192,81479,1,0,0:0:0:0:
352,192,81579,1,0,0:0:0:0:
224,192,81579,1,0,0:0:0:0:
96,192,81679,5,0,0:0:0:50:kick.wav
288,192,81679,1,0,0:0:0:0:
416,192,81679,1,2,0:0:0:0:
160,192,81679,1,0,0:0:0:0:
96,192,81879,1,0,0:0:0:50:kick.wav
160,192,81879,1,0,0:0:0:0:
416,192,81879,1,2,0:0:0:0:
288,192,81879,1,0,0:0:0:0:
160,192,82279,1,0,0:0:0:50:kick.wav
352,192,82279,1,0,0:0:0:0:
480,192,82279,1,2,0:0:0:0:
224,192,82279,1,0,0:0:0:0:
96,192,82679,5,0,0:0:0:50:kick.wav
416,192,82679,1,2,0:0:0:0:
288,192,82679,1,0,0:0:0:0:
160,192,82679,1,0,0:0:0:0:
96,192,83079,1,0,0:0:0:50:kick.wav
352,192,83079,1,0,0:0:0:0:
224,192,83079,1,0,0:0:0:0:
480,192,83079,1,2,0:0:0:0:
32,192,83079,1,0,0:0:0:100:LR_CymbalSSD.wav
288,192,83429,1,0,0:0:0:40:snare.wav
96,192,83479,1,0,0:0:0:60:snare.wav
224,192,83529,1,0,0:0:0:40:snare.wav
352,192,83579,1,0,0:0:0:50:snare.wav
480,192,83629,1,0,0:0:0:40:snare.wav
160,192,83679,1,0,0:0:0:60:snare.wav
224,192,83729,1,0,0:0:0:40:snare.wav
352,192,83779,1,0,0:0:0:50:snare.wav
416,192,83829,1,0,0:0:0:40:snare.wav
96,192,83879,1,0,0:0:0:60:snare.wav
224,192,83929,1,0,0:0:0:40:snare.wav
352,192,83979,1,0,0:0:0:50:snare.wav
480,192,84029,1,0,0:0:0:40:snare.wav
32,192,84079,1,4,3:0:0:0:
352,192,84879,1,0,0:0:0:0:
480,192,84879,1,0,0:0:0:0:
96,192,84879,1,0,0:0:0:50:kick.wav
32,192,84879,1,0,0:0:0:100:LR_CymbalSSD.wav
224,192,85079,1,0,0:0:0:0:
160,192,85179,1,0,0:0:0:0:
352,192,85279,1,0,0:0:0:0:
480,192,85279,1,0,0:0:0:0:
32,192,85479,1,0,0:0:0:65:LR_Kick Low Strong Beat.wav
224,192,85479,1,0,0:0:0:0:
160,192,85579,1,0,0:0:0:0:
288,192,85679,1,0,0:0:0:0:
416,192,85679,1,0,0:0:0:0:
352,192,85879,1,0,0:0:0:0:
480,192,85879,1,0,0:0:0:0:
96,192,86079,1,0,0:0:0:50:kick.wav
224,192,86279,1,0,0:0:0:0:
352,192,86279,1,0,0:0:0:0:
96,192,86279,1,0,0:0:0:50:kick.wav
32,192,86479,1,0,0:0:0:65:LR_Kick Low Strong Beat.wav
288,192,86679,1,0,0:0:0:0:
416,192,86779,1,0,0:0:0:0:
96,192,86879,1,0,0:0:0:0:
480,192,86979,1,0,0:0:0:0:
32,192,87079,1,0,0:0:0:65:LR_Kick Low Strong Beat.wav
352,192,87079,1,0,0:0:0:0:
416,192,87179,1,0,0:0:0:0:
160,192,87279,1,0,0:0:0:0:
288,192,87379,1,0,0:0:0:0:
32,192,87479,1,0,0:0:0:100:Water_Drip_01.wav
224,192,87479,1,0,0:0:0:0:
480,192,87579,1,0,0:0:0:50:kick.wav
32,192,87679,1,0,0:0:0:100:Water_Drip_01.wav
352,192,87679,1,0,0:0:0:50:kick.wav
32,192,87879,1,0,0:0:0:100:Water_Drip_01.wav
352,192,87879,1,0,0:0:0:50:kick.wav
288,192,88079,1,0,0:0:0:0:
416,192,88079,1,0,0:0:0:0:
96,192,88079,1,0,0:0:0:50:kick.wav
352,192,88179,1,0,0:0:0:0:
480,192,88179,1,0,0:0:0:0:
224,192,88279,1,0,0:0:0:0:
96,192,88379,1,0,0:0:0:0:
352,192,88479,1,0,0:0:0:0:
480,192,88479,1,0,0:0:0:0:
160,192,88479,1,0,0:0:0:50:kick.wav
32,192,88679,1,0,0:0:0:65:LR_Kick Low Strong Beat.wav
352,192,88779,1,0,0:0:0:0:
480,192,88779,1,0,0:0:0:0:
224,192,88879,1,0,0:0:0:50:kick.wav
32,192,88879,1,0,0:0:0:65:LR_Kick Low Strong Beat.wav
288,192,88979,1,0,0:0:0:0:
416,192,88979,1,0,0:0:0:0:
352,192,89079,1,0,0:0:0:0:
480,192,89079,1,0,0:0:0:0:
32,192,89179,1,0,0:0:0:65:LR_Kick Low Strong Beat.wav
416,192,89279,1,0,0:0:0:0:
160,192,89279,1,0,0:0:0:50:kick.wav
352,192,89379,1,0,0:0:0:0:
96,192,89479,1,0,0:0:0:0:
480,192,89479,1,2,0:0:0:0:
32,192,89479,1,0,0:0:0:70:LR_CymbalRDW.wav
160,192,89679,1,0,0:0:0:50:kick.wav
288,192,89679,1,0,0:0:0:0:
416,192,89779,1,0,0:0:0:0:
96,192,89879,1,0,0:0:0:0:
480,192,89979,1,0,0:0:0:0:
352,192,90079,1,0,0:0:0:0:
224,192,90079,1,0,0:0:0:50:kick.wav
480,192,90179,1,0,0:0:0:0:
96,192,90279,1,0,0:0:0:0:
288,192,90279,1,0,0:0:0:0:
32,192,90279,1,0,0:0:0:100:Water_Drip_01.wav
416,192,90379,1,0,0:0:0:0:
352,192,90479,5,0,0:0:0:0:
224,192,90479,1,0,0:0:0:50:kick.wav
32,192,90479,1,0,0:0:0:100:Water_Drip_01.wav
32,192,90679,1,0,0:0:0:100:Water_Drip_01.wav
160,192,90879,1,0,0:0:0:50:kick.wav
416,192,90879,1,0,0:0:0:0:
32,192,90879,1,0,0:0:0:100:Water_Drip_01.wav
288,192,91079,1,4,0:3:0:0:
96,192,91279,1,0,0:0:0:50:kick.wav
480,192,91279,1,2,0:0:0:0:
224,192,91279,1,0,0:0:0:0:
32,192,91279,1,0,0:0:0:100:LR_CymbalSSD.wav
160,192,91479,1,2,0:0:0:0:
352,192,91479,1,0,0:0:0:0:
480,192,91479,1,0,0:0:0:0:
96,192,91679,1,0,0:0:0:50:kick.wav
416,192,91679,1,0,0:0:0:50:snare.wav
160,192,91879,1,2,0:0:0:0:
352,192,91879,1,0,0:0:0:0:
96,192,92079,1,0,0:0:0:50:kick.wav
224,192,92079,1,0,0:0:0:0:
160,192,92279,1,2,0:0:0:0:
480,192,92279,1,0,0:0:0:0:
352,192,92279,1,0,0:0:0:0:
96,192,92479,1,0,0:0:0:50:kick.wav
416,192,92479,1,0,0:0:0:50:snare.wav
160,192,92679,1,0,0:0:0:0:
480,192,92679,1,0,0:0:0:0:
352,192,92679,1,0,0:0:0:0:
416,192,92779,1,0,0:0:0:0:
288,192,92779,1,0,0:0:0:0:
96,192,92879,1,0,0:0:0:50:kick.wav
352,192,92879,1,2,0:0:0:0:
224,192,92879,1,0,0:0:0:0:
160,192,93079,1,2,0:0:0:0:
416,192,93079,1,0,0:0:0:0:
96,192,93279,1,0,0:0:0:50:kick.wav
352,192,93279,1,0,0:0:0:50:snare.wav
416,192,93479,1,0,0:0:0:0:
224,192,93479,1,2,0:0:0:0:
480,192,93479,1,0,0:0:0:0:
352,192,93579,1,0,0:0:0:0:
160,192,93579,1,0,0:0:0:0:
96,192,93679,1,0,0:0:0:50:kick.wav
288,192,93679,1,0,0:0:0:0:
224,192,93879,1,2,0:0:0:0:
416,192,93879,1,0,0:0:0:0:
96,192,94079,1,0,0:0:0:50:kick.wav
480,192,94079,1,0,0:0:0:50:snare.wav
416,192,94279,1,0,0:0:0:0:
224,192,94279,1,0,0:0:0:0:
96,192,94479,1,0,0:0:0:50:kick.wav
352,192,94479,1,0,0:0:0:0:
480,192,94479,1,2,0:0:0:0:
160,192,94679,1,2,0:0:0:0:
288,192,94679,1,0,0:0:0:0:
480,192,94879,1,0,0:0:0:50:snare.wav
96,192,94879,1,0,0:0:0:50:kick.wav
288,192,94979,1,0,0:0:0:0:
416,192,95079,1,2,0:0:0:0:
160,192,95079,1,0,0:0:0:0:
352,192,95179,1,0,0:0:0:0:
224,192,95179,1,0,0:0:0:0:
480,192,95279,1,0,0:0:0:0:
96,192,95279,1,0,0:0:0:50:kick.wav
416,192,95379,1,0,0:0:0:0:
352,192,95479,1,2,0:0:0:0:
224,192,95479,1,0,0:0:0:0:
288,192,95579,1,0,0:0:0:0:
160,192,95579,1,0,0:0:0:0:
480,192,95679,1,0,0:0:0:50:snare.wav
96,192,95679,1,0,0:0:0:50:kick.wav
352,192,95779,1,0,0:0:0:0:
224,192,95879,1,0,0:0:0:0:
416,192,95879,1,0,0:0:0:0:
352,192,95979,1,0,0:0:0:0:
160,192,95979,1,0,0:0:0:0:
96,192,96079,1,0,0:0:0:50:kick.wav
288,192,96079,1,2,0:0:0:0:
352,192,96279,1,0,0:0:0:0:
160,192,96279,1,0,0:0:0:0:
224,192,96379,1,0,0:0:0:0:
416,192,96379,1,0,0:0:0:0:
480,192,96479,1,0,0:0:0:50:snare.wav
288,192,96479,1,0,0:0:0:50:kick.wav
288,192,96679,1,0,0:0:0:0:
160,192,96679,1,0,0:0:0:0:
352,192,96779,1,0,0:0:0:0:
224,192,96779,1,0,0:0:0:0:
96,192,96879,1,0,0:0:0:50:kick.wav
416,192,96879,1,2,0:0:0:0:
160,192,97079,1,0,0:0:0:50:snare.wav
352,192,97079,1,0,0:0:0:0:
224,192,97179,1,0,0:0:0:30:snare.wav
416,192,97179,1,0,0:0:0:0:
480,192,97279,1,0,0:0:0:0:
288,192,97279,1,0,0:0:0:50:kick.wav
288,192,97479,1,0,0:0:0:0:
160,192,97479,1,0,0:0:0:50:snare.wav
352,192,97579,1,0,0:0:0:30:snare.wav
224,192,97579,1,0,0:0:0:0:
416,192,97679,1,2,0:0:0:0:
96,192,97679,1,0,0:0:0:50:kick.wav
288,192,97679,1,0,0:0:0:0:
32,192,97679,1,0,0:0:0:100:LR_CymbalSSD.wav
160,192,97879,1,2,0:0:0:0:
416,192,97879,1,0,0:0:0:0:
224,192,97979,1,0,0:0:0:0:
480,192,98079,1,0,0:0:0:0:
288,192,98079,1,0,0:0:0:50:snare.wav
96,192,98079,1,0,0:0:0:50:kick.wav
160,192,98279,1,2,0:0:0:0:
352,192,98279,1,0,0:0:0:0:
288,192,98379,1,0,0:0:0:0:
416,192,98479,1,0,0:0:0:0:
96,192,98479,1,0,0:0:0:50:kick.wav
224,192,98479,1,0,0:0:0:0:
160,192,98679,1,2,0:0:0:0:
352,192,98679,1,0,0:0:0:0:
224,192,98779,1,0,0:0:0:0:
96,192,98879,1,0,0:0:0:50:snare.wav
160,192,99079,1,0,0:0:0:0:
288,192,99079,1,0,0:0:0:0:
416,192,99079,1,0,0:0:0:0:
224,192,99179,1,0,0:0:0:0:
96,192,99279,1,0,0:0:0:50:kick.wav
416,192,99445,1,0,0:0:0:0:
224,192,99479,1,2,0:0:0:0:
352,192,99512,1,0,0:0:0:0:
288,192,99579,1,0,0:0:0:0:
416,192,99679,1,0,0:0:0:50:snare.wav
96,192,99679,1,0,0:0:0:50:kick.wav
480,192,99879,1,0,0:0:0:0:
224,192,99879,1,2,0:0:0:0:
96,192,100079,1,0,0:0:0:50:kick.wav
352,192,100079,1,0,0:0:0:0:
480,192,100279,5,0,0:0:0:0:
224,192,100279,1,2,0:0:0:0:
352,192,100379,1,0,0:0:0:0:
416,192,100479,1,0,0:0:0:50:snare.wav
96,192,100479,1,0,0:0:0:50:kick.wav
288,192,100579,1,0,0:0:0:0:
352,192,100679,1,0,0:0:0:0:
224,192,100779,1,0,0:0:0:0:
288,192,100879,1,2,0:0:0:0:
96,192,100879,1,0,0:0:0:50:kick.wav
224,192,101079,1,2,0:0:0:0:
416,192,101079,1,0,0:0:0:0:
96,192,101279,1,0,0:0:0:50:snare.wav
352,192,101279,1,0,0:0:0:50:kick.wav
288,192,101479,1,2,0:0:0:0:
160,192,101479,1,0,0:0:0:0:
352,192,101579,1,0,0:0:0:0:
224,192,101579,1,0,0:0:0:0:
416,192,101679,1,0,0:0:0:0:
288,192,101679,1,0,0:0:0:50:kick.wav
480,192,101779,1,0,0:0:0:0:
160,192,101779,1,0,0:0:0:0:
352,192,101879,1,0,0:0:0:0:
224,192,101879,1,2,0:0:0:0:
480,192,101979,1,0,0:0:0:0:
352,192,102079,1,0,0:0:0:50:snare.wav
96,192,102079,1,0,0:0:0:50:kick.wav
160,192,102279,1,0,0:0:0:0:
288,192,102279,1,0,0:0:0:0:
416,192,102279,1,0,0:0:0:0:
352,192,102379,1,0,0:0:0:0:
224,192,102379,1,0,0:0:0:0:
480,192,102479,5,0,0:0:0:0:
96,192,102479,1,0,0:0:0:50:kick.wav
288,192,102612,1,0,0:0:0:0:
160,192,102612,1,0,0:0:0:0:
352,192,102745,1,0,0:0:0:0:
224,192,102745,1,0,0:0:0:0:
288,192,102879,1,0,0:0:0:0:
416,192,102879,1,0,0:0:0:50:kick.wav
96,192,103012,1,0,0:0:0:0:
224,192,103012,1,0,0:0:0:0:
288,192,103145,1,0,0:0:0:0:
416,192,103145,1,0,0:0:0:0:
480,192,103279,1,0,0:0:0:0:
224,192,103279,1,0,0:0:0:50:kick.wav
416,192,103412,1,0,0:0:0:0:
160,192,103412,1,0,0:0:0:0:
352,192,103545,1,0,0:0:0:0:
96,192,103545,1,0,0:0:0:0:
288,192,103679,1,0,0:0:0:50:kick.wav
416,192,103679,1,0,0:0:0:0:
96,192,103812,1,0,0:0:0:0:
224,192,103812,1,0,0:0:0:0:
352,192,103945,1,0,0:0:0:0:
480,192,103945,1,0,0:0:0:0:
96,192,104079,1,0,0:0:0:0:
224,192,104079,1,0,0:0:0:0:
480,192,104279,5,0,0:0:0:0:
160,192,104279,1,0,0:0:0:50:kick.wav
288,192,104279,1,0,0:0:0:0:
96,192,104479,1,0,0:0:0:50:kick.wav
224,192,104479,1,0,0:0:0:0:
416,192,104479,1,0,0:0:0:0:
160,192,104679,1,0,0:0:0:50:kick.wav
352,192,104679,1,0,0:0:0:0:
480,192,104679,1,0,0:0:0:0:
96,192,104879,1,0,0:0:0:50:kick.wav
288,192,104879,1,0,0:0:0:0:
416,192,104879,1,0,0:0:0:0:
352,192,105079,1,8,0:3:0:0:
160,192,105079,1,0,0:0:0:0:
288,192,105179,1,8,0:3:0:0:
416,192,105179,1,0,0:0:0:0:
224,192,105279,1,0,0:0:0:0:
96,192,105279,1,4,0:3:0:0:
352,192,105479,1,0,0:0:0:0:
160,192,105479,1,0,0:0:0:50:kick.wav
480,192,105479,1,0,0:0:0:0:
96,192,105679,1,0,0:0:0:50:kick.wav
224,192,105679,1,0,0:0:0:0:
416,192,105679,1,0,0:0:0:0:
160,192,105879,1,0,0:0:0:50:kick.wav
352,192,105879,1,0,0:0:0:0:
480,192,105879,1,0,0:0:0:0:
96,192,106079,1,0,0:0:0:50:kick.wav
224,192,106079,1,0,0:0:0:0:
416,192,106079,1,0,0:0:0:0:
352,192,106279,1,8,0:3:0:0:
224,192,106379,1,8,0:3:0:0:
288,192,106479,1,4,0:3:0:0:
224,192,106679,1,0,0:0:0:0:
352,192,106679,1,4,0:0:0:0:
96,192,106679,1,0,0:0:0:50:kick.wav
288,192,106979,1,0,0:0:0:0:
416,192,106979,1,4,0:0:0:0:
32,192,106979,1,2,0:0:0:0:
96,192,106979,1,0,0:0:0:50:kick.wav
96,192,107279,5,0,0:0:0:20:kick.wav
352,192,107279,1,0,0:0:0:0:
480,192,107279,1,4,0:0:0:0:
96,192,107379,1,0,0:0:0:20:kick.wav
96,192,107479,1,0,0:0:0:20:kick.wav
96,192,107579,1,0,0:0:0:20:kick.wav
480,192,107679,1,0,0:0:0:20:kick.wav
480,192,107779,1,0,0:0:0:20:kick.wav
480,192,107879,1,0,0:0:0:20:kick.wav
480,192,107979,1,0,0:0:0:20:kick.wav
96,192,108079,1,0,0:0:0:20:kick.wav
224,192,108129,1,0,0:0:0:20:kick.wav
480,192,108179,1,0,0:0:0:20:kick.wav
352,192,108229,1,0,0:0:0:20:kick.wav
96,192,108279,1,0,0:0:0:20:kick.wav
224,192,108329,1,0,0:0:0:20:kick.wav
480,192,108379,1,0,0:0:0:20:kick.wav
352,192,108429,1,0,0:0:0:20:kick.wav
96,192,108479,1,0,0:0:0:20:kick.wav
288,192,108479,1,0,0:0:0:0:
96,192,108879,1,0,0:0:0:50:kick.wav
352,192,108879,1,0,0:0:0:0:
32,192,108879,1,0,0:0:0:100:LR_CymbalSSD.wav
224,192,108879,1,0,0:0:0:0:
96,192,109479,1,0,0:0:0:50:kick.wav
160,192,109679,1,0,0:0:0:0:
416,192,109679,1,0,0:0:0:0:
288,192,109679,1,0,0:0:0:50:snare.wav
480,192,110479,1,0,0:0:0:0:
96,192,110479,1,0,0:0:0:50:kick.wav
352,192,110479,1,0,0:0:0:0:
96,192,111079,1,0,0:0:0:50:kick.wav
288,192,111279,1,0,0:0:0:50:snare.wav
416,192,111279,1,0,0:0:0:0:
32,192,111279,1,0,0:0:0:85:LR_CymbalRDW.wav
160,192,111279,1,0,0:0:0:0:
96,192,111679,1,0,0:0:0:50:kick.wav
352,192,111679,1,0,0:0:0:0:
224,192,111679,1,0,0:0:0:0:
160,192,112079,1,0,0:0:0:0:
480,192,112079,1,0,0:0:0:50:kick.wav
32,192,112079,1,0,0:0:0:85:LR_CymbalRDW.wav
288,192,112079,1,0,0:0:0:0:
480,192,112679,1,0,0:0:0:50:kick.wav
352,192,112879,1,0,0:0:0:0:
32,192,112879,1,0,0:0:0:85:LR_CymbalRDW.wav
224,192,112879,1,0,0:0:0:50:snare.wav
96,192,112879,1,0,0:0:0:0:
480,192,113679,1,0,0:0:0:50:kick.wav
160,192,113679,1,0,0:0:0:0:
32,192,113679,1,0,0:0:0:85:LR_CymbalRDW.wav
288,192,113679,1,0,0:0:0:0:
352,192,113979,1,0,0:0:0:50:kick.wav
224,192,114279,1,0,0:0:0:50:kick.wav
160,192,114479,1,0,0:0:0:50:snare.wav
416,192,114479,1,0,0:0:0:0:
32,192,114479,1,0,0:0:0:85:LR_CymbalRDW.wav
288,192,114479,1,0,0:0:0:0:
96,192,114679,1,0,0:0:0:50:kick.wav
480,192,114879,1,0,0:0:0:0:
32,192,114879,1,0,0:0:0:85:LR_CymbalRDW.wav
160,192,114879,1,0,0:0:0:50:snare.wav
352,192,114879,1,0,0:0:0:0:
416,192,115079,1,0,0:0:0:50:snare.wav
288,192,115179,1,0,0:0:0:50:snare.wav
96,192,115279,1,0,0:0:0:50:kick.wav
96,192,115679,1,0,0:0:0:50:kick.wav
416,192,115679,1,0,0:0:0:50:snare.wav
288,192,115679,1,0,0:0:0:0:
32,192,115679,1,0,0:0:0:100:LR_CymbalSSD.wav
416,192,115879,1,0,0:0:0:0:
288,192,115879,1,0,0:0:0:0:
480,192,115979,1,0,0:0:0:0:
352,192,116079,1,0,0:0:0:0:
96,192,116079,1,0,0:0:0:50:kick.wav
224,192,116079,1,0,0:0:0:0:
416,192,116179,1,0,0:0:0:0:
288,192,116279,1,0,0:0:0:0:
160,192,116279,1,0,0:0:0:0:
224,192,116379,1,0,0:0:0:0:
352,192,116379,1,0,0:0:0:0:
96,192,116479,1,0,0:0:0:50:kick.wav
416,192,116479,1,0,0:0:0:50:snare.wav
288,192,116679,1,0,0:0:0:0:
160,192,116679,1,0,0:0:0:0:
224,192,116779,1,0,0:0:0:0:
352,192,116779,1,0,0:0:0:0:
480,192,116879,1,0,0:0:0:50:kick.wav
96,192,116879,1,0,0:0:0:0:
288,192,117079,1,0,0:0:0:0:
160,192,117079,1,0,0:0:0:0:
416,192,117179,1,0,0:0:0:0:
224,192,117279,1,0,0:0:0:0:
480,192,117279,1,0,0:0:0:50:kick.wav
96,192,117279,1,0,0:0:0:50:snare.wav
160,192,117479,1,0,0:0:0:0:
288,192,117479,1,0,0:0:0:0:
416,192,117579,1,0,0:0:0:0:
96,192,117679,1,0,0:0:0:50:kick.wav
352,192,117679,1,0,0:0:0:0:
480,192,117679,1,0,0:0:0:0:
32,192,117679,1,0,0:0:0:100:LR_CymbalSSD.wav
96,192,118079,1,0,0:0:0:50:kick.wav
416,192,118079,1,0,0:0:0:50:snare.wav
288,192,118079,1,0,0:0:0:0:
32,192,118079,1,0,1:0:0:85:LR_CymbalRDW.wav
352,192,118279,1,0,0:0:0:0:
224,192,118379,1,0,0:0:0:0:
288,192,118479,1,0,0:0:0:0:
96,192,118479,1,0,0:0:0:50:kick.wav
416,192,118479,1,0,0:0:0:0:
32,192,118479,1,0,0:0:0:100:LR_CymbalSSD.wav
288,192,118679,1,0,0:0:0:0:
416,192,118679,1,0,0:0:0:0:
224,192,118879,1,0,0:0:0:0:
96,192,118879,1,0,0:0:0:50:kick.wav
352,192,118879,1,0,0:0:0:50:snare.wav
416,192,119079,1,0,0:0:0:0:
288,192,119079,1,0,0:0:0:0:
224,192,119179,1,0,0:0:0:0:
96,192,119279,1,0,0:0:0:50:kick.wav
480,192,119279,1,0,0:0:0:0:
352,192,119279,1,0,0:0:0:0:
288,192,119379,1,0,0:0:0:0:
160,192,119479,1,0,0:0:0:0:
32,192,119479,1,0,0:0:0:65:LR_Kick Low Strong Beat.wav
416,192,119479,1,0,0:0:0:0:
352,192,119579,1,0,0:0:0:0:
480,192,119579,1,0,0:0:0:0:
96,192,119679,1,0,0:0:0:50:snare.wav
224,192,119679,1,0,0:0:0:0:
416,192,119679,1,0,0:0:0:0:
160,192,119879,1,0,0:0:0:0:
32,192,119879,1,0,0:0:0:65:LR_Kick Low Strong Beat.wav
288,192,119879,1,0,0:0:0:0:
416,192,119979,1,0,0:0:0:0:
96,192,120079,1,0,0:0:0:50:kick.wav
288,192,120079,1,0,0:0:0:0:
224,192,120279,1,0,0:0:0:0:
416,192,120279,1,8,0:3:0:0:
352,192,120379,1,8,0:3:0:0:
160,192,120379,1,0,0:0:0:0:
96,192,120479,1,0,0:0:0:50:kick.wav
416,192,120579,1,4,0:3:0:0:
224,192,120579,1,0,0:0:0:0:
160,192,120679,1,0,0:0:0:0:
352,192,120679,1,0,0:0:0:0:
480,192,120779,1,4,3:0:0:0:
288,192,120779,1,0,0:0:0:0:
96,192,120879,1,0,0:0:0:50:kick.wav
224,192,120879,1,2,0:0:0:0:
416,192,120879,1,0,0:0:0:0:
32,192,120879,1,0,0:0:0:100:LR_CymbalSSD.wav
96,192,121079,1,0,0:0:0:50:kick.wav
416,192,121079,1,0,0:0:0:0:
224,192,121079,1,0,0:0:0:0:
96,192,121279,1,0,0:0:0:50:kick.wav
480,192,121279,1,0,0:0:0:0:
352,192,121279,1,2,0:0:0:0:
32,192,121279,1,0,1:0:0:85:LR_CymbalRDW.wav
96,192,121479,1,0,0:0:0:50:kick.wav
480,192,121479,1,0,0:0:0:0:
352,192,121479,1,0,0:0:0:0:
96,192,121679,1,0,0:0:0:50:kick.wav
288,192,121679,1,0,0:0:0:0:
480,192,121679,1,0,0:0:0:0:
32,192,121679,1,0,0:0:0:100:LR_CymbalSSD.wav
160,192,121879,1,0,0:0:0:0:
352,192,121879,1,0,0:0:0:0:
480,192,121879,1,0,0:0:0:0:
96,192,122079,1,0,0:0:0:50:kick.wav
224,192,122079,1,0,0:0:0:50:snare.wav
160,192,122279,1,0,0:0:0:0:
352,192,122279,1,0,0:0:0:0:
480,192,122279,1,0,0:0:0:0:
96,192,122479,1,0,0:0:0:50:kick.wav
288,192,122479,1,0,0:0:0:0:
416,192,122479,1,0,0:0:0:0:
160,192,122679,1,0,0:0:0:0:
352,192,122679,1,0,0:0:0:0:
480,192,122679,1,0,0:0:0:0:
96,192,122879,1,0,0:0:0:50:kick.wav
224,192,122879,1,0,0:0:0:50:snare.wav
160,192,123079,1,0,0:0:0:0:
352,192,123079,1,0,0:0:0:0:
224,192,123179,1,0,0:0:0:0:
288,192,123279,1,0,0:0:0:0:
96,192,123279,1,0,0:0:0:50:kick.wav
480,192,123279,1,0,0:0:0:0:
224,192,123479,1,0,0:0:0:0:
352,192,123479,1,0,0:0:0:0:
480,192,123479,1,0,0:0:0:0:
416,192,123679,1,0,0:0:0:50:snare.wav
96,192,123679,1,0,0:0:0:50:kick.wav
224,192,123879,1,0,0:0:0:0:
352,192,123879,1,0,0:0:0:0:
480,192,123879,1,0,0:0:0:0:
288,192,124079,1,0,0:0:0:0:
96,192,124079,1,0,0:0:0:50:kick.wav
416,192,124079,1,0,0:0:0:0:
224,192,124279,1,0,0:0:0:0:
352,192,124279,1,0,0:0:0:0:
480,192,124279,1,0,0:0:0:0:
288,192,124479,1,0,0:0:0:50:snare.wav
96,192,124479,1,0,0:0:0:50:kick.wav
224,192,124679,1,0,0:0:0:0:
416,192,124679,1,0,0:0:0:0:
288,192,124779,1,0,0:0:0:0:
480,192,124879,1,0,0:0:0:0:
352,192,124879,1,0,0:0:0:0:
96,192,124879,1,0,0:0:0:50:kick.wav
288,192,125079,1,0,0:0:0:0:
480,192,125079,1,0,0:0:0:0:
160,192,125079,1,0,0:0:0:0:
224,192,125279,1,0,0:0:0:50:snare.wav
96,192,125279,1,0,0:0:0:50:kick.wav
160,192,125479,1,0,0:0:0:0:
288,192,125479,1,0,0:0:0:0:
480,192,125479,1,0,0:0:0:0:
96,192,125679,1,0,0:0:0:50:kick.wav
352,192,125679,1,0,0:0:0:0:
224,192,125679,1,0,0:0:0:0:
160,192,125879,1,0,0:0:0:0:
416,192,125879,1,0,0:0:0:0:
288,192,125879,1,0,0:0:0:0:
96,192,126079,1,0,0:0:0:50:kick.wav
480,192,126079,1,0,0:0:0:50:snare.wav
224,192,126279,1,0,0:0:0:0:
352,192,126279,1,0,0:0:0:0:
416,192,126379,1,0,0:0:0:0:
480,192,126479,1,0,0:0:0:0:
96,192,126479,1,0,0:0:0:50:kick.wav
288,192,126479,1,0,0:0:0:0:
160,192,126679,1,0,0:0:0:0:
416,192,126679,1,0,0:0:0:0:
288,192,126679,1,0,0:0:0:0:
96,192,126879,1,0,0:0:0:50:kick.wav
480,192,126879,1,0,0:0:0:50:snare.wav
160,192,127079,1,0,0:0:0:0:
416,192,127079,1,0,0:0:0:0:
288,192,127079,1,0,0:0:0:0:
480,192,127279,1,0,0:0:0:50:kick.wav
96,192,127279,1,0,0:0:0:0:
160,192,127479,1,0,0:0:0:0:
416,192,127479,1,0,0:0:0:0:
352,192,127579,1,0,0:0:0:50:kick.wav
224,192,127579,1,0,0:0:0:0:
480,192,127679,1,0,0:0:0:50:kick.wav
96,192,127679,1,0,0:0:0:50:snare.wav
480,192,127879,1,0,0:0:0:50:kick.wav
160,192,127879,1,0,0:0:0:0:
352,192,127879,1,0,0:0:0:0:
96,192,128079,1,0,0:0:0:50:kick.wav
288,192,128079,1,0,0:0:0:0:
32,192,128079,1,0,0:0:0:100:LR_CymbalSSD.wav
480,192,128279,1,0,0:0:0:0:
160,192,128279,1,0,0:0:0:0:
416,192,128379,1,0,0:0:0:0:
96,192,128479,1,0,0:0:0:50:kick.wav
352,192,128479,1,0,0:0:0:0:
224,192,128479,1,0,0:0:0:50:snare.wav
480,192,128679,1,0,0:0:0:0:
160,192,128679,1,0,0:0:0:0:
416,192,128779,1,0,0:0:0:0:
96,192,128879,1,0,0:0:0:50:kick.wav
352,192,128879,1,0,0:0:0:0:
416,192,128979,1,0,0:0:0:0:
480,192,129079,1,0,0:0:0:0:
160,192,129079,1,0,0:0:0:0:
416,192,129179,1,0,0:0:0:0:
96,192,129279,1,0,0:0:0:50:kick.wav
352,192,129279,1,0,0:0:0:0:
224,192,129279,1,0,0:0:0:50:snare.wav
480,192,129479,1,0,0:0:0:0:
160,192,129479,1,0,0:0:0:0:
416,192,129579,1,0,0:0:0:0:
96,192,129679,1,0,0:0:0:50:kick.wav
352,192,129679,1,0,0:0:0:0:
32,192,129679,1,0,0:0:0:100:LR_CymbalSSD.wav
480,192,129879,1,0,0:0:0:0:
288,192,129879,1,0,0:0:0:0:
416,192,129979,1,0,0:0:0:0:
96,192,130079,5,0,0:0:0:50:kick.wav
352,192,130079,1,0,0:0:0:0:
224,192,130079,1,0,0:0:0:50:snare.wav
416,192,130279,1,0,0:0:0:0:
288,192,130279,1,0,0:0:0:0:
160,192,130379,1,0,0:0:0:0:
416,192,130479,5,0,0:0:0:0:
288,192,130479,1,0,0:0:0:50:kick.wav
352,192,130579,5,0,0:0:0:0:
224,192,130579,1,0,0:0:0:0:
288,192,130679,1,0,0:0:0:0:
160,192,130679,1,0,0:0:0:0:
352,192,130779,1,0,0:0:0:0:
224,192,130779,1,0,0:0:0:0:
416,192,130879,1,0,0:0:0:50:snare.wav
288,192,130879,1,0,0:0:0:50:kick.wav
352,192,130979,1,0,0:0:0:0:
224,192,130979,1,0,0:0:0:0:
288,192,131079,1,0,0:0:0:0:
160,192,131079,1,0,0:0:0:0:
224,192,131179,1,0,0:0:0:0:
96,192,131179,1,0,0:0:0:0:
160,192,131279,5,0,0:0:0:50:kick.wav
288,192,131279,1,0,0:0:0:0:
416,192,131279,1,0,0:0:0:0:
352,192,131279,1,0,0:0:0:0:
160,192,131479,1,0,0:0:0:50:kick.wav
288,192,131479,1,0,0:0:0:0:
416,192,131479,1,0,0:0:0:0:
352,192,131479,1,0,0:0:0:0:
480,192,131879,1,0,0:0:0:0:
416,192,131879,1,0,0:0:0:0:
352,192,131879,1,0,0:0:0:0:
224,192,131879,1,0,0:0:0:50:kick.wav
96,192,132279,5,0,0:0:0:50:kick.wav
352,192,132279,1,0,0:0:0:0:
224,192,132279,1,0,0:0:0:0:
160,192,132279,1,0,0:0:0:0:
480,192,132679,5,0,0:0:0:0:
96,192,132679,1,0,0:0:0:50:kick.wav
352,192,132679,1,0,0:0:0:0:
224,192,132679,1,0,0:0:0:0:
32,192,132679,1,0,0:0:0:100:LR_CymbalSSD.wav
96,192,133029,1,0,0:0:0:30:snare.wav
224,192,133079,5,0,0:0:0:60:snare.wav
352,192,133129,1,0,0:0:0:30:snare.wav
480,192,133179,1,0,0:0:0:40:snare.wav
160,192,133229,1,0,0:0:0:30:snare.wav
288,192,133279,1,0,0:0:0:30:snare.wav
416,192,133329,1,0,0:0:0:30:snare.wav
96,192,133379,1,0,0:0:0:30:snare.wav
224,192,133429,1,0,0:0:0:30:snare.wav
352,192,133479,1,0,0:0:0:40:snare.wav
480,192,133529,1,0,0:0:0:30:snare.wav
288,192,133579,1,0,0:0:0:60:snare.wav
160,192,133629,1,0,0:0:0:30:snare.wav
32,192,133679,1,4,3:0:0:0:
96,192,134479,1,0,0:0:0:50:kick.wav
160,192,134479,1,0,0:0:0:0:
288,192,134479,1,0,0:0:0:70:LR_CymbalRDW.wav
416,192,134479,1,0,0:0:0:0:
480,192,134479,1,0,0:0:0:0:
32,192,134479,1,0,0:0:0:100:LR_CymbalSSD.wav
