osu file format v13

[General]
AudioFilename: 1.Imagine Gate.mp3
AudioLeadIn: 0
PreviewTime: 62184
Countdown: 1
SampleSet: Soft
StackLeniency: 0.7
Mode: 0
LetterboxInBreaks: 1
WidescreenStoryboard: 1

[Editor]
Bookmarks: 27476,39043,63621,86753,98320,146031,156151,180729,208199,231332,254464
DistanceSpacing: 1
BeatDivisor: 4
GridSize: 8
TimelineZoom: 1.4

[Metadata]
Title:Imagine Gate
TitleUnicode:Imagine Gate
Artist:Hoshina Yuko
ArtistUnicode:星名優子
Creator:Kotone
Version:123
Source:
Tags:
BeatmapID:451698
BeatmapSetID:185651

[Difficulty]
HPDrainRate:8
CircleSize:5
OverallDifficulty:8
ApproachRate:9
SliderMultiplier:1.6
SliderTickRate:1

[Events]
//Background and Video events
0,0,"1.jpg",0,0
//Break Periods
2,16110,26876
//Storyboard Layer 0 (Background)
//Storyboard Layer 1 (Fail)
//Storyboard Layer 2 (Pass)
//Storyboard Layer 3 (Foreground)
//Storyboard Sound Samples
//Background Colour Transformations
3,100,163,162,255

[TimingPoints]
7,361.44578313253,4,1,0,70,1,0
1272,-166.666666666667,4,2,0,60,0,0
10127,-200,4,2,0,60,0,0
11392,-133.333333333333,4,2,0,60,0,0
11573,-200,4,2,0,60,0,0
12838,-133.333333333333,4,2,0,60,0,0
13019,-200,4,2,0,60,0,0
14464,-100,4,1,0,45,0,0
15549,-100,4,1,0,60,0,0
15639,-100,4,1,0,45,0,0
15910,-100,4,2,0,60,0,0
27476,-200,4,2,0,60,0,0
30368,-153.846153846153,4,2,0,60,0,0
30729,-133.333333333333,4,2,0,60,0,0
31091,-117.647058823529,4,2,0,60,0,0
31452,-105.263157894737,4,2,0,60,0,0
31814,-153.846153846153,4,2,0,60,0,0
32717,-100,4,2,0,60,0,0
34163,-100,4,2,0,50,0,0
34344,-100,4,2,0,60,0,0
38139,-133.333333333333,4,2,0,60,0,0
38681,-133.333333333333,4,2,0,60,0,0
39043,-200,4,2,0,60,0,0
41392,-100,4,2,0,60,0,0
41934,-153.846153846154,4,2,0,60,0,0
42205,-133.333333333333,4,2,0,60,0,0
42567,-117.647058823529,4,2,0,60,0,0
42928,-105.263157894737,4,2,0,60,0,0
43380,-153.846153846154,4,2,0,60,0,0
44284,-100,4,2,0,60,0,0
49163,-153.846153846154,4,2,0,60,0,0
50247,-200,4,2,0,60,0,0
50609,-133.333333333333,4,2,0,60,0,0
59284,-100,4,2,0,60,0,0
62175,-100,4,2,0,60,0,0
63621,-100,4,2,0,60,0,1
86753,-100,4,2,0,60,0,0

[HitObjects]
230,94,1272,5,0,0:0:0:0:
230,94,1362,1,0,0:0:0:0:
230,94,1452,2,0,L|292:88,1,47.9999985351563,0|0,0:0|0:0,0:0:0:0:
345,115,1814,1,0,0:0:0:0:
407,80,1994,1,2,0:0:0:0:
407,80,2717,2,0,P|440:140|420:216,1,143.999995605469,0|0,0:0|0:0,0:0:0:0:
332,312,3621,2,0,P|314:245|334:211,1,95.9999970703126,2|0,0:0|0:0,0:0:0:0:
440,343,4344,5,2,0:0:0:0:
440,343,4525,1,0,0:0:0:0:
332,312,4705,2,0,L|267:318,1,47.9999985351563,0|0,0:0|0:0,0:0:0:0:
332,312,5609,2,0,P|274:326|210:264,1,143.999995605469
29,197,6513,2,0,P|63:175|127:187,1,95.9999970703126,2|0,0:0|0:0,0:0:0:0:
73,338,7235,6,0,L|79:287,1,47.9999985351563,0|0,0:0|0:0,0:0:0:0:
116,180,7597,1,0,0:0:0:0:
116,180,7778,1,2,0:0:0:0:
106,170,8139,2,0,P|101:140|101:118,1,47.9999985351563
136,59,8500,2,0,P|184:54|234:50,1,95.9999970703126,2|0,0:0|0:0,0:0:0:0:
299,75,9043,2,0,P|343:73|367:71,1,47.9999985351563,2|0,0:0|0:0,0:0:0:0:
411,40,9404,5,0,1:2:0:0:
478,136,9645,1,0,1:2:0:0:
408,230,9886,1,0,1:2:0:0:
297,191,10127,6,0,P|237:199|171:206,2,120,4|0|0,0:0|1:0|1:0,0:0:0:0:
282,291,11392,2,0,L|277:331,1,30.0000011444092
216,352,11573,6,0,P|156:337|95:318,2,120,4|0|0,0:0|1:0|1:0,0:0:0:0:
38,194,12838,2,0,L|50:155,1,30.0000011444092
30,99,13019,6,0,P|87:75|147:55,2,120,4|0|0,0:0|1:0|1:0,0:0:0:0:
141,180,14464,5,0,0:0:0:0:
219,196,14645,1,0,0:0:0:0:
297,178,14826,2,0,P|340:171|384:162,1,80,0|0,0:0|0:0,0:0:0:0:
215,92,15187,2,0,P|180:86|128:76,1,80,0|0,0:0|0:0,0:0:0:0:
300,284,15549,1,0,0:0:0:0:
377,264,15729,1,0,0:0:0:0:
324,60,15910,1,4,0:0:0:0:
36,145,27476,5,0,0:0:0:0:
99,153,27657,1,0,0:0:0:0:
149,112,27838,2,0,P|150:70|134:35,1,80
210,170,28380,1,0,0:0:0:0:
206,188,28561,2,0,L|183:269,1,80
246,330,29103,6,0,P|272:324|290:321,1,40,0|0,0:0|0:0,0:0:0:0:
105,304,29464,2,0,P|85:300|64:297,1,40
170,375,29826,1,0,0:0:0:0:
227,319,30006,2,0,L|298:304,1,60,0|0,0:0|0:0,0:0:0:0:
356,320,30368,6,0,P|395:304|419:266,1,77.9999964294435,0|0,0:0|0:0,0:0:0:0:
407,163,30729,2,0,P|421:203|438:254,1,90.0000034332277
474,384,31091,2,0,L|493:276,1,102.000001945496
500,147,31452,2,0,P|488:91|440:57,1,113.999996955872
367,79,31814,5,0,0:0:0:0:
512,13,32085,1,0,0:0:0:0:
327,139,32356,2,0,P|284:149|243:160,1,77.9999964294435
194,113,32717,1,0,0:0:0:0:
180,128,32808,1,0,0:0:0:0:
167,143,32898,2,0,P|122:154|137:91,1,120,0|0,1:0|0:0,0:0:0:0:
108,82,33260,6,0,L|23:78,1,80,0|0,0:0|0:0,0:0:0:0:
153,228,33621,2,0,L|232:224,1,80,0|0,1:0|0:0,0:0:0:0:
105,323,33982,1,0,0:0:0:0:
38,290,34163,1,0,1:0:0:0:
28,218,34344,2,0,B|28:165|52:119|52:119|58:160|73:186,1,160,0|0,1:0|0:0,0:0:0:0:
133,319,34886,6,0,P|147:348|163:401,1,80
218,250,35247,2,0,L|232:88,1,160
240,16,35699,6,0,L|236:65,1,40,0|0,0:0|1:0,0:0:0:0:
294,167,35970,1,0,0:0:0:0:
146,204,36151,2,0,P|133:163|145:129,1,80
160,116,36422,1,0,0:0:0:0:
160,116,36513,1,0,1:0:0:0:
296,257,36693,2,0,P|309:293|296:349,1,80
223,342,37055,2,0,P|192:365|135:370,1,80,0|0,0:0|1:0,0:0:0:0:
217,251,37416,1,0,0:0:0:0:
379,318,37597,5,0,1:0:0:0:
159,299,37778,1,0,0:0:0:0:
360,221,37958,1,0,0:0:0:0:
310,376,38139,2,0,B|291:336|296:298|296:298|287:249,1,120.000004577637,0|0,1:0|0:0,0:0:0:0:
422,112,38681,1,0,0:0:0:0:
422,112,39043,5,0,0:0:0:0:
386,169,39223,1,0,0:0:0:0:
318,157,39404,2,0,P|308:197|324:239,1,80
367,58,39946,1,0,0:0:0:0:
378,52,40127,2,0,L|294:67,1,80,0|0,0:0|0:0,0:0:0:0:
184,49,40669,5,0,0:0:0:0:
118,32,40850,1,0,0:0:0:0:
62,94,41030,1,0,0:0:0:0:
112,177,41211,1,0,0:0:0:0:
236,166,41392,2,0,L|283:174,1,40
343,175,41573,2,0,P|362:127|341:55,1,120
407,13,41934,6,0,L|441:91,1,77.9999964294435,0|0,0:0|0:0,0:0:0:0:
448,266,42296,2,0,L|467:172,1,90.0000034332277,0|0,0:0|0:0,0:0:0:0:
323,75,42657,2,0,L|346:189,1,102.000001945496
290,363,43019,2,0,L|313:249,1,102.000001945496
253,224,43380,5,0,1:0:0:0:
97,284,43651,1,0,1:0:0:0:
259,215,43922,2,0,L|338:204,1,77.9999964294435,4|0,1:2|0:0,0:0:0:0:
403,121,44284,5,0,0:0:0:0:
398,140,44374,1,0,0:0:0:0:
394,159,44464,2,0,P|404:196|450:206,1,80,0|0,1:0|0:0,0:0:0:0:
497,152,44735,5,0,0:0:0:0:
497,152,44826,2,0,L|479:67,1,80,0|0,0:0|0:0,0:0:0:0:
412,280,45187,2,0,P|408:335|431:361,1,80,0|0,1:0|0:0,0:0:0:0:
317,265,45549,1,0,0:0:0:0:
240,286,45729,1,0,0:0:0:0:
163,308,45910,2,0,L|178:213,1,80,0|0,1:0|0:0,0:0:0:0:
94,51,46272,6,0,P|89:91|56:106,1,80
190,134,46633,1,0,1:0:0:0:
164,308,46814,2,0,P|130:252|172:197,1,120
190,134,47175,2,0,L|248:115,1,40
290,99,47356,1,0,1:0:0:0:
361,167,47537,5,0,0:0:0:0:
361,167,47627,1,0,0:0:0:0:
361,167,47717,2,0,L|447:155,1,80
500,209,48079,1,0,1:0:0:0:
368,287,48260,2,0,L|282:275,1,80
214,304,48621,1,0,0:0:0:0:
132,176,48802,2,0,L|218:188,1,80,0|0,1:0|0:0,0:0:0:0:
212,304,49163,6,0,B|94:369|38:250|38:250,1,207.999990478516
22,129,50067,1,0,0:0:0:0:
22,129,50157,1,0,0:0:0:0:
22,129,50247,2,0,P|54:122|90:122,1,60,0|0,1:0|0:0,0:0:0:0:
109,130,50609,5,0,0:0:0:0:
166,256,50880,1,0,0:0:0:0:
166,256,50970,2,0,P|161:223|159:193,1,60.0000022888184,0|0,0:0|0:0,0:0:0:0:
327,175,51332,2,0,L|275:212,1,60.0000022888184
229,91,51693,2,0,P|278:87|356:79,1,120.000004577637
216,85,52235,1,0,0:0:0:0:
426,27,52416,6,0,P|435:54|441:88,1,60.0000022888184
435,158,52778,1,0,0:0:0:0:
373,252,52958,1,0,0:0:0:0:
373,252,53049,1,0,0:0:0:0:
373,252,53139,1,0,0:0:0:0:
439,149,53320,1,0,0:0:0:0:
373,252,53500,1,0,0:0:0:0:
441,310,53681,2,0,P|376:318|304:328,1,120.000004577637
240,287,54133,5,0,0:0:0:0:
240,287,54223,2,0,P|237:255|238:224,1,60.0000022888184
279,146,54585,1,0,0:0:0:0:
250,296,54766,2,0,P|209:329|133:323,1,120.000004577637
61,291,55308,1,0,0:0:0:0:
103,212,55488,1,0,0:0:0:0:
105,197,55579,1,0,0:0:0:0:
107,182,55669,1,0,0:0:0:0:
61,291,55850,1,0,0:0:0:0:
41,135,56031,2,0,P|43:88|49:43,1,90.0000034332277
161,75,56392,6,0,B|203:84|226:10|251:37|238:58|210:64,1,120.000004577637,0|0,0:0|0:0,0:0:0:0:
48,45,56934,1,0,0:0:0:0:
305,23,57115,6,0,P|307:71|279:111,1,90.0000034332277
276,117,57476,1,0,0:0:0:0:
70,50,57657,1,0,0:0:0:0:
154,24,57838,6,0,P|198:21|240:57,1,90.0000034332277
276,117,58199,2,0,P|280:160|246:204,1,90.0000034332277
180,230,58561,2,0,L|81:243,1,90.0000034332277
76,244,58922,1,0,0:0:0:0:
17,136,59103,1,0,0:0:0:0:
39,341,59284,6,0,P|81:337|132:327,1,80
272,294,59645,1,0,0:0:0:0:
186,91,59826,2,0,P|151:147|180:230,1,160
359,353,60368,2,0,P|374:313|361:263,1,80,0|0,0:0|0:0,0:0:0:0:
307,190,60729,5,0,0:0:0:0:
400,155,60910,1,0,0:0:0:0:
289,200,61091,2,0,L|208:213,1,80,0|0,0:0|0:0,0:0:0:0:
84,313,61452,6,0,P|66:299|56:286,1,40
104,163,61633,2,0,L|95:210,1,40
183,313,61814,2,0,L|163:268,1,40
218,111,61994,2,0,P|197:132|186:157,1,40
226,215,62175,6,0,L|304:202,1,80,0|0,0:0|0:0,0:0:0:0:
411,282,62537,1,0,0:0:0:0:
411,282,62627,1,0,0:0:0:0:
411,282,62717,1,0,0:0:0:0:
411,282,62808,1,0,0:0:0:0:
411,282,62898,1,0,0:0:0:0:
463,161,63079,2,0,P|467:115|467:75,1,80
