osu file format v10

[General]
AudioFilename: alice no taikutsu.mp3
AudioLeadIn: 0
PreviewTime: 61723
Countdown: 0
SampleSet: Soft
StackLeniency: 0.7
Mode: 0
LetterboxInBreaks: 0

[Editor]
DistanceSpacing: 1
BeatDivisor: 4
GridSize: 4

[Metadata]
Title:Alice no Taikutsu
TitleUnicode:
Artist:Hoshina Yuko
ArtistUnicode:
Creator:kurohana
Version:Normal
Source:
Tags:Alice in Wonderland Wonder Halloween Chibicco Folk
BeatmapID:166901
BeatmapSetID:54929

[Difficulty]
HPDrainRate:2
CircleSize:3
OverallDifficulty:1
ApproachRate:3
SliderMultiplier:0.799999999999999
SliderTickRate:1

[Events]
//Background and Video events
0,0,"alice_in_wonderland_61672_1195x1054.jpg"
//Break Periods
2,10673,19033
2,34423,40283
2,81923,90283
2,131923,145283
//Storyboard Layer 0 (Background)
//Storyboard Layer 1 (Fail)
//Storyboard Layer 2 (Pass)
//Storyboard Layer 3 (Foreground)
//Storyboard Sound Samples
//Background Colour Transformations
3,100,163,162,255

[TimingPoints]
473,312.5,4,2,1,60,1,0
9848,-100,4,1,1,60,0,0
10160,-100,4,1,1,60,0,0
20473,-100,4,2,1,30,0,0
21723,-100,4,1,1,60,0,0
59223,-100,4,1,1,60,0,0
61723,-100,4,1,1,60,0,1
71644,-100,4,1,1,60,0,0
71723,-100,4,1,1,60,0,1
81644,-100,4,1,1,60,0,0
81723,-100,4,1,1,60,0,1
81801,-100,4,1,1,60,0,0
91723,-100,4,2,1,60,0,0
101723,-100,4,1,1,60,0,0
111723,-100,4,1,1,60,0,1
121644,-100,4,1,1,60,0,0
121723,-100,4,1,1,60,0,1
131644,-100,4,1,1,60,0,0
131723,-100,4,2,1,60,0,1
131801,-100,4,1,1,60,0,0
146723,-100,4,2,1,60,0,0
148598,312.5,4,1,1,60,1,0
158598,-100,4,2,1,60,0,0
159535,-100,4,1,1,60,0,0
161098,-100,4,1,1,60,0,1
168519,-100,4,1,1,60,0,0
168598,-100,4,1,1,60,0,1
178598,-100,4,2,1,60,0,0
183519,-100,4,1,1,60,0,1
183598,-100,4,1,1,60,0,0

[Colours]
Combo1 : 0,255,128
Combo2 : 255,204,0
Combo3 : 3,208,252
Combo4 : 231,22,12

[HitObjects]
188,180,9223,2,0,B|216:104,1,79.9999999999999
296,104,9848,2,0,B|324:180,1,79.9999999999999
256,224,10473,1,4,0:0:0
208,192,20473,6,0,B|164:144|176:72|256:32|336:72|348:144|304:192,1,320,2|4,0:0|0:0,0:0:0
256,256,22035,6,0,B|240:292|192:316|144:292|128:256,1,160,8|8,0:0|0:0,0:0:0
128,176,22973,1,0,0:0:0
128,96,23285,2,0,B|144:60|192:36|240:60|256:96,1,160,8|8,0:0|0:0,0:0:0
256,176,24223,6,0,B|296:196|332:176,1,79.9999999999999,0|8,0:0|0:0,0:0:0
372,104,24848,2,0,B|332:84|295:104,1,79.9999999999999,8|0,0:0|0:0,0:0:0
440,176,25785,1,8,0:0:0
320,284,26410,1,8,0:0:0
248,316,26723,5,0,0:0:0
172,284,27035,2,0,B|120:212|172:136,1,160,8|8,0:0|0:0,0:0:0
244,104,27973,1,0,0:0:0
320,136,28285,2,0,B|372:212|320:284,1,160,8|8,0:0|0:0,0:0:0
240,268,29223,5,0,0:0:0
112,176,29848,1,0,0:0:0
192,40,30473,1,0,0:0:0
320,136,31098,1,0,0:0:0
256,192,31723,12,4,34223,0:0:0
216,44,41723,6,0,B|208:140|116:152,1,160
232,264,42973,2,0,B|240:168|332:156,1,160
308,316,44223,6,0,B|232:368|160:316,1,160
244,180,45473,2,0,B|320:128|392:180,1,160
432,248,46410,1,8,0:0:0
376,304,46723,6,0,B|296:312,1,79.9999999999999,0|8,0:0|0:0,0:0:0
280,232,47348,2,0,B|360:224,1,79.9999999999999,0|8,0:0|0:0,0:0:0
416,168,47973,2,0,B|428:116|384:56|320:68,1,160
336,148,48910,1,8,0:0:0
256,148,49223,5,0,0:0:0
176,284,49848,1,0,0:0:0
336,284,50473,1,0,0:0:0
256,148,51098,1,0,0:0:0
108,84,51723,6,0,B|36:116|0:192|36:268|108:300,1,280,0|0,0:0|0:0,0:0:0
348,160,53910,5,8,0:0:0
376,84,54223,2,0,B|448:116|484:192|448:268|376:300,1,280,0|0,0:0|0:0,0:0:0
256,292,55785,2,0,B|256:212,1,79.9999999999999,8|0,0:0|0:0,0:0:0
216,144,56410,1,8,0:0:0
255,76,56723,6,0,B|285:-2|397:39|377:157|296:144,1,240,0|8,0:0|0:0,0:0:0
216,144,57973,2,0,B|134:130|114:248|226:290|256:212,1,240,0|8,0:0|0:0,0:0:0
256,192,59223,12,0,61098,0:0:0
160,176,61723,6,0,B|220:236,1,79.9999999999999,0|8,0:0|0:0,0:0:0
295,232,62348,2,0,B|351:175,1,79.9999999999999,0|8,0:0|0:0,0:0:0
332,100,62973,2,0,B|252:112|172:100,1,160
108,52,63910,2,0,B|84:88|96:132,1,79.9999999999999,8|0,0:0|0:0,0:0:0
144,192,64535,6,0,B|204:192|240:260|212:308,2,160,8|8|8,0:0|0:0|0:0,0:0:0
140,272,66098,1,0,0:0:0
72,228,66410,1,8,0:0:0
76,148,66723,6,0,B|116:72|208:68,1,160
288,204,67973,2,0,B|248:280|156:284,1,160
132,208,68910,1,8,0:0:0
208,188,69223,1,0,0:0:0
288,204,69535,2,0,B|364:248|440:204,1,160,8|8,0:0|0:0,0:0:0
468,176,70316,2,0,B|436:140|444:84,2,79.9999999999999
436,292,71410,1,0,0:0:0
360,312,71723,6,0,B|312:308|296:272,1,79.9999999999999,4|8,0:0|0:0,0:0:0
304,192,72348,2,0,B|352:196|368:232,1,79.9999999999999,0|8,0:0|0:0,0:0:0
360,312,72973,2,0,B|268:316|236:228,1,160
200,160,73910,1,8,0:0:0
132,120,74223,6,0,B|48:144|32:236,2,160
212,120,75785,2,0,B|252:116|288:140,1,79.9999999999999,8|0,0:0|0:0,0:0:0
304,220,76410,2,0,B|264:224|228:200,1,79.9999999999999,8|4,0:0|0:0,0:0:0
184,48,77348,6,0,B|212:20|256:8|300:20|328:48,1,160
328,128,78285,2,0,B|300:156|256:168|212:156|184:128,1,160,8|8,0:0|0:0,0:0:0
144,196,79223,2,0,B|200:248|312:248|368:196,1,240,0|8,0:0|0:0,0:0:0
256,192,80473,12,4,81723,0:0:0
208,92,91723,6,0,B|212:140|176:164,1,79.9999999999999,0|8,0:0|0:0,0:0:0
100,172,92348,2,0,B|96:124|132:100,1,79.9999999999999,0|8,0:0|0:0,0:0:0
208,92,92973,2,0,B|264:108|272:188|228:224,1,160
152,236,93910,1,8,0:0:0
204,300,94223,6,0,B|280:328|360:300,1,160
360,140,95473,2,0,B|284:112|204:140,1,160
144,196,96410,1,8,0:0:0
76,236,96723,6,0,B|96:276|140:276,1,79.9999999999999,0|8,0:0|0:0,0:0:0
208,232,97348,2,0,B|164:160|76:156,2,160
208,312,98910,1,8,0:0:0
280,272,99223,6,0,B|440:272,1,160
320,168,100473,2,0,B|296:88,1,79.9999999999999,0|8,0:0|0:0,0:0:0
215,91,101098,2,0,B|192:167,1,79.9999999999999,0|8,0:0|0:0,0:0:0
132,220,101723,6,0,B|160:304|256:336|352:304|380:224,1,320,4|0,0:0|0:0,0:0:0
256,120,103598,2,0,B|256:200,1,79.9999999999999,0|8,0:0|0:0,0:0:0
268,280,104223,6,0,B|352:252|384:156|352:60|272:32,1,320,0|0,0:0|0:0,0:0:0
196,52,105785,2,0,B|116:64,1,79.9999999999999,8|0,0:0|0:0,0:0:0
116,144,106410,2,0,B|196:156,1,79.9999999999999,8|4,0:0|0:0,0:0:0
256,304,107348,6,0,B|284:220|372:204,1,160
264,88,108598,2,0,B|236:172|148:188,1,160
256,192,109535,12,0,111098,0:0:0
188,192,111723,6,0,B|216:116,1,79.9999999999999,4|8,0:0|0:0,0:0:0
296,116,112348,2,0,B|324:192,1,79.9999999999999,0|8,0:0|0:0,0:0:0
256,236,112973,2,0,B|240:272|188:288|140:272|124:236,2,160
256,156,114535,6,0,B|240:120|188:104|140:120|124:156,2,160,8|8|8,0:0|0:0|0:0,0:0:0
256,236,116098,2,0,B|276:272|320:276,1,79.9999999999999,0|8,0:0|0:0,0:0:0
392,236,116723,6,0,B|372:200|328:196,1,79.9999999999999,4|8,0:0|0:0,0:0:0
248,196,117348,1,0,0:0:0
172,216,117660,1,8,0:0:0
112,268,117973,2,0,B|84:192|20:140,2,160
112,348,119535,6,0,B|272:348,1,160,8|8,0:0|0:0,0:0:0
300,320,120316,2,0,B|300:276|332:248,2,79.9999999999999
212,236,121410,1,0,0:0:0
156,180,121723,6,0,B|100:124,1,79.9999999999999,4|8,0:0|0:0,0:0:0
156,68,122348,2,0,B|216:128,1,79.9999999999999,0|8,0:0|0:0,0:0:0
288,152,122973,2,0,B|260:236|180:260,2,160
288,72,124535,6,0,B|311:36|354:27,1,79.9999999999999,8|0,0:0|0:0,0:0:0
423,66,125160,2,0,B|399:101|356:110,1,79.9999999999999,8|0,0:0|0:0,0:0:0
288,72,125785,2,0,B|264:124|296:184|360:188,1,160,8|8,0:0|0:0,0:0:0
356,268,126723,6,0,B|304:244|244:276|240:340,2,160,4|0|0,0:0|0:0|0:0,0:0:0
320,340,128285,1,8,0:0:0
240,337,128598,1,0,0:0:0
168,308,128910,1,8,0:0:0
112,252,129223,2,0,B|48:208|60:108,1,160
92,36,130160,1,8,0:0:0
256,192,130473,12,4,131723,0:0:0
212,96,146723,6,0,B|204:140|160:152,1,79.9999999999999,2|2,0:0|0:0,0:0:0
160,232,147348,2,0,B|204:244|212:288,1,79.9999999999999,2|2,0:0|0:0,0:0:0
300,288,147973,2,0,B|308:244|352:232,1,79.9999999999999,2|2,0:0|0:0,0:0:0
352,152,148598,6,0,B|308:140|300:96,1,79.9999999999999,4|8,0:0|0:0,0:0:0
376,76,149223,2,0,B|428:88|444:152|424:184,1,120
376,224,150004,2,0,B|344:192|352:152,2,79.9999999999999
404,256,150785,2,0,B|436:288|428:328,1,79.9999999999999,8|4,0:0|0:0,0:0:0
348,316,151410,6,0,B|268:308|188:316,1,160,8|8,0:0|0:0,0:0:0
148,316,152191,2,0,B|108:320|68:316,2,79.9999999999999
144,196,153285,2,0,B|144:152|188:136,1,79.9999999999999,8|4,0:0|0:0,0:0:0
224,208,153910,5,8,0:0:0
264,276,154223,2,0,B|296:308|363:287|348:218|304:206,1,160
224,208,155160,2,0,B|191:175|124:196|139:265|184:277,1,160,8|8,0:0|0:0,0:0:0
256,192,156098,12,0,157973,0:0:0
256,348,158598,5,2,0:0:0
256,112,159535,6,0,B|256:152,1,40
220,224,160004,2,0,B|260:244|296:224,2,79.9999999999999
188,196,160785,2,0,B|188:156|148:128,1,79.9999999999999,0|4,0:0|0:0,0:0:0
108,200,161410,5,8,0:0:0
132,276,161723,1,0,0:0:0
200,316,162035,2,0,B|288:348|352:288,1,160,8|8,0:0|0:0,0:0:0
388,220,162973,2,0,B|348:196|312:216,1,79.9999999999999,0|8,0:0|0:0,0:0:0
236,240,163598,6,0,B|216:184|260:128|320:132,1,160
236,240,164848,2,0,B|256:296|212:352|152:348,1,160
52,224,166098,6,0,B|92:204|96:160,1,79.9999999999999,0|8,0:0|0:0,0:0:0
164,208,166723,2,0,B|188:170|170:130,1,79.9999999999999,0|8,0:0|0:0,0:0:0
148,100,167191,2,0,B|116:72|72:84,2,79.9999999999999
220,68,168129,2,0,B|284:92|328:40,1,120,0|4,0:0|0:0,0:0:0
400,76,168910,6,0,B|368:108|376:152,1,79.9999999999999,8|0,0:0|0:0,0:0:0
456,136,169535,2,0,B|464:196|408:244|352:224,1,160,8|8,0:0|0:0,0:0:0
300,168,170473,1,0,0:0:0
256,100,170785,1,0,0:0:0
212,168,171098,6,0,B|172:248|80:248,1,160
72,168,172035,2,0,B|100:136|140:132,1,79.9999999999999
212,168,172660,2,0,B|220:212|256:232,1,79.9999999999999,8|0,0:0|0:0,0:0:0
296,160,173285,2,0,B|324:194|366:193,1,79.9999999999999,8|4,0:0|0:0,0:0:0
452,60,174223,5,0,0:0:0
365,193,174848,2,0,B|376:272,1,79.9999999999999,0|8,0:0|0:0,0:0:0
296,284,175473,2,0,B|284:204,1,79.9999999999999,0|8,0:0|0:0,0:0:0
312,132,176098,2,0,B|308:52|216:21|165:104|214:167,1,240,0|8,0:0|0:0,0:0:0
256,192,177348,12,4,178598,0:0:0
188,192,179223,6,0,B|212:228|256:240|300:228|324:192,1,160,0|0,0:0|0:0,0:0:0
256,148,180160,2,0,B|256:68,1,79.9999999999999,2|0,0:0|0:0,0:0:0
104,112,181098,2,0,B|148:188|104:264,1,160
240,344,182348,2,0,B|332:192|240:40,1,320,2|4,0:0|0:0,0:0:0
