osu file format v9

[General]
AudioFilename: alice no taikutsu.mp3
AudioLeadIn: 0
PreviewTime: 61723
Countdown: 0
SampleSet: Normal
StackLeniency: 0.7
Mode: 0
LetterboxInBreaks: 0

[Editor]
DistanceSpacing: 1
BeatDivisor: 4
GridSize: 4

[Metadata]
Title:Alice no Taikutsu
Artist:Hoshina Yuko
Creator:kurohana
Version:Insane
Source:
Tags:Alice in Wonderland Wonder Halloween Chibicco Folk

[Difficulty]
HPDrainRate:6
CircleSize:4
OverallDifficulty:5
ApproachRate:8
SliderMultiplier:1.8
SliderTickRate:1

[Events]
//Background and Video events
0,0,"alice_in_wonderland_61672_1195x1054.jpg"
//Break Periods
2,10673,19723
2,34423,40973
2,81922,90973
2,131923,145973
//Storyboard Layer 0 (Background)
//Storyboard Layer 1 (Fail)
//Storyboard Layer 2 (Pass)
//Storyboard Layer 3 (Foreground)
//Storyboard Sound Samples
//Background Colour Transformations
3,100,163,162,255

[TimingPoints]
473,312.5,4,2,1,60,1,0
9848,-100,4,1,1,60,0,0
10004,-100,4,2,1,60,0,0
10160,-100,4,1,1,60,0,0
20473,-125,4,2,1,30,0,0
20785,-125,4,2,1,35,0,0
20941,-125,4,2,1,20,0,0
21098,-125,4,2,1,45,0,0
21332,-125,4,2,1,20,0,0
21410,-125,4,2,1,50,0,0
21644,-125,4,2,1,20,0,0
21723,-100,4,1,1,60,0,0
59223,-125,4,1,1,60,0,0
61723,-100,4,1,1,60,0,1
71644,-100,4,1,1,60,0,0
71723,-100,4,1,1,60,0,1
81644,-100,4,1,1,60,0,0
81723,-100,4,1,1,60,0,1
81801,-100,4,1,1,60,0,0
91723,-100,4,2,1,60,0,0
101254,-100,4,1,1,60,0,0
111723,-100,4,1,1,60,0,1
121644,-100,4,1,1,60,0,0
121723,-100,4,1,1,60,0,1
131644,-100,4,1,1,60,0,0
131723,-100,4,2,1,60,0,1
131801,-100,4,2,1,60,0,0
148598,312.5,4,1,1,60,1,0
158441,-100,4,2,1,60,0,0
159691,-100,4,1,1,60,0,0
161098,-100,4,1,1,60,0,1
168519,-100,4,1,1,60,0,0
168598,-100,4,1,1,60,0,1
178598,-100,4,2,1,60,0,0
183519,-100,4,1,1,60,0,1
183598,-100,4,1,1,60,0,0

[Colours]
Combo1 : 0,255,128
Combo2 : 255,204,0
Combo3 : 3,208,252
Combo4 : 231,22,12

[HitObjects]
136,192,9223,1,0
376,192,9535,1,0
208,148,9848,1,0
304,148,10004,1,0
256,72,10160,1,0
256,72,10238,1,0
256,72,10316,1,0
256,72,10394,1,0
256,72,10473,1,4
256,48,20473,6,0,B|256:192,1,144,2|2
220,256,20941,1,2
292,256,21098,2,0,B|340:232|328:164,1,108,2|0
184,163,21410,2,0,B|172:232|220:256,1,108,2|0
328,163,21723,6,0,B|308:120|256:99|204:120|184:163,1,180,4|8
120,228,22191,1,0
92,140,22348,2,0,B|126:43|220:25,1,180,0|8
420,140,22816,2,0,B|385:43|291:25,1,180
180,160,23285,2,0,B|232:160|256:120|256:120|280:160|332:160,1,180,8|0
420,140,23754,1,0
392,224,23910,1,8
212,336,24223,6,0,B|208:288|256:272|256:272|300:188,1,180,0|8
300,336,24848,2,0,B|304:288|256:272|256:272|212:188,1,180,0|8
168,108,25316,2,0,B|208:88|256:108|256:108|304:88|344:108,1,180
300,188,25785,2,0,B|256:200|212:188,1,90,8|0
168,72,26098,2,0,B|256:36|344:72,1,180,0|8
384,152,26566,1,0
384,152,26644,1,0
384,152,26723,5,4
368,240,26879,2,0,B|320:232|300:188,1,90,0|8
456,212,27191,2,0,B|468:260|440:300,1,90
384,152,27504,2,0,B|416:116|464:120,1,90,0|8
299,187,27816,2,0,B|208:140|224:36,1,180
52,136,28285,2,0,B|143:183|127:287,1,180,8|0
212,320,28754,2,0,B|244:288|296:280,1,90,0|8
452,284,29066,2,0,B|420:316|368:324,1,90,0|0
291,280,29379,5,0
268,196,29535,2,0,B|224:112|128:92,1,180,8|0
40,92,30004,2,0,B|40:140|80:168,1,90,0|8
208,268,30316,2,0,B|208:220|168:192,1,90,0|0
120,268,30629,1,0
288,248,30785,2,0,B|272:152|184:108,1,180,8|0
185,108,31176,1,0
185,108,31254,1,0
185,108,31332,1,0
185,108,31410,1,0
256,192,31723,12,4,34223
172,268,41723,6,0,B|128:236|120:192|128:148|172:116,1,180,0|8
220,192,42191,1,0
268,268,42348,2,0,B|312:272|356:284,1,90
268,116,42660,2,0,B|312:112|356:100,1,90,8|0
480,192,42973,2,0,B|436:204|390:192,1,90
391,192,43207,1,0
391,192,43285,1,8
220,192,43441,2,0,B|264:180|310:192,1,90
154,252,43754,2,0,B|110:264|64:252,1,90,0|8
64,132,44066,2,0,B|110:120|154:132,1,90,0|0
220,192,44379,5,0
284,256,44535,2,0,B|304:300|352:308,1,90,8|0
448,180,44848,2,0,B|428:136|380:128,1,90
368,220,45160,1,8
379,127,45316,2,0,B|288:136|200:128,1,180
36,228,45785,2,0,B|127:219|215:227,1,180,8|0
366,293,46254,1,0
366,293,46332,1,0
366,293,46410,2,0,B|324:316|280:292,1,90,8|0
324,212,46723,6,0,B|368:196|412:212,1,90,4|0
280,132,47035,2,0,B|364:100|456:132,1,180,8|0
236,212,47504,2,0,B|192:192|192:140,1,90,0|8
280,132,47816,2,0,B|336:164|344:244|292:284,1,180
120,320,48285,2,0,B|152:288|204:296,1,90,8|0
151,190,48598,2,0,B|200:180|236:212,1,90,0|0
217,71,48910,2,0,B|264:86|280:132,1,90,8|0
217,71,49223,6,0,B|308:36|392:72,1,180,0|8
460,132,49691,1,0
388,268,49848,2,0,B|368:224|388:180,1,90
468,224,50160,2,0,B|488:268|468:312,1,90,8|0
296,268,50629,1,0
204,268,50785,2,0,B|204:224|244:192,1,90,8|0
290,113,51098,2,0,B|332:140|336:188,1,90
112,260,51410,2,0,B|120:160|200:112,1,180,8|4
290,113,51879,5,0
432,43,52035,2,0,B|424:92|380:112,1,90,0|0
376,264,52348,2,0,B|337:232|342:184,1,90,0|0
205,103,52660,2,0,B|251:85|290:113,1,90,0|0
236,188,52973,2,0,B|228:232|208:272,1,90,0|0
152,168,53285,2,0,B|129:206|96:237,1,90,0|0
116,92,53598,2,0,B|81:120|40:138,1,90
205,104,53910,1,0
288,76,54066,1,0
428,96,54223,6,0,B|400:136|352:140,1,90
396,220,54535,2,0,B|351:240|308:220,1,90,0|0
308,312,54848,2,0,B|259:307|231:268,1,90
184,192,55160,1,0
24,96,55316,2,0,B|124:112|152:208,1,180
184,292,55785,2,0,B|148:320,2,45,0|0|0
264,336,56098,1,0
352,332,56254,1,0
424,280,56410,2,0,B|472:192|396:116,1,180,0|4
232,52,56879,6,0,B|256:92|308:92,1,90,0|0
140,44,57191,2,0,B|142:137|234:186,1,180
400,224,57660,2,0,B|371:183|323:183,1,90,0|0
324,276,57973,2,0,B|364:336|460:324|476:268,1,180,0|0
472,168,58441,2,0,B|436:112|344:124|324:186,1,180,0|0
248,232,58910,1,0
160,244,59066,1,0
56,128,59223,6,0,B|88:192,1,72
286,83,59691,2,0,B|224:48,1,72
424,192,60160,2,0,B|456:128,1,72
180,280,60629,2,0,B|220:340,1,72
292,340,60941,2,0,B|332:280,1,72
256,192,61723,6,0,B|190:126|233:84|278:129|236:172|171:107,1,180,4|8
104,48,62191,2,0,B|76:88|88:136,1,90
136,280,62504,2,0,B|164:240|152:192,1,90,0|8
68,220,62816,2,0,B|120:304|224:288,1,180
312,279,63285,2,0,B|360:276|384:228,1,90,8|0
454,90,63598,2,0,B|406:94|384:140,1,90,0|0
352,300,63910,2,0,B|395:280|401:226,1,90,8|0
412,76,64223,6,0,B|324:115|313:217,1,180,0|8
352,300,64691,1,0
352,300,64769,1,0
352,300,64848,1,0
284,240,65004,1,0
200,212,65160,1,8
112,204,65316,2,0,B|20:252|28:352,1,180
236,92,65785,6,0,B|132:109|112:204,1,180,8|0
128,292,66254,2,0,B|148:336|196:344,1,90,0|8
280,308,66566,2,0,B|260:264|212:256,1,90,0|4
368,292,66879,5,0
440,240,67035,2,0,B|476:208|464:156,1,90,8|0
400,96,67348,2,0,B|364:128|376:180,1,90,0|0
440,240,67660,1,8
356,208,67816,1,0
264,208,67973,2,0,B|164:176|96:244,1,180,0|8
52,320,68441,1,0
100,60,68598,2,0,B|28:137|61:227,1,180,0|8
92,312,69066,1,0
176,344,69223,6,0,B|264:332,1,90
421,280,69535,2,0,B|332:268,1,90,8|0
104,216,69848,2,0,B|193:203,1,90
496,152,70160,1,0
406,139,70316,1,0
256,40,70629,1,0
105,139,70941,1,0
220,276,71254,5,0
252,284,71332,1,0
284,280,71410,1,0
312,268,71488,1,0
336,248,71566,1,0
348,220,71644,1,0
348,188,71723,6,0,B|260:248|180:192,1,180,4|8
132,116,72191,1,0
180,40,72348,2,0,B|224:68|220:116,1,90
348,188,72660,2,0,B|301:212|262:184,1,90,8|0
136,265,72973,2,0,B|138:212|181:192,1,90
260,152,73285,1,8
340,112,73441,1,0
400,44,73598,2,0,B|480:108|448:204,1,180,0|8
384,268,74066,1,0
200,108,74223,6,0,B|301:96|347:187,1,180,0|8
352,276,74691,1,0
284,336,74848,1,0
196,324,75004,2,0,B|148:312|136:264,1,90,0|8
104,112,75316,2,0,B|200:140|220:236,1,180
237,82,75785,2,0,B|295:163|252:252,1,180,8|0
176,300,76254,1,0
92,272,76410,1,8
56,188,76566,1,0
104,112,76723,6,0,B|152:100|188:128,1,90
276,148,77035,2,0,B|262:195|220:212,1,90,8|0
160,280,77348,2,0,B|125:244|131:199,1,90
144,108,77660,1,8
224,68,77816,1,0
316,76,77973,2,0,B|400:120|400:228,1,180,0|8
360,304,78441,1,0
168,136,78598,2,0,B|268:140|312:228,1,180,0|8
320,316,79066,1,0
240,360,79223,6,0,B|204:336|204:280,1,90
120,316,79535,2,0,B|100:276|128:228,1,90,8|0
40,212,79848,2,0,B|42:167|91:140,1,90
16,88,80160,2,0,B|44:52|96:52,1,90,8|0
256,124,80473,1,0
256,124,80629,1,0
496,88,80941,2,0,B|468:52|416:52|416:52|328:76,1,180,0|0
320,164,81410,5,0
292,184,81488,1,0
256,188,81566,1,0
220,184,81644,1,0
192,164,81722,1,4
80,116,91723,6,0,B|84:224|184:244,1,180,0|8
432,116,92348,2,0,B|428:224|328:244,1,180,0|8
256,102,92816,2,0,B|256:192,1,90
212,272,93129,1,0
132,312,93285,2,0,B|80:316|52:276,1,90,8|0
44,188,93598,2,0,B|96:184|124:224,1,90
132,312,93910,2,0,B|92:216|168:148,1,180,8|0
252,120,94379,5,0
332,80,94535,2,0,B|380:84|408:124,1,90,8|0
482,171,94848,2,0,B|453:210|405:215,1,90,0|0
326,257,95160,2,0,B|306:212|326:168,1,90,8|0
368,92,95473,1,0
456,68,95629,1,0
296,152,95785,2,0,B|192:168|124:112,1,180,8|0
64,48,96254,1,0
64,48,96332,1,0
64,48,96410,1,8
92,132,96566,1,0
56,304,96723,6,0,B|60:256|100:224,1,90
172,176,97035,2,0,B|256:120|340:176,1,180,8|0
384,256,97504,2,0,B|340:276|296:256,1,90,0|8
432,176,97816,2,0,B|471:204|476:252,1,90
360,112,98129,2,0,B|394:78|442:81,1,90,0|8
288,168,98441,2,0,B|260:128|272:81,2,90
310,255,98910,2,0,B|364:248|404:172|360:112,1,180,8|0
200,132,99379,6,0,B|184:184|136:188,1,90,0|8
52,156,99691,2,0,B|68:108|116:100,1,90
116,280,100004,2,0,B|68:272|52:224,1,90,0|8
137,187,100316,2,0,B|192:192|240:264|192:336,1,180
328,240,100785,2,0,B|273:235|225:163|273:91,1,180,8|0
340,156,101254,5,0
372,164,101332,1,0
396,184,101410,1,0
412,212,101488,1,0
416,244,101566,1,0
408,276,101644,1,0
388,304,101723,6,0,B|352:352|260:336|244:272,1,180,4|0
244,180,102191,1,0
99,55,102348,2,0,B|144:8|227:23|244:88,1,180,0|0
168,136,102816,2,0,B|196:88|244:80|292:88|320:136,1,180
412,239,103285,2,0,B|364:248|328:220,1,90,8|0
312,308,103598,2,0,B|264:294|243:254,1,90
192,328,103910,2,0,B|154:295|152:250,1,90,8|0
28,52,104223,6,0,B|135:64|151:164,1,180,0|8
120,248,104691,1,0
64,176,104848,2,0,B|140:128|204:184|208:240,1,180,0|8
348,280,105316,2,0,B|272:328|208:272|204:216,1,180,0|0
240,144,105785,1,8
256,116,105863,1,0
284,104,105941,1,0
372,112,106098,2,0,B|368:160|324:184,1,90
200,288,106410,2,0,B|204:240|248:216,1,90,8|0
336,216,106723,6,0,B|332:316|244:364,1,180,4|8
108,284,107191,2,0,B|112:184|208:136,1,180,0|0
366,89,107660,2,0,B|340:128|288:124,1,90,8|0
440,36,107973,2,0,B|476:88|452:168|380:176,1,180,0|8
155,153,108441,2,0,B|180:96|256:80|304:132,1,180,0|0
400,336,108910,2,0,B|336:341|284:288|307:217,1,180,8|0
348,140,109379,5,0
88,192,109691,1,0
164,144,109847,1,0
424,192,110160,1,0
348,236,110316,1,0
56,300,110629,1,0
144,312,110785,1,0
224,276,110941,1,0
256,192,111098,1,0
256,192,111723,6,0,B|309:268|358:233|321:181|272:215|324:290,1,180,4|8
396,344,112191,1,0
484,320,112348,1,0
500,232,112504,2,0,B|492:184|444:164,1,90,0|8
304,112,112816,2,0,B|319:205|413:244,1,180,0|0
252,40,113285,2,0,B|216:68|216:120,1,90,8|0
233,270,113598,2,0,B|304:214|304:110,1,180,0|8
252,40,114066,1,0
164,52,114223,6,0,B|124:84|128:132,1,90
292,160,114535,2,0,B|260:120|212:124,1,90,8|0
184,292,114848,2,0,B|224:260|220:212,1,90
56,188,115160,2,0,B|88:228|134:224,1,90,8|0
220,213,115473,1,0
268,136,115629,1,0
256,48,115785,2,0,B|348:80|432:48,1,180,8|0
492,116,116254,2,0,B|501:167|465:197,1,90,0|8
379,217,116566,2,0,B|369:165|405:135,1,90,0|4
444,288,116879,5,0
368,336,117035,1,8
280,324,117191,2,0,B|232:308|220:264,1,90
244,176,117504,2,0,B|292:192|304:236,1,90,0|8
219,262,117816,1,0
260,88,117973,2,0,B|352:112|388:204,1,180,0|8
388,292,118441,1,0
368,44,118598,2,0,B|435:110|420:208,1,180,0|8
388,292,119066,1,0
308,336,119223,6,0,B|260:348|224:316,1,90
304,156,119535,2,0,B|316:204|284:240,1,90
128,164,119848,2,0,B|176:152|212:184,1,90
128,340,120160,2,0,B|116:292|148:256,1,90
304,156,120629,1,0
147,256,120941,1,0
60,96,121254,5,0
88,72,121332,1,0
124,64,121410,1,0
160,68,121488,1,0
192,84,121566,1,0
216,112,121644,1,0
220,148,121723,6,0,B|212:216|268:272|340:252,1,180,4|8
312,168,122191,2,0,B|364:164|396:196,1,90
413,281,122504,2,0,B|365:289|329:253,1,90,0|8
292,80,122816,2,0,B|396:72|464:136,1,180
312,168,123285,1,8
224,188,123441,1,0
152,244,123598,2,0,B|144:148|44:112,1,180,0|8
12,196,124066,2,0,B|20:244|64:264,1,90
120,356,124379,6,0,B|157:325|152:276,1,90,0|8
208,184,124691,2,0,B|162:166|123:195,1,90
284,232,125004,2,0,B|336:248|368:216,1,90,0|8
484,116,125316,2,0,B|380:84|317:147,1,180
432,40,125785,2,0,B|324:45|286:126,1,180,8|0
252,212,126254,1,0
180,264,126410,1,8
92,272,126566,1,0
28,208,126723,6,0,B|12:160|48:124,1,90
112,188,127035,2,0,B|128:236|92:272,1,90,8|0
128,100,127348,1,0
208,64,127504,2,0,B|260:56|292:96,1,90,0|8
304,180,127816,2,0,B|252:188|220:148,1,90
372,120,128129,1,0
440,180,128285,1,0
424,268,128441,1,0
332,268,128598,2,0,B|232:240|168:312,1,180,0|8
88,348,129066,2,0,B|72:304|96:256,1,90
174,113,129379,6,0,B|190:157|168:200,1,90,0|8
92,152,129691,1,0
256,72,129848,2,0,B|296:156|244:244,1,180,0|8
52,236,130473,2,0,B|100:316,1,90
256,72,130941,1,0
413,313,131254,2,0,B|460:236,1,90
256,192,131723,1,4
220,96,146723,6,0,B|188:136|204:180,1,90,2|0
356,208,147035,2,0,B|337:160|291:152,1,90,2|0
192,268,147348,2,0,B|242:275|272:239,1,90,2|0
220,96,147660,2,0,B|128:132|112:228,1,180,2|0
356,208,148285,2,0,B|370:110|295:48,1,180,2|4
192,268,148910,6,0,B|269:329|360:295,2,180,8|0|8
128,204,149691,2,0,B|68:128|104:34,1,180
188,64,150160,2,0,B|208:104|200:152,1,90,8|0
128,204,150473,2,0,B|192:128|288:144,1,180,0|8
464,164,150941,2,0,B|420:180|376:164,1,90
304,108,151254,5,0
388,76,151410,2,0,B|400:180|308:224,1,180,8|0
220,232,151879,1,0
148,176,152035,1,8
168,88,152191,2,0,B|168:200|76:228,1,180
32,148,152660,2,0,B|36:100|80:76,1,90,8|0
168,88,152973,1,0
240,144,153129,1,0
256,232,153285,2,0,B|288:328|384:344,1,180,8|4
408,256,153754,6,0,B|384:216|340:200,1,90,0|8
256,232,154066,2,0,B|232:172|276:104|352:112,1,180
424,64,154535,2,0,B|440:108|424:152,1,90,8|0
348,200,154848,2,0,B|272:200|244:128|264:72,1,180,0|8
148,188,155316,2,0,B|224:188|252:260|232:316,1,180,0|0
152,272,155785,2,0,B|104:276|76:232,1,90,8|0
64,144,156098,6,0,B|80:100|80:100|76:56,1,90
435,56,156566,2,0,B|432:100|432:100|448:144,1,90
216,324,157035,2,0,B|256:304|256:304|296:324,1,90
316,72,157504,2,0,B|300:160,1,90
212,160,157817,2,0,B|196:72,1,90
256,336,158441,5,0
280,300,158519,1,0
304,264,158598,2,0,B|384:216|392:132|352:60|256:20|160:60|120:132|128:216|208:264,1,540,2|8
288,200,159691,2,0,B|308:176|316:144|256:104|196:144|204:176|224:200,2,180
256,284,160473,1,0
168,268,160629,5,0
136,288,160707,1,0
100,288,160785,1,0
64,276,160863,1,0
36,252,160941,1,0
24,220,161019,1,0
24,184,161098,6,0,B|24:80|120:48,1,180,4|8
208,48,161566,2,0,B|256:56|276:100,1,90
264,192,161879,2,0,B|216:184|195:139,1,90,0|8
344,160,162191,2,0,B|372:224|316:288|256:284,1,180
180,328,162660,2,0,B|164:284|180:240,1,90
180,148,162973,2,0,B|226:156|256:192,1,90
336,236,163285,2,0,B|305:271|259:280,1,90,8|0
180,236,163598,6,0,B|168:136|212:60,1,180,4|8
280,120,164066,2,0,B|284:168|264:208,1,90
320,348,164379,2,0,B|276:327|251:290,1,90,0|8
95,266,164691,2,0,B|135:238|180:236,1,90
268,248,165004,1,0
356,244,165160,1,8
428,188,165316,1,0
428,96,165473,2,0,B|380:16|272:36,1,180,0|8
272,124,165941,2,0,B|312:152|356:148,1,90
196,80,166254,6,0,B|156:52|112:56,1,90,0|8
32,100,166566,1,0
52,188,166723,2,0,B|132:240|224:188,1,180,0|8
92,300,167191,2,0,B|187:305|240:214,1,180,0|0
436,80,167816,2,0,B|340:74|287:165,1,180,0|0
280,196,168207,1,0
280,228,168285,1,0
292,256,168363,1,0
316,276,168441,1,0
344,288,168519,1,0
376,288,168598,6,0,B|440:284|484:228|472:160,1,180,4|8
436,80,169066,1,0
384,156,169223,2,0,B|336:76|228:92,1,180,0|8
220,180,169691,2,0,B|172:168|148:124,1,90
252,264,170004,2,0,B|204:277|161:251,1,90,0|8
324,316,170316,2,0,B|289:351|239:350,1,90,0|0
328,236,170629,2,0,B|360:196|408:196,1,90,0|8
404,284,170941,1,0
252,184,171098,6,0,B|312:112|412:108,1,180,0|8
500,108,171566,1,0
328,236,171723,2,0,B|268:308|168:312,1,180,0|8
80,312,172191,2,0,B|84:260|124:236,1,90
64,168,172504,2,0,B|106:137|150:152,1,90,0|8
164,64,172816,2,0,B|214:76|231:120,1,90
308,72,173129,2,0,B|330:119|307:159,1,90,0|8
232,208,173441,1,0
312,248,173598,6,0,B|380:176|476:200,1,180,4|8
464,288,174066,2,0,B|424:312|376:308,1,90
225,268,174379,2,0,B|265:244|312:248,1,90,0|8
136,240,174691,2,0,B|156:196|200:179,1,90,0|0
44,260,175004,2,0,B|39:211|69:175,1,90,0|8
132,116,175316,1,0
44,88,175473,2,0,B|132:128|220:112,1,180,0|8
256,32,175941,1,0
468,136,176098,6,0,B|380:96|292:112,1,180,0|8
256,192,176566,1,0
176,236,176723,2,0,B|156:192|176:144,1,90
337,148,177035,2,0,B|356:192|336:236,1,90,8|0
256,276,177348,1,0
176,320,177504,2,0,B|212:356|256:364|300:356|336:320,2,180
256,276,178285,2,0,B|252:264|252:264|260:256|260:256|252:248|252:248|260:240|260:240|252:232|252:232|260:224|260:224|252:216|252:216|260:208|260:208|252:200|252:200|260:192|260:192|252:184|252:184|260:176|260:176|252:168|252:168|260:160|260:160|252:152|252:152|260:144|260:144,1,180,0|4
216,68,178754,5,0
128,48,178910,1,2
60,108,179066,1,0
60,200,179223,2,0,B|68:304|176:316,1,180,0|2
256,276,179691,1,0
452,200,179848,2,0,B|444:304|336:316,1,180,0|2
308,232,180316,2,0,B|328:188|368:168,1,90
496,48,180629,2,0,B|476:92|436:112,1,90,0|2
344,104,180941,1,0
272,48,181098,6,0,B|188:88|96:72,1,180,0|2
240,336,181723,2,0,B|324:296|416:312,1,180,0|2
364,140,182348,1,2
300,203,182504,1,0
212,204,182660,1,2
120,192,182816,2,0,B|105:102|175:36|255:16|335:36|405:102|390:192,1,450,0|4
