osu file format v9

[General]
AudioFilename: alice no taikutsu.mp3
AudioLeadIn: 0
PreviewTime: 61723
Countdown: 0
SampleSet: Normal
StackLeniency: 0.7
Mode: 0
LetterboxInBreaks: 0

[Editor]
DistanceSpacing: 1
BeatDivisor: 4
GridSize: 4

[Metadata]
Title:Alice no Taikutsu
Artist:Hoshina Yuko
Creator:kurohana
Version:Hard
Source:
Tags:Alice in Wonderland Wonder Halloween Chibicco Folk

[Difficulty]
HPDrainRate:4
CircleSize:4
OverallDifficulty:5
ApproachRate:6
SliderMultiplier:1.6
SliderTickRate:1

[Events]
//Background and Video events
0,0,"alice_in_wonderland_61672_1195x1054.jpg"
//Break Periods
2,10672,19423
2,34423,40673
2,81922,90673
2,131922,145673
//Storyboard Layer 0 (Background)
//Storyboard Layer 1 (Fail)
//Storyboard Layer 2 (Pass)
//Storyboard Layer 3 (Foreground)
//Storyboard Sound Samples
//Background Colour Transformations
3,100,163,162,255

[TimingPoints]
473,312.5,4,2,1,60,1,0
9848,-100,4,1,1,60,0,0
10004,-100,4,2,1,60,0,0
10160,-100,4,1,1,60,0,0
20473,-125,4,2,1,30,0,0
20785,-125,4,2,1,35,0,0
20941,-125,4,2,1,20,0,0
21098,-125,4,2,1,45,0,0
21332,-125,4,2,1,20,0,0
21410,-125,4,2,1,50,0,0
21644,-125,4,2,1,20,0,0
21723,-100,4,1,1,60,0,0
61723,-100,4,1,1,60,0,1
71644,-100,4,1,1,60,0,0
71723,-100,4,1,1,60,0,1
81644,-100,4,1,1,60,0,0
81723,-100,4,1,1,60,0,1
81801,-100,4,1,1,60,0,0
91723,-100,4,2,1,60,0,0
101723,-100,4,1,1,60,0,0
111723,-100,4,1,1,60,0,1
121644,-100,4,1,1,60,0,0
121723,-100,4,1,1,60,0,1
131644,-100,4,1,1,60,0,0
131723,-100,4,2,1,60,0,1
131801,-100,4,2,1,60,0,0
148598,312.5,4,1,1,60,1,0
158441,-100,4,2,1,60,0,0
159535,-100,4,1,1,60,0,0
161098,-100,4,1,1,60,0,1
168519,-100,4,1,1,60,0,0
168598,-100,4,1,1,60,0,1
178598,-100,4,2,1,60,0,0
183519,-100,4,1,1,60,0,1
183598,-100,4,1,1,60,0,0

[Colours]
Combo1 : 0,255,128
Combo2 : 255,204,0
Combo3 : 3,208,252
Combo4 : 231,22,12

[HitObjects]
176,80,9223,1,0
336,80,9535,1,0
256,220,9848,1,0
216,152,10004,1,0
296,152,10160,1,0
256,80,10316,2,0,B|256:40,2,40,0|0|4
204,160,20473,6,0,B|216:132|256:116|296:132|308:160,1,128,2|2
256,200,20941,1,2
308,240,21098,2,0,B|296:268|256:284|216:268|204:240,2,128,2|2|4
372,88,22035,6,0,B|344:172|384:244,1,160,8|0
448,96,22660,1,8
372,88,22816,2,0,B|288:60|215:100,1,160,0|0
168,40,23285,2,0,B|244:92|216:180,1,160,8|0
60,148,23910,1,8
164,268,24223,6,0,B|256:292|304:220,1,160,0|8
408,100,24848,2,0,B|316:76|268:148,1,160,0|8
304,219,25316,2,0,B|280:136|192:120,1,160
112,120,25785,2,0,B|72:132|48:168,1,80,8|0
120,200,26098,2,0,B|86:224|76:266,1,80,0|0
156,276,26410,2,0,B|133:310|137:353,1,80,8|0
216,336,26723,6,0,B|260:264|232:176,1,160,4|8
200,112,27191,1,0
160,44,27348,2,0,B|236:24|316:60,1,160,0|8
392,88,27816,2,0,B|348:156|356:240,1,160
308,304,28285,2,0,B|263:322|233:294,1,80,8|0
204,219,28598,2,0,B|248:200|278:228,1,80
233,294,28910,1,8
176,144,29223,6,0,B|244:124|288:184|279:229,1,160,0|8
204,220,29691,2,0,B|160:232|128:204,1,80
268,128,30160,2,0,B|279:83|319:70,1,80,8|0
316,232,30629,2,0,B|348:264|340:305,1,80,0|8
204,220,31098,2,0,B|244:204,4,40,0|0|0|0|8
256,192,31723,12,4,34223
304,128,41723,6,0,B|344:144|356:192|344:240|304:256,1,160
208,128,42348,2,0,B|168:144|156:192|168:240|208:256,1,160
256,192,42816,2,0,B|96:192,1,160
72,268,43285,2,0,B|152:268,1,80,8|0
212,324,43598,2,0,B|292:324,1,80,0|0
348,268,43910,1,8
384,112,44223,6,0,B|352:188|256:192,2,160,0|8|0
256,16,45160,1,8
324,55,45316,2,0,B|288:104|224:104|188:56,1,160
108,56,45785,2,0,B|96:96|108:136,1,80,8|0
188,148,46098,2,0,B|160:236|68:236,2,160,0|8|4
212,72,46879,6,0,B|244:40|288:52,1,80,0|8
416,140,47348,2,0,B|332:180|264:128,1,160,0|8
212,72,47816,2,0,B|212:116|176:140,1,80
140,212,48129,2,0,B|100:188|99:146,1,80,0|8
56,80,48441,2,0,B|96:60|132:77,1,80
60,220,48910,2,0,B|144:188|208:248,1,160,8|0
356,276,49535,6,0,B|272:308|208:248,1,160,8|0
176,172,50004,1,0
204,96,50160,1,8
276,64,50316,2,0,B|352:116|356:200,1,160
284,236,50785,2,0,B|287:315|363:367,2,160,8|0|8
204,96,51723,6,0,B|236:184|176:276|56:272|16:192,1,320,4|0
124,84,52660,2,0,B|100:124|56:124,1,80,8|0
204,96,53129,1,0
300,224,53441,1,0
176,324,53754,2,0,B|128:312|120:272,2,80,0|8|0
192,244,54223,6,0,B|156:160|208:80|328:68|372:176,1,320
264,280,55160,2,0,B|288:244|336:244,1,80,8|0
192,244,55629,2,0,B|160:272,2,40,0|0|8
192,164,55941,2,0,B|160:136,2,40
332,244,56410,2,0,B|304:164|332:88,1,160,8|4
172,88,57035,5,8
192,164,57191,2,0,B|160:248|72:256,1,160
28,188,57660,2,0,B|80:256|60:340,2,160,8|0|8
28,108,58441,2,0,B|48:68|92:64,1,80
160,104,58754,2,0,B|140:144|96:148,1,80,0|8
256,156,59223,6,0,B|256:236,1,80
412,204,59691,2,0,B|384:279,1,80
344,124,60160,2,0,B|330:202,1,80
176,164,60629,1,0
160,244,60785,1,0
96,292,60941,1,0
16,280,61098,1,0
256,68,61723,6,0,B|348:72|392:144,2,160,4|8|0
176,68,62504,2,0,B|128:76|116:116,1,80,0|8
188,148,62816,2,0,B|176:236|260:280,1,160
308,220,63285,2,0,B|265:239|258:280,1,80,8|0
336,296,63598,2,0,B|420:264|416:164,1,160,0|8
368,108,64066,1,0
292,76,64223,6,0,B|216:84|132:76,1,160,0|8
24,192,64848,2,0,B|100:184|184:192,1,160,0|8
156,268,65316,2,0,B|184:192|256:148,1,160
332,120,65785,2,0,B|376:124|396:164,1,80,8|0
460,208,66098,2,0,B|434:244|389:241,1,80,0|0
320,276,66410,2,0,B|301:235|326:198,1,80,8|0
391,241,66723,6,0,B|324:300|240:272,1,160,4|8
208,200,67191,2,0,B|184:240|140:240,1,80
140,160,67504,1,0
176,88,67660,1,8
248,56,67816,1,0
328,64,67973,6,0,B|292:144|336:220,1,160,0|8
400,172,68441,2,0,B|420:136|400:96,1,80
408,256,68910,2,0,B|436:292|480:284,1,80,8|0
472,204,69223,2,0,B|396:248|364:320,1,160,0|8
320,168,69848,2,0,B|320:255|366:319,1,160,0|8
365,318,70316,5,0
212,276,70629,1,0
164,124,70941,1,0
312,60,71254,2,0,B|320:144|408:176,1,160,0|0
408,176,71723,6,0,B|384:268|292:268,1,160,4|8
268,192,72191,1,0
268,192,72348,2,0,B|228:272|124:280,1,160,0|8
100,212,72816,2,0,B|140:132|244:124,1,160
308,116,73285,2,0,B|348:136|352:180,1,80,8|0
400,244,73598,2,0,B|362:268|322:250,1,80,0|0
244,256,73910,2,0,B|241:211|277:185,1,80,8|0
324,251,74223,6,0,B|244:276|168:232,1,160,0|8
108,92,74848,2,0,B|169:148|169:236,1,160,0|8
100,276,75316,2,0,B|140:332|220:316|240:272,1,160
240,196,75785,2,0,B|256:157|336:141|376:197,1,160,8|0
376,276,76254,2,0,B|332:276|308:240,2,80,0|8|0
452,248,76723,6,0,B|488:200|464:120|400:112,1,160,4|8
336,116,77191,1,0
256,116,77348,2,0,B|204:132|182:200|218:247,1,160,0|8
292,268,77816,6,0,B|276:312|236:324,1,80
165,303,78129,2,0,B|181:259|221:247,1,80,0|8
296,232,78441,1,0
376,212,78598,2,0,B|456:172|452:80,1,160,0|8
372,72,79066,2,0,B|344:100|336:144,1,80
256,280,79535,5,8
92,140,79848,1,0
420,140,80160,1,8
256,40,80473,2,0,B|252:80|256:120,1,80
256,280,80941,2,0,B|264:196|256:120,1,160
188,76,81410,2,0,B|208:40|256:24|304:40|324:76,1,160,0|4
212,128,91723,6,0,B|204:80|256:40|308:80|300:124,1,160,0|8
212,256,92348,2,0,B|204:304|256:344|308:304|300:260,1,160,0|8
256,192,92816,1,0
100,152,93129,1,0
100,232,93285,2,0,B|156:236|200:176|172:116,2,160,8|0|8
256,192,94223,6,0,B|224:238|254:306|320:312,1,160,0|8
328,152,94848,2,0,B|344:192|324:228,2,80,0|0|8
264,104,95316,2,0,B|200:96|156:156|168:208,1,160
196,276,95785,2,0,B|168:200|72:184,2,160,8|0|8
332,192,96723,6,0,B|412:152|396:60,1,160,0|8
264,152,97348,2,0,B|184:192|200:284,1,160,0|8
268,324,97816,2,0,B|348:284|332:192,1,160,0|0
264,152,98285,2,0,B|184:156|104:152,1,160,8|0
36,108,98754,1,0
36,188,98910,1,8
120,324,99223,6,0,B|160:248|248:236,1,160,0|8
372,149,99848,2,0,B|332:225|244:237,1,160,0|8
168,228,100316,2,0,B|88:192|88:100,1,160
168,92,100785,2,0,B|204:116|208:160,1,80,8|0
280,120,101098,2,0,B|300:160|280:198,1,80,0|0
360,196,101410,2,0,B|360:260|292:292|244:268,1,160,8|4
124,164,102035,6,0,B|168:176|188:212,1,80,8|0
164,288,102348,2,0,B|76:276|48:188,1,160,0|8
48,112,102816,2,0,B|84:64|152:64|188:104,1,160
332,176,103441,2,0,B|296:224|228:224|192:184,1,160
188,104,103910,2,0,B|232:100|260:136,1,80,8|0
192,184,104223,6,0,B|136:188|92:136|112:76,2,160,0|8|0
352,184,105160,2,0,B|396:192|412:232,1,80,8|0
280,324,105629,2,0,B|300:316|308:296,2,40
216,280,105941,2,0,B|228:260|228:236,2,40
160,336,106254,1,0
140,260,106410,2,0,B|152:168|80:120,1,160,8|4
20,68,106879,6,0,B|52:32|96:44,1,80,0|8
164,72,107191,2,0,B|240:116|316:72,1,160
372,128,107660,2,0,B|328:204|372:280,1,160,8|0
444,240,108129,2,0,B|456:200|444:160,2,80,0|8|0
300,312,108754,2,0,B|288:268|244:256,1,80,0|8
172,280,109066,2,0,B|184:324|228:336,1,80,0|0
247,257,109379,5,0
176,116,109691,1,0
176,116,109848,1,0
336,116,110160,1,0
336,116,110317,1,0
372,272,110629,1,0
296,292,110785,1,0
216,292,110941,1,0
140,272,111097,1,0
316,176,111723,6,0,B|304:216|256:240|208:216|196:176,1,160,4|8
332,92,112348,2,0,B|384:100|420:164|392:216,1,160,0|8
328,264,112816,2,0,B|380:200|472:208,1,160
464,288,113285,2,0,B|432:312|388:316,1,80,8|0
328,264,113598,1,0
200,176,113910,1,0
256,120,114066,1,8
180,100,114223,6,0,B|216:176|180:256,1,160,0|8
40,332,114848,2,0,B|4:256|40:176,1,160,0|8
80,108,115316,1,0
216,192,115629,2,0,B|236:156|284:156,1,80,0|8
272,316,116098,2,0,B|257:277|288:240,1,80,0|0
348,296,116410,1,8
424,276,116566,1,0
500,256,116723,6,0,B|492:96,1,160,4|8
484,16,117191,1,0
420,64,117348,2,0,B|412:224,1,160,0|8
404,304,117816,1,0
340,256,117973,2,0,B|332:96,1,160,0|8
320,16,118441,1,0
260,68,118598,2,0,B|252:228,1,160,0|8
248,308,119066,1,0
176,346,119223,6,0,B|132:282|148:192,1,160,0|8
121,40,119848,2,0,B|165:104|148:195,1,160,0|8
68,208,120316,2,0,B|148:180|224:208,1,160
372,276,120941,1,0
428,128,121254,2,0,B|400:200|300:208,1,160,0|0
268,136,121723,6,0,B|316:204|292:288,1,160,4|8
192,160,122348,2,0,B|180:120|208:84,1,80
284,60,122660,2,0,B|296:100|268:136,1,80,8|0
108,140,123129,1,0
176,184,123285,1,8
228,244,123441,1,0
272,312,123598,2,0,B|316:236|392:208,1,160,0|8
460,172,124066,2,0,B|480:212|460:252,1,80
460,88,124535,6,0,B|380:92|316:28,1,160,8|0
168,88,125160,1,8
160,168,125316,2,0,B|152:240|88:260|44:236,1,160
80,168,125785,2,0,B|164:304,1,160,8|0
276,192,126410,1,8
344,152,126566,1,0
344,232,126723,6,0,B|320:280|240:288|208:236,1,160,4|8
64,168,127348,2,0,B|88:120|168:112|198:161,1,160,0|8
209,238,127816,1,0
132,212,127973,2,0,B|128:52,1,160,0|8
204,80,128441,1,0
280,52,128598,2,0,B|276:212,1,160,0|8
276,292,129066,2,0,B|324:292|344:252,1,80
336,96,129535,5,0
176,96,129848,1,0
169,255,130160,1,0
256,120,130473,2,0,B|256:200,1,80
120,284,130941,1,0
392,284,131254,1,0
332,232,131410,2,0,B|310:196|351:135|418:167|417:209,1,160,0|4
200,176,146723,6,0,B|216:256,1,80,2|0
296,256,147035,2,0,B|312:176,1,80,2|0
296,100,147348,2,0,B|216:100,1,80,2|0
136,116,147660,2,0,B|76:184|116:264,1,160,2|0
396,264,148285,2,0,B|436:184|376:115,1,160,2|4
312,264,148910,6,0,B|316:312|352:336,1,80,8|0
428,348,149223,2,0,B|480:328|500:268|468:212,1,160,0|8
396,176,149691,2,0,B|364:124|386:62|438:42,2,160
256,252,150629,1,0
200,192,150785,1,0
256,136,150941,1,0
312,192,151098,6,0,B|356:232|344:308|292:328,1,160,0|8
200,192,151723,2,0,B|156:232|168:308|220:328,1,160,0|8
256,252,152191,2,0,B|188:216|128:272|136:320,2,160
420,80,153285,2,0,B|456:116|440:196|376:208,1,160,8|4
284,76,153910,5,8
348,124,154066,2,0,B|322:168|241:173|212:114,1,160,0|0
184,44,154535,2,0,B|236:120|192:196,1,160,8|0
52,268,155160,2,0,B|96:280|104:324,1,80,8|0
28,344,155473,2,0,B|104:304|184:344,1,160,0|8
336,296,156098,6,0,B|372:224,1,80
256,236,156566,2,0,B|256:156,1,80
176,296,157035,2,0,B|140:224,1,80
152,64,157504,1,0
216,108,157660,1,0
296,108,157816,1,0
360,64,157973,1,0
256,280,158441,6,0,B|284:252,1,40
312,224,158598,2,0,B|392:164|376:44|256:-20|136:44|120:164|200:224,1,480,2|0
180,300,159691,2,0,B|224:308|256:280|256:280|288:308|332:300,2,160
124,244,160473,2,0,B|84:204|80:132|100:92,1,160
124,64,160863,2,0,B|96:36,2,40
152,92,161098,6,0,B|176:128|220:136|264:128|288:92,1,160,4|8
392,216,161723,2,0,B|368:180|324:172|280:180|256:216,1,160,0|8
188,260,162191,2,0,B|212:296|256:304|300:296|324:260,1,160,0|0
324,180,162660,2,0,B|324:100,1,80,8|0
252,136,162973,2,0,B|224:60,1,80
168,116,163285,2,0,B|116:54,1,80,8|0
40,76,163598,6,0,B|141:197,1,160,12|8
108,272,164066,2,0,B|144:292|184:272,1,80
224,200,164379,2,0,B|226:154|262:133,2,80,0|8|0
264,272,164848,2,0,B|301:296|302:338,2,80
200,224,165316,1,0
120,204,165473,2,0,B|36:224|12:312,1,160,0|8
88,340,165941,2,0,B|128:328|140:280,1,80
124,124,166410,5,0
256,32,166723,1,0
388,124,167035,1,0
332,192,167191,2,0,B|292:208|256:184|256:184|220:208|180:192,2,160
212,108,168129,2,0,B|200:64|256:24|312:64|300:108,1,160,0|0
256,176,168598,6,0,B|212:196|164:176|164:176|132:168|96:176,1,160,4|8
184,312,169223,1,0
256,276,169379,1,0
328,312,169535,1,8
400,276,169691,2,0,B|468:224|460:136,1,160
380,136,170160,2,0,B|356:168|352:212,1,80,8|0
400,276,170473,1,0
256,208,170785,2,0,B|212:204|192:168,1,80,8|0
192,88,171098,6,0,B|276:88|324:164,1,160,0|8
244,304,171723,2,0,B|160:304|112:228,1,160,0|8
44,188,172191,2,0,B|44:100|120:56,1,160
192,88,172660,2,0,B|184:175|256:225,1,160,8|0
324,268,173129,2,0,B|344:232|328:192,1,80,0|8
272,132,173441,2,0,B|252:96|268:56,1,80,0|4
428,84,173910,5,8
380,148,174066,2,0,B|428:212,1,80
328,336,174535,1,8
376,272,174691,2,0,B|328:208,1,80
380,148,175004,2,0,B|308:112,1,80,0|8
340,40,175316,2,0,B|260:32,1,80
100,28,175785,1,8
156,84,175941,2,0,B|124:112|80:104,1,80
128,256,176410,5,8
256,160,176723,1,0
384,256,177035,1,8
256,352,177348,2,0,B|256:272,1,80
188,128,177816,2,0,B|212:164|256:172|300:164|324:128,1,160
256,84,178285,2,0,B|276:144|236:184|256:244,1,160
100,60,179066,6,0,B|136:85|135:127,1,80
412,60,179691,2,0,B|375:85|376:127,1,80
300,268,180160,2,0,B|308:216|256:192|204:216|212:268,2,160,2|0|2
256,336,180941,1,0
176,340,181098,6,0,B|144:328|132:304|128:276|128:276|128:256|120:228|92:212,1,160,0|2
336,340,181723,2,0,B|368:328|380:304|384:276|384:276|384:256|392:228|420:212,1,160,0|2
256,192,182348,1,2
200,136,182504,1,0
256,80,182660,1,2
312,136,182816,2,0,B|372:180|360:284|256:340|152:284|140:180|200:136,1,400,0|4
