osu file format v9

[General]
AudioFilename: Hi, Gene! ~Ya! Oh! Yeah!~.mp3
AudioLeadIn: 1500
PreviewTime: 59684
Countdown: 0
SampleSet: Soft
StackLeniency: 0.7
Mode: 0
LetterboxInBreaks: 0

[Editor]
Bookmarks: 635,15846,29367,42888,59789,73311,86832,93592,107113,124015,137536,151057,167958,181480,195001,210846
DistanceSpacing: 0.8
BeatDivisor: 4
GridSize: 8

[Metadata]
Title:Hi, Gene! ~Ya! Oh! Yeah!~
Artist:Horinaka Yuki
Creator:wcx19911123
Version:Normal
Source:Seitokai no Ichizon
Tags:Nymph No_Gu climbb65588 KanaRin Sakurano Kurimu Akaba Chizuru Shiina Minatsu Shiina Mafuyu Honda Mariko Saito Yuka Togashi Misuzu character song

[Difficulty]
HPDrainRate:4
CircleSize:3
OverallDifficulty:3
ApproachRate:5
SliderMultiplier:1.12
SliderTickRate:1

[Events]
//Background and Video events
0,0,"BG.jpg"
//Break Periods
2,87042,92402
2,151267,160008
//Storyboard Layer 0 (Background)
//Storyboard Layer 1 (Fail)
//Storyboard Layer 2 (Pass)
//Storyboard Layer 3 (Foreground)
//Storyboard Sound Samples
//Background Colour Transformations
3,100,163,162,255

[TimingPoints]
645,422.535211267606,4,2,1,70,1,0
12475,-100,4,2,2,70,0,0
15856,-100,4,2,1,70,0,0
29799,-100,4,2,1,60,0,0
36137,-100,4,2,1,65,0,0
58954,-100,4,2,2,45,0,0
59377,-100,4,2,1,75,0,0
59799,-100,4,2,1,75,0,1
73215,-100,4,2,1,75,0,0
73321,-100,4,2,1,75,0,1
86842,-100,4,2,1,75,0,0
93602,-100,4,2,1,65,0,0
123180,-100,4,2,2,45,0,0
123602,-100,4,2,1,75,0,0
124025,-100,4,2,1,75,0,1
137440,-100,4,2,1,75,0,0
137546,-100,4,2,1,75,0,1
151067,-100,4,2,1,75,0,0
167123,-100,4,2,2,45,0,0
167546,-100,4,2,1,75,0,0
167968,-100,4,2,1,75,0,1
181384,-100,4,2,1,75,0,0
181490,-100,4,2,1,75,0,1
195011,-100,4,2,1,65,0,0

[Colours]
Combo1 : 255,81,242
Combo2 : 96,155,255
Combo3 : 245,255,70

[HitObjects]
168,72,645,2,0,B|120:104|128:176,1,112,4|2
80,272,1490,2,0,B|136:296|192:264,1,112,0|2
216,232,2123,1,0
248,200,2335,2,0,B|296:160|352:176,1,112,0|2
440,248,3180,1,0
400,352,3602,1,2
328,272,4025,6,0,B|280:240|216:264,1,112,0|2
136,336,4870,1,0
32,296,5292,1,2
16,184,5715,2,0,B|16:120|72:88,1,112,0|2
152,168,6560,2,0,B|208:200|264:168,1,112,0|2
296,144,7194,1,0
320,104,7405,6,0,B|360:56|424:64,1,112,0|8
496,144,8250,1,0
472,256,8673,1,8
384,328,9095,2,0,B|336:360|272:344,1,112,0|8
240,320,9729,1,0
176,224,10152,2,0,B|208:176,2,56,0|8|0
64,224,10997,6,0,B|32:176,1,56,0|8
48,136,11419,2,0,B|112:72|204:96,1,168,0|8
256,192,12475,1,4
256,192,12687,12,8,15433
256,192,15856,6,0,B|280:248|344:256,1,112,4|8
360,296,16490,2,0,B|416:296|456:248,1,112
472,208,17123,1,8
456,96,17546,1,0
360,40,17968,1,8
248,64,18391,2,0,B|192:80,2,56,0|0|8
320,144,19236,6,0,B|336:208|304:256,1,112,0|8
320,296,19870,2,0,B|280:344|224:344,1,112
184,320,20504,1,8
72,336,20926,1,0
120,232,21349,1,8
96,120,21771,2,0,B|80:48,2,56,0|0|8
200,160,22616,6,0,B|256:168|304:120,1,112,4|8
320,80,23250,2,0,B|368:40|424:56,1,112
464,80,23884,1,8
504,184,24306,1,0
448,280,24729,1,8
344,320,25152,2,0,B|288:344,2,56,0|0|8
360,208,25997,6,0,B|360:144|320:104,1,112,0|8
280,88,26630,2,0,B|232:128|176:120,1,112
136,104,27264,1,8
32,144,27687,1,0
112,224,28109,2,0,B|160:264,1,56,8|0
264,232,28743,2,0,B|216:192,1,56,0|8
224,312,29377,6,0,B|284:336|328:292,1,112,4|8
376,192,30222,1,0
376,80,30644,1,8
280,24,31067,2,0,B|224:8|176:48,1,112,0|8
152,88,31701,1,0
248,144,32123,2,0,B|280:200|256:256,1,112
232,288,32757,5,0
136,344,33180,1,8
40,288,33602,2,0,B|16:232|48:176,1,112,0|8
120,96,34447,1,0
224,56,34870,1,8
336,72,35292,1,0
424,144,35715,1,8
464,248,36137,6,0,B|472:304|440:360,1,112,4|8
360,280,36983,2,0,B|320:240|256:248,1,112,0|8
216,264,37616,1,0
176,288,37828,2,0,B|120:312|64:288,1,112,0|8
32,264,38461,1,0
104,176,38884,2,0,B|88:120,2,56,0|8|0
208,136,39729,6,0,B|224:72,2,56,0|8|0
320,120,40574,2,0,B|360:80,2,56,0|8|0
296,160,41208,2,0,B|280:216|312:272,1,112,0|8
344,296,41842,1,0
472,192,42475,1,8
456,80,42898,6,0,B|424:24|360:24,1,112,4|4
320,128,43743,2,0,B|280:168|216:160,1,112,0|8
176,144,44377,1,4
80,88,44799,1,0
48,120,45011,2,0,B|24:176|48:232,1,112,8|0
112,320,45856,1,8
184,232,46278,6,0,B|232:200|296:216,1,112,4|4
352,312,47123,2,0,B|400:280|408:216,1,112,0|8
400,176,47757,1,4
456,80,48180,1,0
416,56,48391,2,0,B|368:24|304:48,1,112,8|0
216,112,49236,1,8
320,160,49659,5,4
360,264,50081,2,0,B|416:272,2,56,4|0|0
288,352,50926,1,8
248,368,51137,2,0,B|192:376|144:328,1,112,4|0
160,288,51771,2,0,B|168:224|120:184,1,112,8|0
24,136,52616,1,8
120,80,53039,6,0,B|200:32,2,84,0|0|0
120,128,53884,2,0,B|152:184|208:192,1,112,0|8
256,192,54518,1,0
256,192,54729,12,0,58109
256,192,58954,5,8
296,88,59377,1,0
400,48,59799,6,0,B|464:48|496:104,1,112,4|8
400,160,60645,2,0,B|360:200|368:264,1,112,0|8
384,304,61278,1,0
352,336,61490,2,0,B|304:368|240:360,1,112,0|8
136,336,62335,1,0
80,240,62757,1,8
72,128,63180,6,0,B|80:64|136:40,1,112,0|8
168,72,63814,1,0
208,88,64025,2,0,B|264:104|320:72,1,112,0|8
352,48,64659,2,0,B|408:24|464:56,1,112
488,88,65292,2,0,B|512:144,2,56,8|0|0
400,160,66137,1,8
448,264,66560,6,0,B|440:328|384:360,1,112,4|8
336,256,67405,2,0,B|304:208|240:208,1,112,0|8
196,216,68039,1,0
152,224,68250,2,0,B|88:232|48:192,1,112,0|8
24,156,68884,1,0
88,64,69306,2,0,B|128:16,2,56,0|8|0
192,104,70152,6,0,B|248:64,1,56,0|8
280,56,70574,2,0,B|344:40|392:72,1,112
416,104,71208,1,8
488,192,71630,2,0,B|448:232|384:216,1,112,0|8
288,160,72475,1,0
176,168,72898,1,8
80,112,73321,6,0,B|48:168|80:224,1,112,4|8
32,320,74166,2,0,B|96:344|144:304,1,112,0|8
168,276,74799,1,0
208,256,75011,2,0,B|264:232|320:264,1,112,0|8
392,344,75856,1,0
496,304,76278,1,8
496,192,76701,6,0,B|496:136|448:96,1,112,0|8
408,72,77335,1,0
364,68,77546,2,0,B|304:68|264:128,1,112,0|8
260,164,78180,1,0
344,240,78602,2,0,B|368:184,2,56,0|8|0
324,280,79236,2,0,B|296:336|232:344,1,112,0|8
224,232,80081,6,0,B|184:184|120:200,1,112,4|8
40,272,80926,2,0,B|80:320|144:304,1,112,0|8
184,296,81560,1,0
220,268,81771,2,0,B|272:240|328:256,1,112,0|8
368,276,82405,1,0
464,336,82828,2,0,B|504:280,2,56,0|8|0
440,224,83673,6,0,B|448:168,1,56,0|8
448,124,84095,2,0,B|440:64|384:32,1,112
344,24,84729,1,8
256,192,85152,12,4,86842
256,192,93602,5,4
176,272,94025,1,8
64,264,94447,2,0,B|16:232|16:168,1,112,0|8
56,152,95081,2,0,B|112:136|128:72,1,112
172,68,95715,2,0,B|236:60,1,56,8|0
280,160,96349,2,0,B|216:168,2,56,0|8|0
324,156,96983,6,0,B|384:152|424:200,1,112,0|8
432,312,97828,1,0
336,368,98250,1,8
232,328,98673,1,0
260,220,99095,2,0,B|276:156,2,56,8|0|0
152,248,99940,2,0,B|104:192,1,56,8|0
92,168,100363,6,0,B|64:120|80:56,1,112,4|8
184,16,101208,1,0
224,120,101630,1,8
328,160,102053,2,0,B|392:176|440:144,1,112,0|8
464,112,102687,1,0
480,224,103109,2,0,B|488:280,2,56,0|8|0
384,280,103954,6,0,B|368:344,2,56,0|8|0
272,280,104799,2,0,B|232:320,2,56,0|8|0
300,244,105433,2,0,B|328:192|308:132,1,112,0|8
216,72,106278,2,0,B|188:124|208:184,1,112,0|8
256,280,107123,5,4
176,360,107546,1,4
64,344,107968,2,0,B|8:312|8:248,1,112,0|8
16,208,108602,2,0,B|48:152|112:152,1,112,4|0
152,156,109236,1,8
240,224,109659,2,0,B|296:248|352:216,1,112,0|8
432,144,110504,5,4
440,32,110926,1,4
336,80,111349,2,0,B|304:136|328:192,1,112,0|8
352,224,111983,2,0,B|384:280|360:336,1,112,4|0
328,360,112616,1,8
240,288,113039,1,0
128,304,113461,1,8
32,360,113884,6,0,B|64:312|40:248,1,112,4|4
24,212,114518,1,0
20,168,114729,2,0,B|16:104|64:72,1,112,0|8
104,96,115363,2,0,B|152:128|216:112,1,112,4|0
252,96,115997,1,8
360,64,116419,2,0,B|424:48|464:96,1,112,0|8
440,204,117264,6,0,B|496:276,2,84
400,224,118109,2,0,B|344:248|288:216,1,112,0|8
256,192,118743,1,0
256,192,118954,12,0,122335
256,192,123180,5,8
168,120,123602,1,0
56,128,124025,6,0,B|8:160|8:224,1,112,4|8
16,336,124870,2,0,B|80:328|104:272,1,112,0|8
124,236,125504,1,0
156,204,125715,2,0,B|204:176|264:200,1,112,0|8
352,272,126560,1,0
248,312,126983,1,8
264,200,127405,6,0,B|296:152|360:152,1,112,0|8
404,160,128039,1,0
448,152,128250,2,0,B|496:120|496:56,1,112,0|8
464,24,128884,2,0,B|408:0|352:32,1,112
320,56,129518,1,8
264,152,129940,1,0
280,264,130363,1,8
200,344,130785,6,0,B|136:360|88:320,1,112,4|8
64,292,131419,1,0
56,248,131630,2,0,B|48:184|96:144,1,112,0|8
128,40,132475,2,0,B|184:56|200:120,1,112,0|8
200,164,133109,1,0
168,272,133532,2,0,B|152:328,2,56,0|8|0
280,248,134377,6,0,B|320:288,1,56,0|8
360,304,134799,2,0,B|416:328|472:296,1,112
496,264,135433,2,0,B|496:208,1,56,8|0
496,164,135856,1,0
448,64,136278,1,8
344,104,136701,1,0
240,64,137123,1,8
136,104,137546,6,0,B|88:136|88:200,1,112,4|8
16,288,138391,2,0,B|56:328|120:312,1,112,0|8
156,284,139025,1,0
200,280,139236,2,0,B|256:280|296:328,1,112,0|8
408,344,140081,1,0
496,272,140504,1,8
504,228,140715,1,0
500,184,140926,6,0,B|488:128|436:96,1,112,0|8
392,104,141560,1,0
368,144,141771,2,0,B|328:192|264:184,1,112,0|8
232,160,142405,2,0,B|184:128|120:144,1,112
88,168,143039,2,0,B|40:200,2,56,8|0|0
160,256,143884,1,8
272,272,144306,6,0,B|336:272|368:216,1,112,4|8
464,168,145152,2,0,B|440:112|376:104,1,112,0|8
336,120,145785,1,0
292,124,145997,2,0,B|232:128|192:80,1,112,0|8
176,40,146630,1,0
72,80,147053,2,0,B|16:104,2,56,0|8|0
160,152,147898,6,0,B|152:208,1,56,0|8
156,252,148321,2,0,B|180:340|276:356,1,168,0|8
296,316,149166,2,0,B|328:268|392:268,1,112
436,276,149799,1,8
464,240,150011,2,0,B|480:144|424:80,1,168,0|8
328,32,151067,1,4
328,32,161208,6,0,B|376:32|400:72,2,84,2|0|0
284,48,162053,2,0,B|240:88|248:152,1,112,0|2
256,192,162687,1,4
256,192,162898,12,0,166278
256,192,167123,5,8
312,288,167546,1,0
352,308,167757,1,0
396,308,167968,6,0,B|456:300|480:244,1,112,4|8
480,128,168814,2,0,B|424:144|376:104,1,112,0|8
344,72,169447,1,0
304,56,169659,2,0,B|248:40|200:80,1,112,0|8
184,192,170504,1,0
240,288,170926,1,8
208,320,171137,1,0
164,332,171349,6,0,B|104:336|64:288,1,112,0|8
48,248,171983,1,0
48,204,172194,2,0,B|48:144|104:104,1,112,0|8
140,124,172828,2,0,B|200:144|248:112,1,112
280,80,173461,2,0,B|320:32,2,56,8|0|0
320,184,174306,1,8
424,144,174729,6,0,B|444:208|408:252,1,112,4|8
368,264,175363,1,0
336,296,175574,2,0,B|288:328|224:312,1,112,0|8
192,288,176208,1,0
176,248,176419,2,0,B|152:192|88:176,1,112,0|8
48,176,177053,1,0
32,288,177475,2,0,B|24:344,2,56,0|8|0
136,248,178321,6,0,B|192:216,1,56,0|8
224,200,178743,2,0,B|272:168|272:104,1,112
240,72,179377,2,0,B|184:72,1,56,8|0
140,80,179799,2,0,B|92:112|92:176,1,112,0|8
112,288,180645,1,0
208,344,181067,1,8
320,344,181490,6,0,B|376:336|408:280,1,112,4|8
424,240,182123,1,0
424,196,182335,2,0,B|424:136|368:96,1,112,0|8
332,88,182968,1,0
288,88,183180,1,0
192,144,183602,1,8
288,200,184025,2,0,B|328:240|320:304,1,112,0|8
296,340,184659,1,0
256,360,184870,6,0,B|200:376|152:336,1,112,0|8
128,296,185504,1,0
120,252,185715,2,0,B|120:192|168:152,1,112,0|8
208,168,186349,2,0,B|264:184|320:144,1,112
344,112,186983,2,0,B|376:64,2,56,8|0|0
392,216,187828,1,8
344,320,188250,6,0,B|304:360|240:352,1,112,4|8
136,312,189095,1,0
96,208,189518,1,8
92,164,189729,1,0
104,120,189940,2,0,B|128:64|184:48,1,112,0|8
228,48,190574,1,0
336,72,190997,2,0,B|392:88,2,56,0|8|0
264,160,191842,6,0,B|288:232,1,56,0|8
288,256,192264,2,0,B|288:312|240:352,1,112
196,364,192898,1,8
152,352,193109,2,0,B|112:312|112:248,1,112
120,208,193743,1,8
144,168,193954,2,0,B|200:96|296:112,1,168,0|8
400,80,195011,6,0,B|416:144|376:184,1,112,4|8
336,208,195645,2,0,B|280:224|264:288,1,112
264,332,196278,1,8
376,352,196701,1,0
472,296,197123,1,8
472,184,197546,2,0,B|472:128,2,56,0|0|8
376,240,198391,6,0,B|320:264|264:232,1,112,0|8
256,192,199025,2,0,B|240:136|176:120,1,112
132,120,199659,1,8
40,56,200081,1,0
32,168,200504,1,8
48,280,200926,2,0,B|56:352,2,56,0|0|8
136,208,201771,6,0,B|192:184|248:216,1,112,4|8
256,256,202405,2,0,B|280:312|344:320,1,112
384,312,203039,1,8
472,240,203461,1,0
448,128,203884,1,8
368,48,204306,2,0,B|312:48,2,56,0|0|8
344,160,205152,6,0,B|328:216|264:232,1,112,0|8
224,216,205785,2,0,B|168:200|112:240,1,112
92,272,206419,2,0,B|56:320,2,56,8|0|0
192,328,207264,2,0,B|248:328,1,56,8|0
320,240,207898,2,0,B|256:240,1,56,0|8
336,328,208532,5,0
376,312,208743,2,0,B|424:272|408:212,3,112
384,176,210222,2,0,B|336:136|280:160,1,112
248,192,210856,1,0
