osu file format v12

[General]
AudioFilename: School Rumble-Sound School - Scramble (TV size).mp3
AudioLeadIn: 0
PreviewTime: 38325
Countdown: 0
SampleSet: Normal
StackLeniency: 0.7
Mode: 0
LetterboxInBreaks: 1

[Editor]
DistanceSpacing: 1
BeatDivisor: 2
GridSize: 4

[Metadata]
Title:Scramble (TV size)
TitleUnicode:Scramble (TV size)
Artist:Horie Yui with UNSCANDAL
ArtistUnicode:Horie Yui with UNSCANDAL
Creator:mathi747
Version:Normal
Source:School Rumble
Tags:Opening Sawachika Eri
BeatmapID:223441
BeatmapSetID:79167

[Difficulty]
HPDrainRate:3
CircleSize:3
OverallDifficulty:4
ApproachRate:5
SliderMultiplier:1
SliderTickRate:1

[Events]
//Background and Video events
Video,1222,"School Rumble Creditless OP_xvid.avi"
0,0,"School-Rumble.jpg",0,0
//Break Periods
//Storyboard Layer 0 (Background)
//Storyboard Layer 1 (Fail)
//Storyboard Layer 2 (Pass)
//Storyboard Layer 3 (Foreground)
//Storyboard Sound Samples
//Background Colour Transformations
3,100,163,162,255

[TimingPoints]
4932,458.015267175573,4,1,0,55,1,0
45237,-100,4,1,0,55,0,1
76382,-100,4,1,0,55,0,0
83897,-66.6666666666667,4,1,0,55,0,0
84355,-100,4,1,0,55,0,0
86000,-66.6666666666667,4,1,0,55,0,0
86416,-100,4,1,0,55,0,0
88290,-100,4,1,0,40,0,0
89206,-100,4,1,0,30,0,0
90351,-100,4,1,0,20,0,0
91038,-100,4,1,0,10,0,0

[Colours]
Combo1 : 245,230,33
Combo2 : 242,34,34
Combo3 : 83,117,255

[HitObjects]
420,96,4931,2,0,B|336:132|216:24|144:144,1,300
236,180,6764,1,0,0:0:0:0:
332,212,7222,2,0,P|304:260|252:278,1,100
164,268,8138,2,0,P|116:208|152:92,1,200
208,176,9512,6,0,B|256:216|320:192,2,100
136,108,10886,5,0,0:0:0:0:
208,176,11344,2,0,P|170:209|122:209,1,100
128,108,12260,1,0,0:0:0:0:
128,108,12718,2,0,P|192:72|252:80,1,100
296,136,13634,1,0,0:0:0:0:
360,60,14092,1,0,0:0:0:0:
212,48,14779,38,0,P|176:92|188:168,1,100
188,180,15466,1,0,0:0:0:0:
284,212,15924,2,0,L|352:212,1,50
256,192,16611,12,0,17756,0:0:0:0:
108,168,18214,6,0,B|208:188|204:84|204:84|280:152|344:76,1,300
432,88,20046,2,0,P|400:168|380:180,1,100
336,92,20962,5,0,0:0:0:0:
236,92,21420,2,0,L|164:144,4,50
260,188,22794,22,0,B|308:148|308:148|356:148,2,100
260,236,23939,2,0,B|252:252|252:252|260:252|260:252|252:260|252:260|260:260|260:260|252:268|252:268|260:268|260:268|252:276|252:276|260:276|260:276|252:284|252:284|260:284,2,100
192,160,25313,22,0,P|240:136|304:152,1,100
348,220,26229,2,0,P|316:244|252:228,1,100
172,280,27145,1,0,0:0:0:0:
172,280,27374,1,0,0:0:0:0:
172,280,27603,2,0,B|240:220|272:240,1,100
260,236,28519,2,0,B|278:251|346:191,1,100
164,168,29893,38,0,P|164:216|148:280,1,100
152,264,30580,2,0,L|32:332,1,100
60,316,31267,1,0,0:0:0:0:
52,216,31725,2,0,P|40:160|52:76,1,100
40,116,32412,2,0,P|82:114|138:126,1,100
144,132,33099,1,0,0:0:0:0:
304,324,34244,21,0,0:0:0:0:
212,284,34702,1,0,0:0:0:0:
216,184,35161,1,0,0:0:0:0:
312,212,35619,2,0,P|368:200|380:140,1,100
296,116,36535,6,0,B|196:32|0:128|96:232,1,300
112,288,38367,22,0,B|224:264|156:84|256:216|272:232,1,200
284,112,39741,2,0,B|312:152|352:168|352:168|376:212|344:252|344:252|328:300,1,200
228,216,41802,21,0,0:0:0:0:
228,216,42031,1,0,0:0:0:0:
376,192,42718,1,0,0:0:0:0:
376,192,42947,1,0,0:0:0:0:
312,268,43405,2,0,P|278:306|224:316,1,100
228,216,44321,2,0,P|312:168|356:176,1,100
256,192,45237,12,0,48443,0:0:0:0:
208,136,48901,38,0,P|272:120|312:152,1,100
256,192,49588,1,0,0:0:0:0:
304,240,49817,2,0,P|256:264|200:232,1,100
200,336,50504,22,0,P|128:256|136:216,1,150
152,176,51420,1,0,0:0:0:0:
172,132,51649,2,0,P|248:88|320:120,1,150
388,156,52794,22,0,L|324:184,1,50
388,160,53252,2,0,L|332:184,1,50
288,200,53710,1,0,0:0:0:0:
180,148,54168,2,0,P|232:104|336:112,1,150
324,220,55313,1,0,0:0:0:0:
412,268,55771,1,0,0:0:0:0:
324,220,56229,2,0,B|275:180|266:261|266:261|214:194|199:263,1,200
88,304,57603,37,0,0:0:0:0:
68,204,58061,2,0,P|112:160|184:152,1,100
228,96,58977,2,0,P|192:106|148:150,1,100
196,236,59893,2,0,B|280:232|240:192|240:192|336:216|348:208|360:145|352:136,1,250
264,100,61496,22,0,P|212:92|152:136,1,100
192,156,62183,2,0,B|160:212|160:212|132:164|68:180|104:68,1,200
180,52,63557,37,0,0:0:0:0:
96,104,64015,1,0,0:0:0:0:
164,176,64473,2,0,P|132:200|68:200,1,100
72,201,65161,22,0,P|116:263|84:319,1,150
12,252,66306,2,0,P|40:200|92:220,1,100
216,148,67451,22,0,B|252:140|260:148|260:148|259:155|232:264|384:148|420:304,1,250
408,268,69054,1,0,0:0:0:0:
316,312,69512,1,0,0:0:0:0:
224,268,69970,1,0,0:0:0:0:
308,216,70428,1,0,0:0:0:0:
308,216,70657,1,0,0:0:0:0:
308,216,70886,2,0,L|412:136,1,100
480,188,71802,38,0,L|385:155,1,100
292,188,72718,1,0,0:0:0:0:
252,280,73176,1,0,0:0:0:0:
152,280,73634,1,0,0:0:0:0:
184,184,74092,1,0,0:0:0:0:
256,192,74550,12,0,75924,0:0:0:0:
160,184,76382,6,0,B|163:165|180:152|180:152|176:144|176:144|188:144|188:144|192:132|192:132|200:136|200:136|224:100|288:96,1,150
308,96,77298,2,0,P|376:108|404:140,1,100
316,184,78214,38,0,L|256:248,2,50
348,144,78901,1,0,0:0:0:0:
300,56,79359,1,0,0:0:0:0:
204,84,79817,2,0,B|176:108|257:129|214:169,3,100
172,192,81420,1,0,0:0:0:0:
76,168,81878,22,0,B|68:168|33:230|66:245|75:281|75:281|81:275|81:275|87:285|87:285|97:280|97:280|98:289|98:289|128:311|171:270|193:319|217:323|217:323|232:308,1,300
208,216,83710,1,0,0:0:0:0:
216,140,83939,38,0,P|268:168|284:216,2,75.0000028610231
168,124,84626,1,0,0:0:0:0:
104,200,85084,2,0,P|92:276|120:312,1,100
252,276,86000,22,0,L|332:316,1,75.0000028610231
364,284,86458,1,0,0:0:0:0:
368,184,86916,1,0,0:0:0:0:
320,148,87145,1,0,0:0:0:0:
256,192,87374,12,0,91496,0:0:0:0:
