osu file format v12

[General]
AudioFilename: School Rumble-Sound School - Scramble (TV size).mp3
AudioLeadIn: 0
PreviewTime: 38325
Countdown: 0
SampleSet: Normal
StackLeniency: 0.7
Mode: 0
LetterboxInBreaks: 1

[Editor]
DistanceSpacing: 2
BeatDivisor: 4
GridSize: 4

[Metadata]
Title:Scramble (TV size)
TitleUnicode:Scramble (TV size)
Artist:Horie Yui with UNSCANDAL
ArtistUnicode:Horie Yui with UNSCANDAL
Creator:mathi747
Version:Insane
Source:School Rumble
Tags:Opening Sawachika Eri
BeatmapID:228724
BeatmapSetID:79167

[Difficulty]
HPDrainRate:7
CircleSize:4
OverallDifficulty:8
ApproachRate:9
SliderMultiplier:2
SliderTickRate:2

[Events]
//Background and Video events
Video,1222,"School Rumble Creditless OP_xvid.avi"
0,0,"School-Rumble.jpg",0,0
//Break Periods
//Storyboard Layer 0 (Background)
//Storyboard Layer 1 (Fail)
//Storyboard Layer 2 (Pass)
//Storyboard Layer 3 (Foreground)
//Storyboard Sound Samples
//Background Colour Transformations
3,100,163,162,255

[TimingPoints]
4932,458.015267175573,4,1,0,55,1,0
17985,-100,4,1,0,50,0,0
21607,-66.6666666666667,4,1,0,55,0,0
22565,-100,4,1,0,45,0,0
36535,-100,4,1,0,55,0,0
38367,-100,4,1,0,45,0,0
43592,-76.9230769230769,4,1,0,45,0,0
45237,-76.9230769230769,4,1,0,50,0,1
76382,-100,4,1,0,50,0,0
83897,-66.6666666666667,4,1,0,50,0,0
84126,-100,4,1,0,50,0,0
86416,-66.6666666666667,4,1,0,50,0,0
87374,-100,4,1,0,50,0,0
88290,-100,4,1,0,40,0,0
89206,-100,4,1,0,30,0,0
90351,-100,4,1,0,20,0,0
91038,-100,4,1,0,10,0,0

[Colours]
Combo1 : 83,117,255
Combo2 : 242,34,34
Combo3 : 245,230,33

[HitObjects]
156,120,4931,1,4,1:0:0:0:
236,180,5161,2,0,P|164:224|116:224,2,100
256,120,5733,1,8,3:0:0:0:
256,120,5848,1,8,0:0:0:0:
320,232,6077,2,0,P|344:176|308:108,1,100,0|0,0:0|0:0,0:0:0:0:
216,36,6535,1,0,0:0:0:0:
148,148,6764,5,0,0:0:0:0:
232,284,6993,1,0,0:0:0:0:
140,192,7222,2,0,P|224:216|260:188,1,100
332,104,7565,1,4,2:0:0:0:
380,44,7909,6,0,P|408:92|396:148,1,100,0|0,0:0|1:0,0:0:0:0:
380,180,8252,1,8,3:0:0:0:
344,216,8367,1,8,0:0:0:0:
144,216,8596,1,0,0:0:0:0:
332,280,8825,1,0,0:0:0:0:
144,216,9054,2,0,P|120:164|144:108,1,100,0|0,0:0|0:0,0:0:0:0:
324,224,9512,6,0,B|304:208|304:208|280:144|196:160,2,150,0|0|0,0:0|0:0|0:0,3:0:0:0:
228,236,10428,1,0,0:0:0:0:
412,184,10657,2,0,B|376:220|320:224,2,100,8|0|0,0:0|0:0|0:0,0:0:0:0:
168,108,11344,5,8,3:0:0:0:
100,148,11573,1,0,0:0:0:0:
272,336,11802,1,8,3:0:0:0:
352,352,12031,1,0,0:0:0:0:
328,100,12260,1,8,3:0:0:0:
268,48,12489,1,2,2:0:0:0:
316,300,12718,6,0,P|361:291|393:250,1,100,0|8,0:0|0:0,0:0:0:0:
328,224,13176,1,0,0:0:0:0:
328,224,13405,1,0,0:0:0:0:
104,348,13634,2,0,P|60:328|40:272,1,100,0|2,0:0|2:0,0:0:0:0:
112,276,14092,1,0,0:0:0:0:
112,276,14321,2,0,P|153:255|176:208,1,100,8|0,2:0|0:0,0:0:0:0:
104,200,14779,5,0,3:0:0:0:
340,300,15008,2,0,P|392:276|404:204,1,100,4|2,1:0|2:0,0:0:0:0:
272,88,15466,2,0,P|224:93|184:125,1,100,4|0,1:0|0:0,0:0:0:0:
208,328,15924,2,0,P|249:307|244:164,1,200,4|0,1:0|2:0,0:0:0:0:
256,192,16611,12,0,17756,0:0:0:0:
216,264,17985,5,2,2:0:0:0:
200,120,18214,1,0,0:0:0:0:
344,184,18443,1,8,0:0:0:0:
172,320,18672,5,0,2:0:0:0:
152,64,18901,1,0,0:0:0:0:
392,132,19130,1,0,0:0:0:0:
256,192,19359,1,2,2:0:0:0:
488,136,19588,2,0,B|483:116|427:160|391:128,2,100,0|8|0,1:0|0:0|0:0,3:0:0:0:
444,256,20275,1,0,0:0:0:0:
436,56,20962,5,4,0:0:0:0:
264,332,21420,1,8,3:0:0:0:
332,288,21649,2,0,B|296:240|232:260|232:260|300:192|300:192|240:184|208:104,2,300.000011444092
300,112,22794,5,0,0:0:0:0:
128,212,23023,1,8,0:0:0:0:
220,256,23252,2,0,B|273:253|281:209|281:209|261:198,2,100
128,212,23939,5,0,0:0:0:0:
300,316,24168,2,0,P|248:284|212:248,1,100,0|8,0:0|0:0,0:0:0:0:
344,172,24626,1,0,0:0:0:0:
220,256,24855,2,0,P|185:275|151:324,2,100
352,288,25542,5,0,0:0:0:0:
208,108,25771,1,8,0:0:0:0:
208,108,25886,1,0,0:0:0:0:
208,108,26000,1,0,0:0:0:0:
336,312,26229,1,0,0:0:0:0:
292,244,26458,2,0,P|360:236|408:276,1,100
232,376,26916,1,0,0:0:0:0:
388,252,27145,1,8,0:0:0:0:
192,208,27374,1,0,0:0:0:0:
472,80,27603,5,4,2:0:0:0:
472,200,28061,1,0,0:0:0:0:
384,104,28290,1,0,0:0:0:0:
440,296,28519,1,8,0:0:0:0:
176,196,28748,1,0,0:0:0:0:
176,196,28977,6,0,P|159:165|171:104,1,100
243,145,29321,1,0,0:0:0:0:
175,197,29435,2,0,P|95:213|67:197,1,100
336,80,29893,5,8,0:0:0:0:
204,332,30122,1,0,0:0:0:0:
272,56,30351,1,0,0:0:0:0:
264,336,30580,1,0,0:0:0:0:
272,336,31038,1,0,0:0:0:0:
276,336,31496,1,0,0:0:0:0:
196,64,31725,5,0,0:0:0:0:
348,304,31954,1,0,0:0:0:0:
144,108,32183,1,0,0:0:0:0:
392,252,32412,1,0,0:0:0:0:
396,248,32870,1,0,0:0:0:0:
400,244,33328,1,0,0:0:0:0:
248,144,33557,6,0,L|304:112,2,50,0|0|0,0:0|0:0|0:0,0:0:0:0:
228,284,34015,1,8,3:0:0:0:
244,144,34244,1,8,1:0:0:0:
308,252,34473,1,8,3:0:0:0:
156,204,34702,1,8,0:0:0:0:
308,176,34932,2,0,B|268:176|240:140|240:140|152:140|156:216,1,200,4|0,0:0|3:0,0:0:0:0:
252,292,35619,1,0,0:0:0:0:
376,248,35848,2,0,B|408:224|408:224|472:164|428:68,1,200,4|0,0:0|1:0,0:0:0:0:
312,180,36535,6,0,P|336:228|388:248,1,100,2|0,2:0|0:0,0:0:0:0:
388,172,36878,1,0,0:0:0:0:
360,92,36993,2,0,P|292:80|236:112,1,100,2|0,2:0|0:0,0:0:0:0:
296,236,37336,2,0,P|228:252|172:216,1,100,2|0,2:0|0:0,0:0:0:0:
104,128,37680,1,2,2:0:0:0:
104,128,37794,2,0,P|140:72|244:60,1,150,2|0,2:0|0:0,0:0:0:0:
208,164,38367,5,8,0:0:0:0:
104,128,38596,2,0,B|128:64|192:52,1,100,2|0,2:0|0:0,0:0:0:0:
208,164,39054,2,0,B|188:212|140:235,1,100
268,80,39512,2,0,B|311:106|326:157,1,100,2|8,2:0|0:0,0:0:0:0:
336,268,39970,1,0,0:0:0:0:
408,184,40199,1,0,0:0:0:0:
260,316,40428,2,0,P|250:250|304:208,1,100,2|0,2:0|0:0,0:0:0:0:
408,184,40886,1,0,0:0:0:0:
408,184,41115,1,8,0:0:0:0:
324,308,41344,6,0,P|216:260|192:208,1,150,2|0,2:0|0:0,0:0:0:0:
296,200,41802,1,8,3:0:0:0:
116,112,42031,1,8,1:0:0:0:
296,200,42260,6,0,P|188:152|164:100,1,150,2|0,2:0|0:0,0:0:0:0:
272,104,42718,1,8,3:0:0:0:
84,40,42947,1,8,1:0:0:0:
500,180,43634,2,0,P|424:120|348:124,1,129.999994049073,12|0,1:0|0:0,0:0:0:0:
136,96,44092,2,0,P|100:186|105:216,1,129.999994049073,12|0,1:0|0:0,0:0:0:0:
336,336,44550,2,0,P|365:327|432:257,1,129.999994049073,12|0,1:0|0:0,0:0:0:0:
448,220,44893,1,2,2:0:0:0:
444,184,45008,2,0,P|442:153|392:70,1,129.999994049073,12|0,1:0|0:0,0:0:0:0:
256,192,45351,12,0,46611,0:0:0:0:
116,160,46840,5,2,2:0:0:0:
116,160,47069,2,0,P|200:192|252:152,1,129.999994049073,0|0,0:0|0:0,0:0:0:0:
292,64,47527,1,0,0:0:0:0:
180,120,47756,1,2,2:0:0:0:
160,156,47870,1,0,0:0:0:0:
152,196,47985,2,0,P|148:240|240:328,2,129.999994049073
244,228,48557,5,0,0:0:0:0:
244,228,48672,1,2,2:0:0:0:
428,160,48901,1,8,0:0:0:0:
264,56,49130,1,0,0:0:0:0:
428,160,49359,2,0,P|432:264|372:296,2,129.999994049073,0|2|0,0:0|2:0|0:0,0:0:0:0:
244,228,50046,1,0,0:0:0:0:
296,300,50275,1,0,0:0:0:0:
244,228,50504,6,0,P|284:294|428:224,1,259.999988098145,2|0,2:0|0:0,0:0:0:0:
244,228,51191,1,0,0:0:0:0:
428,236,51420,1,2,2:0:0:0:
392,208,51535,1,0,0:0:0:0:
348,200,51649,1,0,0:0:0:0:
244,228,51878,2,0,P|216:284|140:296,1,129.999994049073
164,204,52336,1,2,2:0:0:0:
108,88,52565,1,8,0:0:0:0:
244,228,52794,6,0,B|220:264|176:312|80:252,1,129.999994049073
244,228,53252,1,2,2:0:0:0:
352,148,53481,2,0,B|284:156|244:236|244:236|192:204|108:252,1,259.999988098145
200,296,54168,2,0,B|260:287|216:196|216:196|304:256|352:224,1,259.999988098145,2|0,2:0|0:0,0:0:0:0:
464,180,54855,1,0,0:0:0:0:
372,92,55084,5,2,2:0:0:0:
264,160,55313,2,0,L|264:320,1,129.999994049073,0|0,0:0|0:0,0:0:0:0:
376,360,55771,1,0,0:0:0:0:
264,292,56000,1,2,2:0:0:0:
160,216,56229,5,8,0:0:0:0:
328,216,56458,2,0,P|388:288|372:324,1,129.999994049073
212,284,56916,1,0,0:0:0:0:
212,284,57145,1,0,0:0:0:0:
96,160,57374,6,0,L|28:124,2,64.9999970245363
216,208,57832,1,0,0:0:0:0:
236,136,58061,2,0,P|280:168|284:244,1,129.999994049073,8|0,0:0|0:0,0:0:0:0:
128,152,58519,2,0,P|134:80|178:48,1,129.999994049073,8|0,0:0|0:0,0:0:0:0:
284,240,58977,2,0,P|249:281|172:280,1,129.999994049073,8|0,0:0|0:0,0:0:0:0:
180,48,59435,1,8,0:0:0:0:
384,96,59664,1,8,3:0:0:0:
312,72,59893,6,0,P|356:168|396:168,1,129.999994049073
384,96,60351,1,0,0:0:0:0:
220,296,60580,2,0,P|180:348|92:332,2,129.999994049073
156,100,61267,1,0,0:0:0:0:
28,264,61496,5,0,0:0:0:0:
28,264,61725,2,0,P|92:264|136:208,2,129.999994049073
64,192,62412,1,0,0:0:0:0:
248,288,62641,1,0,0:0:0:0:
368,56,62870,1,0,0:0:0:0:
368,56,62985,1,0,0:0:0:0:
368,56,63099,2,0,L|364:128,2,64.9999970245363
124,152,63557,5,0,0:0:0:0:
332,304,63786,1,0,0:0:0:0:
248,288,64015,2,0,P|280:232|352:224,1,129.999994049073
448,292,64473,1,0,0:0:0:0:
448,292,64702,2,0,P|376:301|340:243,1,129.999994049073
196,348,65161,6,0,B|192:308|152:344|144:340|144:340|140:340|100:336|96:308|132:268|60:316|56:300|56:300|40:284|40:284|20:288|20:288|4:260|32:232,1,259.999988098145
164,96,65848,1,0,0:0:0:0:
308,248,66077,2,0,B|340:164|254:111,1,129.999994049073
204,120,66535,1,0,0:0:0:0:
204,120,66649,1,0,0:0:0:0:
236,200,66764,2,0,L|108:224,2,129.999994049073
360,64,67451,6,0,P|288:40|224:64,1,129.999994049073
112,164,67909,1,0,0:0:0:0:
212,300,68138,2,0,P|261:314|333:290,1,129.999994049073
448,164,68596,1,0,0:0:0:0:
448,164,68825,6,0,P|400:224|312:248,1,129.999994049073
168,308,69283,1,0,0:0:0:0:
168,180,69512,2,0,P|237:204|300:264,1,129.999994049073
404,88,69970,2,0,P|336:120|288:200,1,129.999994049073
256,340,70428,5,0,0:0:0:0:
40,152,70657,1,0,0:0:0:0:
256,32,70886,1,0,0:0:0:0:
248,196,71115,1,4,2:0:0:0:
256,340,71573,5,0,0:0:0:0:
484,156,71802,1,0,0:0:0:0:
248,196,72031,1,4,2:0:0:0:
248,196,72489,5,0,0:0:0:0:
248,196,72718,2,0,P|344:204|380:136,1,129.999994049073
260,108,73061,1,0,0:0:0:0:
184,144,73176,2,0,P|176:240|244:276,1,129.999994049073
320,296,73519,1,0,0:0:0:0:
396,256,73634,2,0,P|413:224|385:140,1,129.999994049073
280,216,73977,1,0,0:0:0:0:
232,284,74092,2,0,P|152:323|118:311,1,129.999994049073
352,192,74550,5,0,0:0:0:0:
164,240,74779,1,0,0:0:0:0:
316,120,75008,1,0,0:0:0:0:
312,316,75237,1,0,0:0:0:0:
140,220,75466,1,0,0:0:0:0:
116,184,75580,1,0,0:0:0:0:
116,140,75695,1,0,0:0:0:0:
224,268,75924,1,0,0:0:0:0:
224,268,76153,5,0,0:0:0:0:
332,160,76382,2,0,P|367:229|363:275,1,100
172,296,76840,1,0,0:0:0:0:
208,152,77069,1,0,0:0:0:0:
280,260,77298,1,0,0:0:0:0:
308,282,77412,1,0,0:0:0:0:
339,294,77527,1,0,0:0:0:0:
336,164,77756,1,0,0:0:0:0:
336,164,77985,5,0,0:0:0:0:
216,72,78214,6,0,P|144:92|132:120,1,100
320,284,78672,2,0,P|256:276|240:248,1,100
104,36,79130,1,0,0:0:0:0:
64,160,79359,2,0,P|96:220|168:232,2,100
144,344,80046,6,0,P|216:300|248:236,1,150
340,284,80504,6,0,P|283:259|216:192,1,150
224,100,80962,5,0,0:0:0:0:
264,68,81077,1,0,0:0:0:0:
312,64,81191,1,0,0:0:0:0:
436,148,81420,1,0,0:0:0:0:
432,195,81535,1,0,0:0:0:0:
402,237,81649,1,0,0:0:0:0:
308,148,81878,6,0,L|220:260,1,100
400,100,82336,1,0,0:0:0:0:
316,260,82565,1,0,0:0:0:0:
208,188,82794,5,0,0:0:0:0:
196,220,82909,1,0,0:0:0:0:
176,248,83023,1,0,0:0:0:0:
148,268,83138,1,0,0:0:0:0:
116,284,83252,2,0,L|8:324,1,100
88,132,83710,5,0,0:0:0:0:
88,132,83825,1,0,0:0:0:0:
88,132,83939,2,0,P|148:96|260:84,1,150.000005722046
212,280,84397,2,0,P|292:288|332:276,1,100
432,152,84855,2,0,P|444:76|432:44,1,100
300,320,85313,1,0,0:0:0:0:
208,228,85542,1,0,0:0:0:0:
140,284,86000,5,0,0:0:0:0:
172,316,86115,1,0,0:0:0:0:
216,320,86229,1,0,0:0:0:0:
216,232,86458,6,0,P|180:200|192:100,1,150.000005722046
380,92,86916,5,0,0:0:0:0:
104,212,87145,5,0,0:0:0:0:
256,192,87374,12,0,91496,0:0:0:0:
