osu file format v13

[General]
AudioFilename: Horie Yui feat. REDaLICE - Great Nano Desu.mp3
AudioLeadIn: 3000
PreviewTime: 108165
Countdown: 0
SampleSet: Normal
StackLeniency: 0.7
Mode: 0
LetterboxInBreaks: 1
WidescreenStoryboard: 1

[Editor]
Bookmarks: 11188,22351,33514,44677,67002,86537,108863,120026,131188,153514,175839,198165,217700,240026,251188,262351,273514,284677
DistanceSpacing: 0.5
BeatDivisor: 4
GridSize: 4
TimelineZoom: 2.4

[Metadata]
Title:Great Nano Desu
TitleUnicode:Great Nano Desu
Artist:Horie Yui feat. REDALiCE
ArtistUnicode:Horie Yui feat. REDALiCE
Creator:Mira-san
Version:Collab Nano Desu
Source:Higurashi no Naku Koro Ni Kai
Tags:hanyuu horie yui auauau examination tsukasa -asagi
BeatmapID:430889
BeatmapSetID:179238

[Difficulty]
HPDrainRate:7
CircleSize:4
OverallDifficulty:7
ApproachRate:9
SliderMultiplier:1.8
SliderTickRate:1

[Events]
//Background and Video events
0,0,"Hanyuu nano desu.jpg",0,0
//Break Periods
//Storyboard Layer 0 (Background)
//Storyboard Layer 1 (Fail)
//Storyboard Layer 2 (Pass)
//Storyboard Layer 3 (Foreground)
//Storyboard Sound Samples
//Background Colour Transformations
3,100,163,162,255

[TimingPoints]
26,348.837209302326,4,1,0,60,1,0
80956,-100,4,3,0,60,0,0
97700,-100,4,1,0,60,0,0
108863,-83.3333333333333,4,1,0,60,0,1
129793,-100,4,1,0,60,0,0
131188,-100,4,1,0,60,0,1
147932,-100,4,1,0,60,0,0
182467,-76.9230769230769,4,1,0,60,0,0
182816,-100,4,1,0,60,0,0
212119,-100,4,1,0,60,0,1
227467,-100,4,1,0,60,0,0
228863,-100,4,1,0,60,0,1
244212,-100,4,1,0,60,0,0
251188,-100,4,1,0,60,0,1
272119,-100,4,1,0,60,0,0
273514,-100,4,1,0,60,0,1
284677,-100,4,1,0,60,0,0
302119,-100,4,1,0,5,0,0

[Colours]
Combo1 : 240,5,5
Combo2 : 255,0,255
Combo3 : 124,102,253

[HitObjects]
104,84,26,6,0,L|112:200,1,90,2|0,0:0|0:0,0:0:0:0:
252,264,374,2,0,L|244:148,1,90
240,40,723,1,2,0:0:0:0:
364,192,898,1,0,0:0:0:0:
148,224,1072,2,0,L|40:236,1,90
352,276,1421,6,0,L|460:264,1,90,2|0,0:0|0:0,0:0:0:0:
288,348,1770,1,0,0:0:0:0:
148,224,1944,1,0,0:0:0:0:
268,144,2119,1,2,0:0:0:0:
112,96,2293,1,0,0:0:0:0:
92,104,2380,1,0,0:0:0:0:
72,112,2467,1,0,0:0:0:0:
268,144,2642,1,0,0:0:0:0:
288,152,2729,1,0,0:0:0:0:
308,160,2816,5,2,0:0:0:0:
180,236,2991,1,0,0:0:0:0:
300,280,3165,1,0,0:0:0:0:
388,192,3339,2,0,P|380:112|320:72,1,135,2|0,0:0|0:0,0:0:0:0:
320,68,3688,1,0,0:0:0:0:
300,280,3863,2,0,L|412:324,1,90,2|0,0:0|0:0,0:0:0:0:
388,192,4212,5,2,0:0:0:0:
180,236,4386,1,0,0:0:0:0:
180,236,4473,1,0,0:0:0:0:
180,236,4560,1,0,0:0:0:0:
320,68,4735,2,0,L|268:32,2,45,0|0|2,0:0|0:0|0:0,0:0:0:0:
300,280,5084,1,0,0:0:0:0:
180,236,5258,2,0,P|172:168|176:148,1,90
300,280,5607,6,0,P|261:336|245:349,1,90,2|0,0:0|0:0,0:0:0:0:
60,280,5956,1,0,0:0:0:0:
156,128,6130,2,0,L|246:128,1,90,0|2,0:0|0:0,0:0:0:0:
380,192,6479,1,0,0:0:0:0:
492,68,6653,2,0,P|500:136|496:156,1,90,0|0,0:0|0:0,0:0:0:0:
384,272,7002,5,2,0:0:0:0:
312,144,7177,1,0,0:0:0:0:
208,228,7351,2,0,P|200:296|204:316,1,90,0|0,0:0|0:0,0:0:0:0:
380,192,7700,1,2,0:0:0:0:
208,228,7874,1,0,0:0:0:0:
188,220,7961,1,0,0:0:0:0:
168,212,8048,1,2,0:0:0:0:
380,112,8223,1,0,0:0:0:0:
400,104,8310,1,0,0:0:0:0:
420,96,8397,5,2,0:0:0:0:
340,268,8572,1,0,0:0:0:0:
132,112,8746,2,0,L|148:220,1,90
312,144,9095,2,0,L|296:36,1,90,2|0,0:0|0:0,0:0:0:0:
208,228,9444,1,0,0:0:0:0:
340,352,9619,1,0,0:0:0:0:
426,184,9793,6,0,P|429:139|420:96,1,90,2|0,0:0|0:0,0:0:0:0:
208,228,10142,1,0,0:0:0:0:
316,332,10316,1,0,0:0:0:0:
340,330,10403,1,0,0:0:0:0:
364,327,10491,2,0,L|476:315,1,90,2|0,0:0|0:0,0:0:0:0:
208,228,10839,2,0,L|96:240,1,90
20,176,11188,5,0,0:0:0:0:
124,320,11363,1,0,0:0:0:0:
28,272,11537,1,0,0:0:0:0:
124,132,11712,2,0,P|132:88|128:40,1,90
224,92,12060,1,0,0:0:0:0:
32,88,12235,1,0,0:0:0:0:
224,92,12409,6,0,L|320:92,1,90
440,32,12758,1,0,0:0:0:0:
512,140,12932,1,0,0:0:0:0:
384,176,13107,1,0,0:0:0:0:
464,268,13281,2,0,L|460:357,1,90
340,292,13630,2,0,L|336:384,1,90
220,304,13979,5,0,0:0:0:0:
320,168,14153,1,0,0:0:0:0:
340,292,14328,1,0,0:0:0:0:
192,184,14502,2,0,L|102:186,1,90
0,192,14851,1,0,0:0:0:0:
108,96,15026,1,0,0:0:0:0:
100,288,15200,6,0,L|92:388,1,90,0|0,0:0|0:0,0:0:0:0:
8,272,15549,1,0,0:0:0:0:
104,188,15723,1,0,0:0:0:0:
104,188,15810,1,0,0:0:0:0:
104,188,15898,1,0,0:0:0:0:
204,288,16072,1,0,0:0:0:0:
204,288,16159,1,0,0:0:0:0:
204,288,16246,1,0,0:0:0:0:
304,120,16421,1,0,0:0:0:0:
304,120,16508,1,0,0:0:0:0:
304,120,16595,1,0,0:0:0:0:
308,312,16770,5,0,0:0:0:0:
200,176,16944,1,0,0:0:0:0:
364,216,17119,1,0,0:0:0:0:
204,288,17293,2,0,L|108:292,1,90
276,220,17642,1,0,0:0:0:0:
408,304,17816,1,0,0:0:0:0:
496,200,17991,6,0,P|504:156|496:104,1,90
388,48,18339,1,0,0:0:0:0:
316,160,18514,1,0,0:0:0:0:
428,152,18688,1,0,0:0:0:0:
276,64,18863,2,0,L|176:60,1,90
152,172,19212,2,0,L|48:164,1,90
156,272,19560,5,0,0:0:0:0:
256,188,19735,1,0,0:0:0:0:
296,336,19909,1,0,0:0:0:0:
400,228,20084,2,0,L|489:224,1,90
412,344,20432,1,0,0:0:0:0:
316,252,20607,1,0,0:0:0:0:
204,356,20781,1,0,0:0:0:0:
144,188,20956,5,0,0:0:0:0:
16,208,21130,2,0,L|12:116,1,90
128,104,21479,1,0,0:0:0:0:
48,300,21653,2,0,L|70:297,14,22.5,0|0|0|0|0|0|0|0|0|0|0|0|0|0|0,0:0|0:0|0:0|0:0|0:0|0:0|0:0|0:0|0:0|0:0|0:0|0:0|0:0|0:0|0:0,0:0:0:0:
92,296,22351,5,2,0:0:0:0:
148,224,22526,1,0,0:0:0:0:
148,224,22613,1,0,0:0:0:0:
148,224,22700,2,0,P|180:260|184:308,1,90,2|0,0:0|0:0,0:0:0:0:
256,240,23049,1,0,0:0:0:0:
288,324,23223,2,0,P|328:344|376:336,1,90,2|2,0:0|0:0,0:0:0:0:
444,284,23572,1,0,0:0:0:0:
488,204,23746,2,0,P|504:160|492:116,1,90,0|2,0:0|0:0,0:0:0:0:
452,40,24095,1,2,0:0:0:0:
364,16,24270,1,0,0:0:0:0:
188,200,24444,5,2,0:0:0:0:
420,88,24619,1,0,0:0:0:0:
156,120,24793,1,2,0:0:0:0:
404,176,24967,1,0,0:0:0:0:
184,40,25142,2,0,P|136:36|96:60,1,90,2|0,0:0|0:0,0:0:0:0:
56,132,25491,2,0,L|8:212,1,90,2|2,0:0|0:0,0:0:0:0:
100,212,25839,1,0,0:0:0:0:
48,284,26014,1,2,0:0:0:0:
48,284,26101,1,0,0:0:0:0:
48,284,26188,2,0,P|88:304|132:292,1,90,2|0,0:0|0:0,0:0:0:0:
200,236,26537,1,2,0:0:0:0:
356,48,26712,5,0,0:0:0:0:
156,248,26886,1,2,0:0:0:0:
392,32,27060,1,0,0:0:0:0:
112,240,27235,1,2,0:0:0:0:
432,28,27409,2,0,L|476:40,2,45,0|0|2,0:0|0:0|0:0,0:0:0:0:
272,152,27758,1,0,0:0:0:0:
272,152,27845,1,0,0:0:0:0:
272,152,27932,6,0,L|204:92,1,90,2|0,0:0|0:0,0:0:0:0:
120,120,28281,2,0,L|192:184,1,90,2|2,0:0|0:0,0:0:0:0:
104,212,28630,1,0,0:0:0:0:
172,272,28805,2,0,L|244:336,1,90,0|2,0:0|0:0,0:0:0:0:
260,244,29153,1,2,0:0:0:0:
324,180,29328,2,0,L|388:108,1,90,0|2,0:0|0:0,0:0:0:0:
296,96,29677,1,2,0:0:0:0:
236,160,29851,1,2,0:0:0:0:
180,88,30026,2,0,P|152:120|148:172,1,90,2|0,0:0|0:0,0:0:0:0:
172,252,30374,2,0,P|136:276|84:272,1,90,2|0,0:0|0:0,0:0:0:0:
60,260,30636,5,0,0:0:0:0:
40,232,30723,1,2,0:0:0:0:
232,192,30898,2,0,P|272:164|320:172,1,90
296,256,31246,1,2,0:0:0:0:
380,224,31421,1,0,0:0:0:0:
448,280,31595,2,0,P|472:240|464:188,1,90,2|0,0:0|0:0,0:0:0:0:
404,136,31944,2,0,P|356:132|320:156,1,90,2|0,0:0|0:0,0:0:0:0:
84,336,32293,5,0,0:0:0:0:
440,336,32467,1,2,0:0:0:0:
120,256,32642,1,0,0:0:0:0:
396,256,32816,1,2,0:0:0:0:
256,204,32991,1,0,0:0:0:0:
256,24,33165,1,2,0:0:0:0:
256,48,33252,1,0,0:0:0:0:
256,72,33339,1,2,0:0:0:0:
256,96,33427,1,0,0:0:0:0:
256,120,33514,5,2,0:0:0:0:
396,256,33688,2,0,L|520:260,1,90,0|2,0:0|0:0,0:0:0:0:
368,156,34037,1,0,0:0:0:0:
304,316,34212,2,0,L|180:320,2,90,0|2|0,0:0|0:0|0:0,0:0:0:0:
128,256,34735,1,2,0:0:0:0:
208,188,34909,6,0,L|332:184,2,90,0|2|2,0:0|0:0|0:0,0:0:0:0:
372,240,35432,1,2,0:0:0:0:
128,256,35607,2,0,P|120:188|124:168,1,90,0|0,0:0|0:0,0:0:0:0:
356,44,35956,2,0,P|364:112|360:132,1,90,2|0,0:0|0:0,0:0:0:0:
256,284,36305,6,0,B|256:224|256:224|216:184,1,90,2|0,0:0|0:0,0:0:0:0:
128,256,36653,1,0,0:0:0:0:
372,240,36828,2,0,B|423:210|423:210|438:155,1,90,2|0,0:0|0:0,0:0:0:0:
356,44,37177,1,0,0:0:0:0:
256,284,37351,1,2,0:0:0:0:
372,240,37526,1,2,0:0:0:0:
128,256,37700,6,0,P|96:148|104:92,1,135,0|0,0:0|0:0,0:0:0:0:
104,108,38049,1,2,0:0:0:0:
260,148,38223,1,0,0:0:0:0:
184,196,38398,2,0,P|176:128|180:108,1,90,2|0,0:0|0:0,0:0:0:0:
336,192,38746,2,0,P|344:124|340:104,1,90,2|0,0:0|0:0,0:0:0:0:
260,232,39095,6,0,B|300:272|300:272|368:280,1,90
408,148,39444,1,2,0:0:0:0:
180,107,39619,2,0,P|175:152|184:196,1,90
260,232,39967,1,2,0:0:0:0:
188,284,40142,2,0,L|68:300,1,90,0|2,0:0|0:0,0:0:0:0:
260,144,40491,5,0,0:0:0:0:
260,144,40665,2,0,L|380:128,1,90,2|0,0:0|0:0,0:0:0:0:
460,268,41014,2,0,L|340:252,1,90,0|2,0:0|0:0,0:0:0:0:
141,256,41363,1,0,0:0:0:0:
120,260,41450,1,0,0:0:0:0:
96,264,41537,1,2,0:0:0:0:
296,296,41712,1,0,0:0:0:0:
236,128,41886,6,0,L|104:132,1,90,2|0,0:0|0:0,0:0:0:0:
296,296,42235,2,0,P|299:227|293:207,1,90,0|2,0:0|0:0,0:0:0:0:
141,256,42584,1,0,0:0:0:0:
392,336,42758,2,0,L|488:332,1,90,2|0,0:0|0:0,0:0:0:0:
408,204,43107,1,0,0:0:0:0:
424,68,43281,6,0,B|336:80|336:80|312:104|308:120,1,135,2|0,0:0|0:0,0:0:0:0:
308,140,43630,1,2,0:0:0:0:
88,68,43805,2,0,B|176:80|176:80|200:104|204:120,1,135,2|0,0:0|0:0,0:0:0:0:
204,140,44154,1,2,0:0:0:0:
200,164,44241,1,0,0:0:0:0:
192,184,44328,1,0,0:0:0:0:
180,204,44415,1,0,0:0:0:0:
164,220,44502,1,0,0:0:0:0:
88,68,44677,5,2,0:0:0:0:
36,140,44851,2,0,P|76:160|136:144,1,90,0|2,0:0|0:0,0:0:0:0:
180,88,45200,1,0,0:0:0:0:
192,176,45374,2,2,P|128:232|36:220,1,180,2|2,0:0|0:0,0:0:0:0:
56,312,45898,5,0,0:0:0:0:
92,316,45985,1,0,0:0:0:0:
128,312,46072,1,2,0:0:0:0:
208,272,46246,1,0,0:0:0:0:
240,252,46334,1,0,0:0:0:0:
256,220,46421,1,2,0:0:0:0:
280,132,46595,2,2,P|356:96|436:144,1,180
484,312,47119,1,2,0:0:0:0:
308,268,47293,1,0,0:0:0:0:
200,124,47467,6,0,P|120:168|40:116,1,180,2|2,0:0|0:0,0:0:0:0:
120,76,47991,2,0,L|140:256,1,180,2|2,0:0|0:0,0:0:0:0:
144,288,48427,1,0,0:0:0:0:
148,320,48514,1,2,0:0:0:0:
220,268,48688,2,0,P|248:304|300:312,1,90,2|0,0:0|0:0,0:0:0:0:
468,296,49037,5,2,0:0:0:0:
220,132,49212,1,2,0:0:0:0:
396,344,49386,1,0,0:0:0:0:
292,84,49560,1,2,0:0:0:0:
312,340,49735,2,0,L|300:384,2,45,0|0|2,0:0|0:0|0:0,0:0:0:0:
372,92,50084,1,0,0:0:0:0:
384,60,50171,1,0,0:0:0:0:
372,92,50258,6,0,L|344:180,1,90,6|0,0:0|0:0,0:0:0:0:
272,128,50607,1,2,0:0:0:0:
252,216,50781,1,0,0:0:0:0:
188,152,50956,2,2,B|152:196|168:248|168:248|84:284,1,180
80,188,51479,1,0,0:0:0:0:
172,340,51653,2,2,P|256:304|324:348,1,180
360,264,52177,1,2,0:0:0:0:
432,316,52351,1,0,0:0:0:0:
440,228,52526,5,0,0:0:0:0:
440,228,52613,1,0,0:0:0:0:
440,228,52700,1,2,0:0:0:0:
364,180,52874,1,0,0:0:0:0:
120,220,53049,2,0,P|164:228|208:200,1,90,2|0,0:0|0:0,0:0:0:0:
252,132,53398,1,2,0:0:0:0:
216,48,53572,1,0,0:0:0:0:
304,60,53746,2,0,P|336:92|340:136,1,90,2|0,0:0|0:0,0:0:0:0:
292,212,54095,1,2,0:0:0:0:
204,204,54270,2,0,P|160:196|120:220,1,90,2|0,0:0|0:0,0:0:0:0:
80,296,54619,5,0,0:0:0:0:
344,136,54793,1,2,0:0:0:0:
60,280,54967,1,0,0:0:0:0:
364,160,55142,1,2,0:0:0:0:
44,248,55316,1,0,0:0:0:0:
40,212,55403,1,0,0:0:0:0:
52,180,55491,1,2,0:0:0:0:
376,192,55665,1,2,0:0:0:0:
384,228,55752,1,0,0:0:0:0:
384,264,55839,6,0,P|344:280|296:264,1,90,2|0,0:0|0:0,0:0:0:0:
272,244,56101,1,0,0:0:0:0:
240,232,56188,1,2,0:0:0:0:
204,236,56276,1,0,0:0:0:0:
176,256,56363,1,0,0:0:0:0:
160,288,56450,1,0,0:0:0:0:
136,312,56537,6,0,P|92:324|48:304,1,90,2|0,0:0|0:0,0:0:0:0:
28,280,56799,1,2,0:0:0:0:
16,248,56886,2,0,P|12:208|40:160,1,90,0|2,0:0|0:0,0:0:0:0:
60,140,57148,1,0,0:0:0:0:
88,120,57235,5,2,0:0:0:0:
124,112,57322,1,0,0:0:0:0:
160,116,57409,1,0,0:0:0:0:
192,136,57496,1,0,0:0:0:0:
220,156,57584,1,2,0:0:0:0:
252,168,57671,1,0,0:0:0:0:
288,172,57758,1,0,0:0:0:0:
320,160,57845,1,0,0:0:0:0:
348,140,57932,6,0,L|384:108,1,45,2|0,0:0|0:0,0:0:0:0:
408,196,58107,2,0,L|440:232,1,45,2|0,0:0|0:0,0:0:0:0:
352,260,58281,2,0,L|316:292,1,45,2|0,0:0|0:0,0:0:0:0:
292,204,58456,2,2,L|260:168,1,45
248,264,58630,5,2,0:0:0:0:
216,244,58717,1,0,0:0:0:0:
180,236,58805,2,0,P|132:232|96:256,1,90,0|2,0:0|0:0,0:0:0:0:
68,272,59066,2,0,P|24:256|4:216,1,90
0,184,59328,2,0,P|40:184|76:152,1,90,2|0,0:0|0:0,0:0:0:0:
88,120,59589,1,2,0:0:0:0:
84,84,59677,2,0,P|128:64|176:80,1,90,0|2,0:0|0:0,0:0:0:0:
192,96,59938,1,2,0:0:0:0:
220,120,60026,6,0,P|264:132|308:112,1,90,0|2,0:0|0:0,0:0:0:0:
328,92,60287,2,0,P|368:64|420:72,1,90,0|2,0:0|0:0,0:0:0:0:
440,80,60549,2,0,P|460:120|452:168,1,90,0|2,0:0|0:0,0:0:0:0:
392,228,60898,1,0,0:0:0:0:
312,184,61072,1,0,0:0:0:0:
312,184,61159,1,0,0:0:0:0:
312,184,61246,1,0,0:0:0:0:
312,184,61334,1,0,0:0:0:0:
312,184,61421,6,0,P|268:172|220:192,1,90,6|0,0:0|0:0,0:0:0:0:
272,264,61770,2,0,P|228:280|184:264,1,90,2|0,0:0|0:0,0:0:0:0:
124,204,62119,2,2,P|136:112|216:80,1,180
296,92,62642,1,0,0:0:0:0:
296,92,62729,1,0,0:0:0:0:
296,92,62816,2,2,P|340:100|384:68,1,90,2|0,0:0|0:0,0:0:0:0:
432,8,63165,1,2,0:0:0:0:
452,96,63339,2,2,P|404:160|304:172,1,180
128,84,63863,5,2,0:0:0:0:
144,268,64037,1,0,0:0:0:0:
312,176,64212,6,0,L|392:120,1,90,2|0,0:0|0:0,0:0:0:0:
400,212,64560,2,2,L|316:272,1,90,2|0,0:0|0:0,0:0:0:0:
244,300,64909,1,2,0:0:0:0:
156,316,65084,1,0,0:0:0:0:
76,280,65258,1,2,0:0:0:0:
32,204,65432,2,0,P|28:160|52:120,1,90,2|2,0:0|0:0,0:0:0:0:
204,24,65781,5,0,0:0:0:0:
104,176,65956,1,2,0:0:0:0:
236,52,66130,1,0,0:0:0:0:
88,152,66305,1,2,0:0:0:0:
228,176,66479,5,0,0:0:0:0:
308,220,66653,1,2,0:0:0:0:
396,208,66828,1,2,0:0:0:0:
444,132,67002,6,0,L|408:44,1,90
276,100,67351,2,0,L|188:63,1,90
140,200,67700,2,0,L|52:236,1,90
44,288,67962,1,0,0:0:0:0:
68,336,68049,2,0,L|156:352,1,90
320,336,68398,5,0,0:0:0:0:
416,124,68572,1,0,0:0:0:0:
410,273,68746,1,0,0:0:0:0:
328,56,68921,2,0,P|283:77|258:109,1,90
100,260,69270,2,0,P|144:238|169:206,2,90,0|0|0,0:0|0:0|0:0,0:0:0:0:
112,48,69793,6,0,P|133:92|165:117,1,90
324,264,70142,2,0,P|302:219|270:194,1,90,0|0,0:0|0:0,3:0:0:0:
216,160,70403,1,0,0:0:0:0:
164,120,70491,2,0,P|114:106|70:118,1,90
236,260,70839,2,0,P|285:273|329:261,1,90
472,192,71188,1,0,0:0:0:0:
408,44,71363,5,0,0:0:0:0:
236,260,71537,1,0,0:0:0:0:
344,24,71712,1,0,0:0:0:0:
296,288,71886,1,0,0:0:0:0:
400,272,72060,1,0,0:0:0:0:
400,272,72148,1,0,0:0:0:0:
400,272,72235,2,0,P|400:224|384:184,1,90
272,68,72584,5,0,0:0:0:0:
272,68,72671,1,0,0:0:0:0:
272,68,72758,2,0,L|216:76,1,45
172,144,72932,1,0,0:0:0:0:
172,144,73020,1,0,0:0:0:0:
172,144,73107,2,0,L|176:192,1,45
188,276,73281,5,0,0:0:0:0:
232,264,73369,1,0,0:0:0:0:
252,224,73456,1,0,0:0:0:0:
248,180,73543,1,0,0:0:0:0:
216,148,73630,1,0,0:0:0:0:
172,144,73717,1,0,0:0:0:0:
136,172,73805,1,0,0:0:0:0:
124,216,73892,1,0,0:0:0:0:
144,256,73979,6,0,L|104:288,3,45,0|0|0|0,0:0|0:0|0:0|0:0,0:0:0:0:
64,288,74328,1,0,0:0:0:0:
32,256,74415,1,0,0:0:0:0:
20,212,74502,1,0,0:0:0:0:
28,168,74589,1,0,0:0:0:0:
56,132,74677,6,0,L|80:80,1,45
128,152,74851,2,0,L|144:204,1,45
216,144,75026,2,0,L|240:92,1,45
288,200,75200,2,0,L|304:252,1,45
344,276,75374,5,0,0:0:0:0:
384,296,75462,1,0,0:0:0:0:
428,296,75549,1,0,0:0:0:0:
468,276,75636,1,0,0:0:0:0:
488,236,75723,2,0,L|500:176,3,45,0|0|0|0,0:0|0:0|0:0|0:0,0:0:0:0:
488,148,76072,5,0,0:0:0:0:
460,112,76159,1,0,0:0:0:0:
416,96,76246,1,0,0:0:0:0:
372,108,76334,1,0,0:0:0:0:
348,148,76421,2,0,P|304:172|256:168,1,90
228,148,76682,1,0,0:0:0:0:
188,128,76770,6,0,P|140:124|92:136,1,90
64,164,77031,1,0,0:0:0:0:
48,208,77119,2,0,P|44:256|60:304,1,90
88,328,77380,1,0,0:0:0:0:
132,336,77467,1,0,0:0:0:0:
308,300,77816,5,0,0:0:0:0:
276,268,77903,1,0,0:0:0:0:
268,228,77991,1,0,0:0:0:0:
276,184,78078,2,0,P|304:124|340:308,1,585
224,292,79560,5,0,0:0:0:0:
183,272,79647,1,0,0:0:0:0:
159,235,79734,1,0,0:0:0:0:
160,190,79821,1,0,0:0:0:0:
162,146,79908,1,0,0:0:0:0:
148,103,79996,1,0,0:0:0:0:
123,66,80083,1,0,0:0:0:0:
81,54,80170,1,0,0:0:0:0:
39,69,80257,5,0,0:0:0:0:
16,107,80344,1,0,0:0:0:0:
20,151,80432,1,0,0:0:0:0:
45,188,80519,1,0,0:0:0:0:
86,205,80606,1,0,0:0:0:0:
131,205,80693,1,0,0:0:0:0:
174,193,80780,1,0,0:0:0:0:
213,172,80868,1,0,0:0:0:0:
248,143,80955,1,0,0:0:0:0:
424,328,81653,6,0,P|404:248|344:164,1,180
208,56,82351,1,0,0:0:0:0:
104,220,83049,6,0,P|183:242|286:232,1,180
447,168,83747,1,0,0:0:0:0:
356,4,84444,6,0,P|296:61|253:155,1,180
228,328,85142,6,0,P|176:296|160:264,1,90
0,296,85491,2,0,P|53:266|89:269,1,90
124,108,85839,2,0,P|122:169|102:198,1,90
108,192,86188,1,0,0:0:0:0:
108,192,86537,6,0,L|216:188,1,90
332,180,86886,1,0,0:0:0:0:
260,68,87060,1,0,0:0:0:0:
268,288,87235,2,0,L|160:292,1,90
332,180,87584,2,0,L|440:176,1,90
384,296,87932,5,0,0:0:0:0:
260,68,88107,1,0,0:0:0:0:
116,148,88281,2,0,P|110:192|119:236,1,90
384,296,88630,1,0,0:0:0:0:
384,296,88805,2,0,P|392:228|388:208,1,90
256,240,89153,1,0,0:0:0:0:
256,240,89241,1,0,0:0:0:0:
256,240,89328,6,0,L|140:240,1,90
264,116,89677,2,0,L|380:116,1,90
384,296,90026,1,0,0:0:0:0:
256,240,90200,1,0,0:0:0:0:
470,197,90374,1,0,2:0:0:0:
392,80,90549,1,0,2:0:0:0:
264,116,90723,6,0,L|144:108,1,90
256,240,91072,1,0,0:0:0:0:
392,80,91246,1,0,0:0:0:0:
470,197,91421,2,0,L|480:312,1,90
156,168,91770,2,0,L|146:53,1,90
146,56,92031,1,0,0:0:0:0:
144,32,92119,5,0,0:0:0:0:
256,240,92293,1,0,0:0:0:0:
392,80,92467,1,0,0:0:0:0:
156,168,92642,1,0,0:0:0:0:
344,200,92816,2,0,P|349:244|340:288,1,90
72,208,93165,2,0,P|66:163|75:119,1,90
256,240,93514,5,0,0:0:0:0:
156,168,93688,1,0,0:0:0:0:
392,80,93863,1,0,0:0:0:0:
410,93,93950,1,0,0:0:0:0:
425,109,94037,1,0,0:0:0:0:
438,127,94124,1,0,0:0:0:0:
448,148,94211,1,0,0:0:0:0:
454,169,94299,1,0,0:0:0:0:
456,192,94386,1,0,0:0:0:0:
256,240,94560,1,0,0:0:0:0:
288,76,94735,1,0,0:0:0:0:
274,94,94822,1,0,0:0:0:0:
258,109,94909,5,0,0:0:0:0:
240,122,94996,1,0,0:0:0:0:
219,132,95083,1,0,0:0:0:0:
198,138,95171,1,0,0:0:0:0:
175,140,95258,1,0,0:0:0:0:
152,140,95345,1,0,0:0:0:0:
132,136,95432,1,0,0:0:0:0:
112,128,95520,1,0,0:0:0:0:
92,120,95607,1,0,0:0:0:0:
172,36,95781,1,0,0:0:0:0:
344,128,95956,1,0,0:0:0:0:
339,149,96043,1,0,0:0:0:0:
331,170,96130,1,0,0:0:0:0:
320,190,96217,1,0,0:0:0:0:
306,208,96304,5,0,0:0:0:0:
290,224,96392,1,0,0:0:0:0:
272,237,96479,1,0,0:0:0:0:
253,248,96566,1,0,0:0:0:0:
232,256,96653,1,0,0:0:0:0:
210,261,96740,1,0,0:0:0:0:
187,262,96828,1,0,0:0:0:0:
165,261,96915,1,0,0:0:0:0:
143,256,97002,1,0,0:0:0:0:
122,248,97089,1,0,0:0:0:0:
102,238,97176,1,0,0:0:0:0:
84,224,97264,1,0,0:0:0:0:
68,208,97351,1,0,0:0:0:0:
56,188,97438,1,0,0:0:0:0:
52,164,97526,1,0,0:0:0:0:
176,48,97700,6,0,B|192:113|192:113|180:161,1,90
52,136,98049,1,0,0:0:0:0:
308,68,98223,2,0,L|408:92,1,90
436,184,98572,1,0,0:0:0:0:
228,132,98746,2,0,L|328:156,1,90
436,184,99095,5,0,0:0:0:0:
256,240,99270,2,0,P|250:284|259:328,2,90
436,184,99793,1,0,0:0:0:0:
228,132,99967,1,0,0:0:0:0:
208,124,100054,1,0,0:0:0:0:
188,116,100141,1,0,0:0:0:0:
348,280,100316,1,0,0:0:0:0:
368,288,100403,1,0,0:0:0:0:
388,296,100490,5,0,0:0:0:0:
256,240,100665,1,0,0:0:0:0:
144,320,100839,2,0,L|12:308,1,90
188,116,101188,2,0,L|320:128,1,90
256,240,101537,1,0,0:0:0:0:
80,200,101712,1,0,0:0:0:0:
188,116,101886,5,0,0:0:0:0:
144,320,102060,2,0,P|111:350|71:370,1,90
80,200,102409,1,0,0:0:0:0:
256,240,102584,2,0,L|376:256,1,90
368,256,102845,1,0,0:0:0:0:
392,259,102932,1,0,0:0:0:0:
512,192,103106,1,0,0:0:0:0:
512,320,103281,5,0,0:0:0:0:
384,172,103456,1,0,0:0:0:0:
324,340,103630,2,0,L|234:328,1,90
368,256,103979,1,0,0:0:0:0:
256,100,104153,1,0,0:0:0:0:
236,111,104240,1,0,0:0:0:0:
215,120,104327,1,0,0:0:0:0:
194,126,104414,1,0,0:0:0:0:
171,128,104501,1,0,0:0:0:0:
149,127,104589,1,0,0:0:0:0:
127,122,104677,5,0,0:0:0:0:
106,114,104763,1,0,0:0:0:0:
87,103,104850,1,0,0:0:0:0:
82,89,104937,1,0,0:0:0:0:
98,73,105025,1,0,0:0:0:0:
114,57,105112,1,0,0:0:0:0:
130,41,105199,1,0,0:0:0:0:
151,40,105286,1,0,0:0:0:0:
174,40,105373,1,0,0:0:0:0:
196,40,105461,1,0,0:0:0:0:
219,40,105548,1,0,0:0:0:0:
240,40,105636,1,0,0:0:0:0:
264,40,105723,2,0,L|312:72,1,45
448,96,105898,2,0,L|400:64,1,45
344,152,106072,6,0,L|309:198,1,45
283,324,106247,2,0,L|317:277,1,45
212,208,106421,2,0,L|257:242,1,45
416,272,106595,2,0,L|370:237,1,45
212,208,106770,2,0,L|168:245,1,45
44,281,106945,2,0,L|87:243,1,45
166,344,107119,2,0,L|127:300,1,45
88,145,107293,2,0,L|126:188,1,45
212,208,107467,5,0,0:0:0:0:
172,64,107642,1,0,0:0:0:0:
280,144,107816,2,0,P|356:156|440:132,1,135
432,140,108165,1,0,0:0:0:0:
336,56,108339,1,0,0:0:0:0:
340,248,108514,2,0,P|344:272|339:301,2,45,0|0|0,0:0|0:0|0:0,0:0:0:0:
332,208,108776,1,0,0:0:0:0:
280,200,108863,6,0,L|216:200,1,53.9999983520508,8|0,0:0|0:0,0:0:0:0:
104,200,109037,1,0,0:0:0:0:
104,200,109124,2,0,P|128:140|200:68,1,161.999995056153
300,24,109473,1,0,0:0:0:0:
300,24,109560,6,0,P|312:80|296:132,1,107.999996704102,8|0,0:0|0:0,0:0:0:0:
244,152,109822,1,0,0:0:0:0:
252,96,109909,2,0,P|312:80|360:88,1,107.999996704102,0|0,0:0|0:0,0:0:0:0:
372,140,110171,1,0,0:0:0:0:
376,196,110258,6,0,L|368:308,1,107.999996704102,8|0,0:0|0:0,0:0:0:0:
368,303,110520,1,0,0:0:0:0:
256,332,110607,2,0,L|184:248,1,107.999996704102,0|0,0:0|0:0,0:0:0:0:
101,143,110956,6,0,L|150:171,1,53.9999983520508,8|0,0:0|0:0,3:0:0:0:
156,52,111130,2,0,L|189:97,1,53.9999983520508,0|0,0:0|0:0,3:0:0:0:
279,18,111305,2,0,L|273:72,1,53.9999983520508,8|0,0:0|0:0,3:0:0:0:
372,70,111479,2,0,L|345:117,1,53.9999983520508,0|0,0:0|0:0,3:0:0:0:
256,192,111653,5,8,0:0:0:0:
392,328,111828,2,0,P|379:276|363:256,1,53.9999983520508
256,192,112002,1,0,0:0:0:0:
168,363,112177,2,0,P|214:335|228:314,1,53.9999983520508
256,192,112351,5,8,0:0:0:0:
66,161,112526,2,0,P|106:196|131:203,1,53.9999983520508
256,192,112700,1,0,0:0:0:0:
225,2,112874,2,0,P|205:51|206:76,1,53.9999983520508
256,192,113048,5,8,0:0:0:0:
427,104,113223,2,0,P|374:100|350:109,1,53.9999983520508
256,192,113398,2,0,P|308:232|360:244,1,107.999996704102,0|0,0:0|0:0,0:0:0:0:
436,200,113746,6,0,L|376:168,1,53.9999983520508,8|0,0:0|0:0,0:0:0:0:
256,192,113921,2,0,L|304:216,1,53.9999983520508,0|0,0:0|0:0,0:0:0:0:
312,84,114095,2,0,L|252:52,1,53.9999983520508,8|0,0:0|0:0,0:0:0:0:
132,76,114270,2,0,L|180:100,1,53.9999983520508,0|0,0:0|0:0,0:0:0:0:
72,160,114444,5,8,0:0:0:0:
256,192,114619,2,0,P|192:192|180:188,1,53.9999983520508
72,160,114793,1,0,0:0:0:0:
256,192,114967,2,0,P|236:252|228:263,1,53.9999983520508
168,357,115141,5,8,0:0:0:0:
256,192,115316,2,0,P|307:229|315:239,1,53.9999983520508
386,326,115490,1,0,0:0:0:0:
256,192,115665,2,0,P|307:154|319:150,1,53.9999983520508
423,109,115839,5,8,0:0:0:0:
256,192,116014,2,0,P|236:131|236:118,1,53.9999983520508
229,7,116188,2,0,P|276:40|300:84,1,107.999996704102,0|0,0:0|0:0,0:0:0:0:
312,228,116537,6,0,P|288:244|264:252,1,53.9999983520508,8|0,0:0|0:0,0:0:0:0:
140,200,116712,2,0,P|124:176|116:152,1,53.9999983520508,0|0,0:0|0:0,3:0:0:0:
180,32,116886,2,0,P|204:16|228:8,1,53.9999983520508,8|0,0:0|0:0,0:0:0:0:
352,64,117061,2,0,P|368:88|376:112,1,53.9999983520508,0|0,0:0|0:0,3:0:0:0:
312,228,117235,6,0,P|364:240|416:228,2,107.999996704102,8|0|8,0:0|0:0|0:0,0:0:0:0:
208,172,117758,2,0,B|152:132|136:164|136:164|92:184|92:184|52:180|60:248,1,215.999993408203,0|0,0:0|0:0,0:0:0:0:
116,324,118281,1,8,0:0:0:0:
208,172,118456,1,0,0:0:0:0:
300,320,118630,1,0,0:0:0:0:
316,188,118805,1,0,0:0:0:0:
212,376,118979,1,8,0:0:0:0:
100,192,119153,1,0,0:0:0:0:
300,320,119328,6,0,L|356:320,1,53.9999983520508,8|0,0:0|0:0,0:0:0:0:
480,220,119502,6,0,L|424:220,1,53.9999983520508
300,344,119677,6,0,L|352:363,1,53.9999983520508,8|0,0:0|0:0,0:0:0:0:
480,196,119851,2,0,L|427:176,1,53.9999983520508
376,160,120026,6,0,P|320:152|272:168,1,107.999996704102
192,232,120287,1,0,0:0:0:0:
244,364,120374,2,0,P|278:319|289:269,1,107.999996704102
272,168,120636,1,0,0:0:0:0:
192,232,120723,6,0,P|140:248|88:239,1,107.999996704102
8,176,120985,1,0,0:0:0:0:
52,84,121072,2,0,P|89:45|140:28,1,107.999996704102
244,36,121334,1,0,0:0:0:0:
300,120,121421,6,0,P|340:155|392:168,1,107.999996704102
492,152,121682,1,0,0:0:0:0:
456,248,121770,2,0,P|418:285|367:303,1,107.999996704102
192,268,122119,6,0,P|154:306|103:323,1,107.999996704102
300,120,122467,2,0,P|337:81|388:64,1,107.999996704102
392,172,122816,6,0,L|396:248,1,53.9999983520508
400,280,122991,1,0,0:0:0:0:
192,268,123165,2,0,P|139:257|94:227,1,107.999996704102
300,120,123514,6,0,L|363:78,1,53.9999983520508
389,59,123689,1,0,0:0:0:0:
400,280,123863,2,0,P|340:264|292:232,1,107.999996704102
136,120,124212,6,0,L|104:164,1,53.9999983520508,0|0,0:0|0:0,0:0:0:0:
76,208,124386,1,0,0:0:0:0:
301,318,124560,2,0,P|353:307|400:280,1,107.999996704102
304,120,124909,6,0,L|324:176,1,53.9999983520508
192,236,125084,2,0,L|242:217,1,53.9999983520508
300,320,125258,2,0,L|280:264,1,53.9999983520508
412,204,125433,2,0,L|361:222,1,53.9999983520508
304,120,125607,6,0,P|248:140|208:172,1,107.999996704102
460,344,125956,2,0,P|444:276|412:244,1,107.999996704102
152,60,126305,6,0,P|208:48|256:72,1,107.999996704102
52,348,126653,2,0,P|31:299|43:247,1,107.999996704102
440,168,127002,6,0,P|452:128|440:60,1,107.999996704102
4,288,127351,2,0,P|64:312|120:312,1,107.999996704102
448,40,127700,6,0,P|388:64|352:100,1,107.999996704102
256,192,127962,1,0,0:0:0:0:
156,288,128049,2,0,P|108:316|56:324,1,107.999996704102
64,192,128398,5,0,0:0:0:0:
256,192,128572,1,0,0:0:0:0:
376,40,128746,1,0,0:0:0:0:
180,36,128921,2,0,P|184:104|204:136,1,107.999996704102
376,40,129270,5,0,0:0:0:0:
500,192,129444,1,0,0:0:0:0:
376,344,129619,1,0,0:0:0:0:
256,192,129793,1,0,0:0:0:0:
256,192,129967,12,0,130839,0:0:0:0:
80,88,131188,6,0,L|204:96,1,90
428,176,131537,2,0,L|338:181,1,90,0|0,0:0|0:0,0:0:0:0:
204,324,131886,1,0,0:0:0:0:
340,304,132060,1,0,0:0:0:0:
204,196,132235,1,0,0:0:0:0:
280,364,132409,1,0,0:0:0:0:
338,182,132584,2,0,L|344:76,1,90
116,224,132932,2,0,L|110:330,1,90
244,112,133281,1,0,0:0:0:0:
116,224,133456,1,0,0:0:0:0:
264,248,133630,1,0,0:0:0:0:
116,112,133805,1,0,0:0:0:0:
32,256,133979,5,0,0:0:0:0:
43,275,134066,1,0,0:0:0:0:
59,291,134153,1,0,0:0:0:0:
78,303,134240,1,0,0:0:0:0:
99,310,134327,1,0,0:0:0:0:
264,248,134502,1,0,0:0:0:0:
116,112,134677,2,0,P|110:68|119:24,1,90,0|0,0:0|0:0,0:0:0:0:
352,204,135026,2,0,P|358:248|349:292,1,90,0|0,0:0|0:0,0:0:0:0:
264,368,135374,5,0,0:0:0:0:
168,236,135549,1,0,0:0:0:0:
264,120,135723,2,0,L|396:112,1,90
168,236,136072,1,0,0:0:0:0:
168,236,136159,1,0,0:0:0:0:
168,236,136246,2,0,L|36:244,1,90
116,44,136595,1,0,0:0:0:0:
264,120,136770,6,0,P|307:129|352:123,1,90,0|0,0:0|0:0,0:0:0:0:
408,52,137119,1,0,0:0:0:0:
304,216,137293,1,0,0:0:0:0:
212,40,137467,1,0,0:0:0:0:
412,208,137642,1,0,0:0:0:0:
308,44,137816,1,0,0:0:0:0:
216,220,137990,1,0,0:0:0:0:
108,136,138165,6,0,L|-20:132,1,90
168,308,138514,1,0,0:0:0:0:
168,308,138688,2,0,L|296:312,1,90
304,184,139037,1,0,0:0:0:0:
216,220,139212,1,0,0:0:0:0:
404,316,139386,1,0,0:0:0:0:
412,208,139560,5,0,0:0:0:0:
413,185,139647,1,0,0:0:0:0:
414,163,139734,1,0,0:0:0:0:
416,140,139821,1,0,0:0:0:0:
417,118,139908,1,0,0:0:0:0:
424,16,140084,1,0,0:0:0:0:
512,156,140258,1,0,0:0:0:0:
320,140,140432,1,0,0:0:0:0:
240,56,140607,1,0,0:0:0:0:
152,112,140781,1,0,0:0:0:0:
224,196,140956,6,0,P|230:240|221:284,1,90,0|0,0:0|0:0,0:0:0:0:
112,332,141305,1,0,0:0:0:0:
152,112,141479,2,0,B|248:120|248:120|296:112|320:80,1,180
332,64,141915,1,0,0:0:0:0:
340,44,142002,1,0,0:0:0:0:
248,28,142177,1,0,0:0:0:0:
428,108,142351,6,0,L|424:212,1,90
340,184,142700,2,0,L|344:288,1,90
256,112,143049,2,0,L|252:201,1,90
168,188,143398,2,0,L|171:277,1,90
288,304,143746,5,0,0:0:0:0:
168,188,143921,1,0,0:0:0:0:
136,356,144095,1,0,0:0:0:0:
264,212,144270,1,0,0:0:0:0:
120,72,144445,1,0,0:0:0:0:
81,274,144619,1,0,0:0:0:0:
236,120,144793,2,0,P|280:119|322:133,1,90,0|0,0:0|0:0,0:0:0:0:
480,316,145142,2,0,P|435:316|393:302,1,90,0|0,0:0|0:0,0:0:0:0:
264,212,145491,1,0,0:0:0:0:
436,136,145665,2,0,P|450:178|449:223,1,90,0|0,0:0|0:0,0:0:0:0:
260,312,146014,1,0,0:0:0:0:
260,312,146188,6,0,L|140:304,1,90
60,196,146537,1,0,0:0:0:0:
59,173,146624,1,0,0:0:0:0:
63,151,146711,1,0,0:0:0:0:
71,130,146798,1,0,0:0:0:0:
81,110,146885,1,0,0:0:0:0:
95,92,146973,1,0,0:0:0:0:
112,78,147060,1,0,0:0:0:0:
131,66,147147,1,0,0:0:0:0:
152,57,147234,1,0,0:0:0:0:
174,53,147321,1,0,0:0:0:0:
197,51,147409,6,0,L|208:120,1,45
300,192,147584,2,0,L|289:123,1,45
368,40,147758,2,0,L|378:108,1,45
460,184,147932,6,0,L|480:296,1,90
368,40,148281,1,0,0:0:0:0:
300,192,148456,2,0,P|256:198|212:189,1,90,0|0,0:0|0:0,0:0:0:0:
256,84,148805,1,0,0:0:0:0:
388,232,148979,2,0,L|376:352,1,90
124,196,149328,1,0,0:0:0:0:
124,196,149502,2,0,L|136:76,2,90,0|0|0,0:0|0:0|0:0,0:0:0:0:
256,324,150026,1,0,0:0:0:0:
388,232,150200,1,0,0:0:0:0:
256,84,150374,1,0,0:0:0:0:
360,332,150549,1,0,0:0:0:0:
472,160,150723,6,0,L|460:60,2,90,0|0|0,0:0|0:0|0:0,0:0:0:0:
388,232,151246,2,0,P|344:238|300:229,1,90,0|0,0:0|0:0,0:0:0:0:
168,152,151595,2,0,P|124:142|79:148,1,90,0|0,0:0|0:0,0:0:0:0:
128,320,151944,2,0,P|171:329|216:323,1,90,0|0,0:0|0:0,0:0:0:0:
312,139,152293,1,0,0:0:0:0:
316,118,152380,1,0,0:0:0:0:
319,97,152467,1,0,0:0:0:0:
168,152,152642,1,0,0:0:0:0:
456,92,152816,1,0,0:0:0:0:
240,16,152991,1,0,0:0:0:0:
388,232,153165,1,0,0:0:0:0:
224,252,153339,1,0,0:0:0:0:
68,188,153514,6,0,P|100:160|152:160,1,90,2|0,0:0|0:0,0:0:0:0:
136,248,153863,2,0,L|176:328,1,90,2|2,0:0|0:0,0:0:0:0:
224,252,154212,1,0,0:0:0:0:
272,328,154386,2,0,L|312:248,1,90,2|2,0:0|0:0,0:0:0:0:
348,164,154735,1,0,0:0:0:0:
292,96,154909,2,0,P|240:108|204:88,1,90,0|2,0:0|0:0,0:0:0:0:
140,32,155258,1,2,0:0:0:0:
88,104,155432,1,0,0:0:0:0:
88,104,155520,1,0,0:0:0:0:
88,104,155607,2,0,L|40:180,1,90,2|0,0:0|0:0,0:0:0:0:
132,184,155956,2,0,P|124:228|152:272,1,90,2|0,0:0|0:0,0:0:0:0:
316,324,156305,5,2,0:0:0:0:
404,332,156479,2,0,P|448:320|480:280,1,90
404,248,156828,1,2,0:0:0:0:
316,240,157002,2,0,P|272:232|240:196,1,90,0|2,0:0|0:0,0:0:0:0:
320,152,157351,1,0,0:0:0:0:
236,116,157526,1,2,0:0:0:0:
164,168,157700,1,0,0:0:0:0:
116,340,157874,5,0,0:0:0:0:
240,208,158049,1,2,0:0:0:0:
72,268,158223,1,0,0:0:0:0:
252,296,158398,1,2,0:0:0:0:
108,192,158572,1,0,0:0:0:0:
108,192,158746,2,0,P|152:176|172:140,1,90,2|0,0:0|0:0,0:0:0:0:
208,56,159095,5,2,0:0:0:0:
256,132,159270,2,0,L|312:208,1,90,0|2,0:0|0:0,0:0:0:0:
360,280,159619,1,2,0:0:0:0:
272,284,159793,2,0,P|232:308|184:296,1,90,0|2,0:0|0:0,0:0:0:0:
112,256,160142,1,2,0:0:0:0:
64,180,160316,1,2,0:0:0:0:
60,88,160491,2,0,P|76:48|120:24,1,90,0|2,0:0|0:0,0:0:0:0:
144,112,160839,1,2,0:0:0:0:
212,56,161014,1,0,0:0:0:0:
212,56,161101,1,0,0:0:0:0:
212,56,161188,2,0,P|232:96|224:144,1,90,2|0,0:0|0:0,0:0:0:0:
184,220,161537,2,0,P|228:232|272:216,1,90,2|0,0:0|0:0,0:0:0:0:
392,88,161886,5,2,0:0:0:0:
344,164,162060,2,0,P|384:168|424:200,1,90,2|0,0:0|0:0,0:0:0:0:
416,288,162409,2,0,P|328:288|272:212,1,180,2|2,0:0|0:0,0:0:0:0:
264,132,162932,1,0,0:0:0:0:
200,196,163107,1,2,0:0:0:0:
152,120,163281,1,2,0:0:0:0:
220,288,163456,5,0,0:0:0:0:
132,264,163630,1,2,0:0:0:0:
124,352,163805,1,0,0:0:0:0:
52,296,163979,2,0,P|48:248|68:208,1,90,2|0,0:0|0:0,0:0:0:0:
148,176,164328,2,0,P|192:200|236:188,1,90,2|2,0:0|0:0,0:0:0:0:
368,76,164677,5,2,0:0:0:0:
440,128,164851,2,0,P|408:160|364:164,1,90,0|2,0:0|0:0,0:0:0:0:
280,140,165200,1,2,0:0:0:0:
300,228,165374,2,0,L|268:316,1,90,0|2,0:0|0:0,0:0:0:0:
208,244,165723,1,0,0:0:0:0:
184,156,165898,1,2,0:0:0:0:
156,72,166072,2,0,P|116:92|96:132,1,90,0|2,0:0|0:0,0:0:0:0:
112,220,166421,1,2,0:0:0:0:
128,308,166595,1,0,0:0:0:0:
368,180,166770,5,2,0:0:0:0:
96,296,166944,1,0,0:0:0:0:
400,200,167119,1,2,0:0:0:0:
68,264,167293,1,0,0:0:0:0:
428,224,167467,5,2,0:0:0:0:
348,264,167642,2,0,P|308:244|260:256,1,90,2|2,0:0|0:0,0:0:0:0:
200,312,167991,1,2,0:0:0:0:
144,244,168165,2,0,L|88:168,1,90
180,160,168514,1,2,0:0:0:0:
268,144,168688,1,2,0:0:0:0:
236,228,168863,1,2,0:0:0:0:
284,304,169037,6,0,P|316:272|324:228,1,90,0|0,0:0|0:0,0:0:0:0:
284,148,169386,1,0,0:0:0:0:
204,104,169560,2,0,P|136:80|92:96,1,90
88,92,169822,1,0,0:0:0:0:
60,104,169909,1,0,0:0:0:0:
40,128,169996,1,0,0:0:0:0:
28,156,170084,1,0,0:0:0:0:
24,188,170171,1,0,0:0:0:0:
24,220,170258,6,0,P|36:264|72:292,1,90,2|0,0:0|0:0,0:0:0:0:
116,212,170607,1,2,0:0:0:0:
160,292,170781,1,0,0:0:0:0:
212,216,170956,2,2,P|272:276|360:248,1,180
408,180,171479,1,0,0:0:0:0:
412,92,171653,2,0,P|400:48|364:20,1,90,2|0,0:0|0:0,0:0:0:0:
324,100,172002,2,0,P|284:116|232:92,1,90,2|2,0:0|0:0,0:0:0:0:
216,80,172264,1,0,0:0:0:0:
200,56,172351,1,0,0:0:0:0:
312,196,172526,5,0,0:0:0:0:
224,176,172700,2,0,P|176:176|140:204,1,90,2|0,0:0|0:0,0:0:0:0:
104,280,173049,1,2,0:0:0:0:
48,212,173223,1,0,0:0:0:0:
96,136,173398,2,0,P|132:104|176:96,1,90,2|0,0:0|0:0,0:0:0:0:
260,100,173746,1,0,0:0:0:0:
332,156,173921,2,0,L|408:208,1,90,2|2,0:0|0:0,0:0:0:0:
328,248,174270,1,0,0:0:0:0:
404,300,174444,1,2,0:0:0:0:
256,200,174619,5,0,0:0:0:0:
244,288,174793,2,0,P|200:304|152:292,1,90,2|0,0:0|0:0,0:0:0:0:
80,252,175142,1,2,0:0:0:0:
108,168,175316,1,0,0:0:0:0:
108,168,175403,1,0,0:0:0:0:
108,168,175491,1,2,0:0:0:0:
40,108,175665,1,0,0:0:0:0:
180,80,175839,6,0,L|300:76,1,90
356,184,176188,1,0,0:0:0:0:
436,20,176363,1,0,0:0:0:0:
456,196,176537,1,0,0:0:0:0:
344,76,176712,1,0,0:0:0:0:
344,76,176799,1,0,0:0:0:0:
344,76,176886,1,0,0:0:0:0:
508,92,177060,1,0,0:0:0:0:
356,184,177235,6,0,L|252:180,1,90
132,172,177584,1,0,0:0:0:0:
192,352,177758,2,0,P|278:371|358:334,1,180
436,212,178281,1,0,0:0:0:0:
468,372,178456,1,0,0:0:0:0:
348,272,178630,5,0,0:0:0:0:
428,128,178805,1,0,0:0:0:0:
452,292,178979,1,0,0:0:0:0:
316,360,179153,1,0,0:0:0:0:
284,184,179328,1,0,0:0:0:0:
436,212,179502,1,0,0:0:0:0:
348,272,179677,1,0,0:0:0:0:
212,264,179851,6,0,L|122:264,1,90
48,344,180200,1,0,0:0:0:0:
120,172,180374,1,0,0:0:0:0:
160,352,180549,1,0,0:0:0:0:
24,228,180723,2,0,P|12:188|16:139,1,90
16,140,180985,1,0,0:0:0:0:
16,140,181072,1,0,0:0:0:0:
244,44,181246,1,0,0:0:0:0:
244,44,181334,1,0,0:0:0:0:
244,44,181421,6,0,L|240:133,1,90
235,232,181682,1,0,0:0:0:0:
236,232,181770,2,0,P|280:225|324:233,1,90
432,288,182031,1,0,0:0:0:0:
432,288,182119,2,0,P|412:248|411:203,1,90
473,96,182380,5,0,0:0:0:0:
472,96,182467,2,0,L|353:96,1,116.999994644165
84,80,182816,5,0,0:0:0:0:
88,100,182903,1,0,0:0:0:0:
92,124,182991,1,0,0:0:0:0:
96,148,183078,1,0,0:0:0:0:
100,172,183165,2,0,L|108:224,1,45
124,300,183339,1,0,0:0:0:0:
0,276,183514,5,0,0:0:0:0:
260,108,183688,1,0,0:0:0:0:
60,368,183863,5,0,0:0:0:0:
312,196,184037,1,0,0:0:0:0:
472,376,184212,6,0,L|483:286,1,90
388,288,184473,1,0,0:0:0:0:
388,288,184560,2,0,L|404:188,1,90
312,196,184822,1,0,0:0:0:0:
312,196,184909,2,0,L|328:108,1,90
276,36,185171,2,0,P|232:44|186:36,1,90
187,36,185432,1,0,0:0:0:0:
188,256,185607,6,0,P|144:248|98:255,1,90
24,168,185869,2,0,P|64:176|132:160,1,90
112,168,186130,1,0,0:0:0:0:
332,324,186305,2,0,L|242:327,1,90
242,327,186566,1,0,0:0:0:0:
242,327,186653,1,0,0:0:0:0:
416,160,186828,1,0,0:0:0:0:
416,160,186915,1,0,0:0:0:0:
416,160,187002,6,0,L|408:268,1,90
420,360,187351,1,0,0:0:0:0:
324,236,187526,1,0,0:0:0:0:
504,176,187700,2,0,L|510:79,1,90
404,24,188049,1,0,0:0:0:0:
320,144,188223,1,0,0:0:0:0:
248,16,188398,5,0,0:0:0:0:
248,216,188572,1,0,0:0:0:0:
320,60,188746,1,0,0:0:0:0:
152,156,188921,2,0,P|105:161|60:156,1,90
244,104,189270,1,0,0:0:0:0:
296,284,189444,1,0,0:0:0:0:
152,156,189619,1,0,0:0:0:0:
344,192,189793,5,0,0:0:0:0:
184,292,189967,1,0,0:0:0:0:
408,280,190142,1,0,0:0:0:0:
236,192,190316,1,0,0:0:0:0:
352,372,190491,1,0,0:0:0:0:
344,192,190665,1,0,0:0:0:0:
248,376,190839,1,0,0:0:0:0:
408,280,191014,1,0,0:0:0:0:
184,292,191188,5,0,0:0:0:0:
68,72,191363,1,0,0:0:0:0:
60,288,191537,1,0,0:0:0:0:
196,72,191712,1,0,0:0:0:0:
296,288,191886,2,0,P|340:293|383:281,1,90
480,356,192235,1,0,0:0:0:0:
328,204,192409,6,0,L|324:108,1,90
196,72,192758,1,0,0:0:0:0:
188,200,192932,2,0,L|184:289,1,90
296,288,193281,1,0,0:0:0:0:
96,352,193456,1,0,0:0:0:0:
100,224,193630,1,0,0:0:0:0:
188,292,193805,1,0,0:0:0:0:
8,268,193979,6,0,P|0:224|8:178,1,90
128,84,194328,1,0,0:0:0:0:
267,218,194502,2,0,B|236:240|236:240|192:224|192:224|144:244|100:224,1,180
204,136,195026,1,0,0:0:0:0:
328,292,195200,1,0,0:0:0:0:
392,176,195374,6,0,L|488:176,1,90
500,268,195723,1,0,0:0:0:0:
440,80,195898,1,0,0:0:0:0:
392,268,196072,1,0,0:0:0:0:
324,84,196246,1,0,0:0:0:0:
324,84,196334,1,0,0:0:0:0:
324,84,196421,1,0,0:0:0:0:
176,232,196595,6,0,L|84:227,1,90
140,92,196944,1,0,0:0:0:0:
240,136,197119,1,0,0:0:0:0:
176,232,197293,1,0,0:0:0:0:
280,236,197467,2,0,L|296:340,1,90
293,324,197729,1,0,0:0:0:0:
293,324,197816,1,0,0:0:0:0:
464,260,197991,2,0,L|467:203,1,45
468,172,198165,5,2,0:0:0:0:
472,128,198252,1,0,0:0:0:0:
476,84,198339,2,0,L|480:32,1,45
392,80,198514,1,2,0:0:0:0:
356,108,198601,1,0,0:0:0:0:
324,140,198688,2,0,L|280:176,1,45
196,144,198863,5,2,0:0:0:0:
208,188,198950,1,0,0:0:0:0:
224,232,199037,2,0,L|240:284,1,45
180,352,199212,1,2,0:0:0:0:
144,324,199299,1,0,0:0:0:0:
112,292,199386,2,0,L|68:252,1,45
63,166,199560,5,2,0:0:0:0:
107,158,199648,1,0,0:0:0:0:
151,150,199735,2,0,L|196:144,1,45
224,232,199909,1,2,0:0:0:0:
268,224,199997,1,0,0:0:0:0:
312,216,200084,2,0,L|356:209,1,45
444,168,200258,6,0,L|408:140,1,45,2|0,0:0|0:0,0:0:0:0:
316,140,200432,2,0,L|272:140,1,45,2|0,0:0|0:0,0:0:0:0:
200,80,200607,2,0,L|164:52,1,45,2|0,0:0|0:0,0:0:0:0:
72,52,200781,2,0,L|28:52,1,45,2|0,0:0|0:0,0:0:0:0:
20,144,200956,5,2,0:0:0:0:
63,166,201043,1,0,0:0:0:0:
108,176,201130,1,0,0:0:0:0:
152,172,201217,1,0,0:0:0:0:
242,71,201305,1,2,0:0:0:0:
201,97,201392,1,0,0:0:0:0:
170,131,201479,1,0,0:0:0:0:
152,172,201566,1,0,0:0:0:0:
180,208,201653,6,0,P|216:244|260:264,1,90,2|0,0:0|0:0,0:0:0:0:
292,276,201915,1,0,0:0:0:0:
336,276,202002,2,0,P|360:276|396:260,1,45,2|0,0:0|0:0,0:0:0:0:
420,248,202177,2,0,P|432:200|408:112,1,135,2|0,0:0|0:0,0:0:0:0:
376,92,202526,5,2,0:0:0:0:
328,96,202613,1,0,0:0:0:0:
296,128,202700,2,0,P|312:172|356:208,1,90,2|0,0:0|0:0,0:0:0:0:
380,228,202962,1,0,0:0:0:0:
420,248,203049,1,2,0:0:0:0:
256,324,203398,5,2,0:0:0:0:
256,280,203485,1,0,0:0:0:0:
256,236,203572,1,0,0:0:0:0:
256,192,203659,12,0,204793,0:0:0:0:
256,192,205142,5,0,0:0:0:0:
256,192,206537,5,0,0:0:0:0:
256,192,207235,1,0,0:0:0:0:
256,192,207932,5,0,0:0:0:0:
256,192,208281,1,0,0:0:0:0:
256,192,208630,1,0,0:0:0:0:
256,192,208979,1,0,0:0:0:0:
326,96,209328,6,0,L|249:143,1,90
361,263,209677,2,0,L|305:183,1,90
186,292,210026,2,0,L|262:244,1,90
150,124,210375,2,0,L|206:204,1,90
256,192,210723,2,0,B|280:224|336:224|336:224|416:268|492:208|504:88|452:40|412:-12|268:20|228:124|296:192|296:192|304:248|332:268,1,720,0|2,0:0|0:0,0:0:0:0:
192,296,212293,5,0,0:0:0:0:
88,196,212467,2,0,L|128:92,1,90,2|0,0:0|0:0,0:0:0:0:
256,64,212816,1,2,0:0:0:0:
332,268,212991,1,0,0:0:0:0:
364,172,213165,1,2,0:0:0:0:
192,296,213339,1,0,0:0:0:0:
332,268,213514,6,0,L|428:244,1,90,2|0,0:0|0:0,0:0:0:0:
175,174,213863,2,0,L|88:196,1,90,2|0,0:0|0:0,0:0:0:0:
80,240,214124,1,0,0:0:0:0:
104,280,214212,2,0,L|192:296,1,90,2|0,0:0|0:0,0:0:0:0:
452,188,214560,2,0,L|364:172,1,90,2|0,0:0|0:0,0:0:0:0:
156,64,214909,6,0,L|186:148,1,90,2|0,0:0|0:0,0:0:0:0:
200,376,215258,2,0,L|257:307,1,90,2|0,0:0|0:0,0:0:0:0:
364,172,215607,1,2,0:0:0:0:
186,148,215781,1,0,0:0:0:0:
32,244,215956,1,2,0:0:0:0:
186,148,216130,1,0,0:0:0:0:
280,196,216305,6,0,P|344:184|372:168,1,90,2|0,0:0|0:0,0:0:0:0:
116,220,216653,2,0,P|52:231|24:247,1,90,2|0,0:0|0:0,0:0:0:0:
0,280,216915,1,0,0:0:0:0:
44,292,217002,2,0,L|136:316,1,90,2|0,0:0|0:0,0:0:0:0:
280,197,217351,2,0,L|368:220,1,90,2|0,0:0|0:0,0:0:0:0:
240,88,217700,6,0,P|230:44|236:0,1,90,2|0,0:0|0:0,0:0:0:0:
340,197,218049,2,0,P|349:240|343:285,1,90,2|0,0:0|0:0,0:0:0:0:
116,220,218398,1,2,0:0:0:0:
340,68,218572,2,0,L|444:68,1,90,0|2,0:0|0:0,0:0:0:0:
384,224,218921,1,0,0:0:0:0:
268,114,219095,1,2,0:0:0:0:
204,264,219270,1,0,0:0:0:0:
188,174,219444,1,2,0:0:0:0:
292,300,219619,2,0,P|228:348|132:320,1,180
4,216,220142,2,0,P|48:221|92:212,1,90,2|0,0:0|0:0,0:0:0:0:
268,112,220491,6,0,P|223:106|179:115,1,90,2|0,0:0|0:0,0:0:0:0:
340,264,220839,1,2,0:0:0:0:
412,112,221014,1,0,0:0:0:0:
412,112,221188,2,0,L|420:8,1,90,2|0,0:0|0:0,0:0:0:0:
200,252,221537,2,0,L|192:356,1,90,2|0,0:0|0:0,0:0:0:0:
340,264,221886,1,2,0:0:0:0:
268,112,222060,1,0,0:0:0:0:
200,252,222235,2,0,L|76:248,1,90,2|0,0:0|0:0,0:0:0:0:
32,120,222584,2,0,L|156:116,1,90,2|0,0:0|0:0,0:0:0:0:
268,112,222932,1,2,0:0:0:0:
188,0,223107,1,0,0:0:0:0:
200,252,223281,6,0,L|316:248,1,90,2|0,0:0|0:0,0:0:0:0:
357,115,223630,2,0,L|268:112,1,90
376,292,223979,2,0,P|382:247|373:203,1,90,2|0,0:0|0:0,0:0:0:0:
176,152,224328,6,0,P|166:108|172:64,1,90
188,48,224589,1,0,0:0:0:0:
208,40,224677,1,2,0:0:0:0:
358,115,224851,1,0,0:0:0:0:
196,320,225026,1,0,0:0:0:0:
376,292,225200,1,0,0:0:0:0:
264,164,225374,2,0,L|152:172,1,90,2|0,0:0|0:0,0:0:0:0:
52,180,225723,1,0,0:0:0:0:
52,180,225898,1,0,0:0:0:0:
264,164,226072,6,0,P|270:119|261:75,1,90,2|0,0:0|0:0,0:0:0:0:
172,228,226421,2,0,P|207:255|249:269,1,90
180,44,226770,2,0,P|138:60|105:90,1,90,2|0,0:0|0:0,0:0:0:0:
172,228,227119,1,0,0:0:0:0:
52,180,227293,1,0,0:0:0:0:
264,164,227467,6,0,L|360:168,1,90,2|0,0:0|0:0,0:0:0:0:
180,44,227816,2,0,L|84:48,1,90
272,272,228165,2,0,L|368:268,1,90,2|0,0:0|0:0,0:0:0:0:
384,267,228427,1,0,0:0:0:0:
408,266,228514,1,0,0:0:0:0:
336,372,228688,1,0,0:0:0:0:
184,312,228863,6,0,P|178:267|187:223,1,90,2|0,0:0|0:0,0:0:0:0:
272,4,229212,2,0,P|278:48|269:92,1,90,2|0,0:0|0:0,0:0:0:0:
348,180,229560,2,0,L|476:176,1,90,2|0,0:0|0:0,0:0:0:0:
396,288,229909,1,2,0:0:0:0:
268,92,230084,1,0,0:0:0:0:
144,188,230258,5,2,0:0:0:0:
60,60,230432,1,0,0:0:0:0:
192,56,230607,1,2,0:0:0:0:
12,188,230781,1,0,0:0:0:0:
192,328,230956,2,0,L|280:314,1,90,2|0,0:0|0:0,0:0:0:0:
304,310,231217,1,0,0:0:0:0:
326,306,231304,1,2,0:0:0:0:
268,128,231479,1,0,0:0:0:0:
144,188,231653,5,2,0:0:0:0:
123,196,231740,1,0,0:0:0:0:
104,208,231827,1,0,0:0:0:0:
87,223,231914,1,0,0:0:0:0:
72,240,232001,1,2,0:0:0:0:
192,328,232177,1,0,0:0:0:0:
268,128,232351,1,2,0:0:0:0:
300,312,232526,1,0,0:0:0:0:
160,112,232700,1,2,0:0:0:0:
268,16,232874,1,0,0:0:0:0:
384,112,233049,6,0,P|392:155|386:200,1,90,2|0,0:0|0:0,0:0:0:0:
268,128,233398,1,0,0:0:0:0:
452,60,233572,2,0,P|472:136|456:252,1,180,2|0,0:0|0:0,0:0:0:0:
456,256,234008,1,0,0:0:0:0:
444,276,234095,1,2,0:0:0:0:
268,128,234270,1,0,0:0:0:0:
80,256,234444,5,2,0:0:0:0:
81,279,234531,1,0,0:0:0:0:
82,301,234618,1,0,0:0:0:0:
84,324,234705,1,0,0:0:0:0:
85,346,234792,1,2,0:0:0:0:
244,256,234967,1,0,0:0:0:0:
164,120,235142,2,0,P|179:77|208:42,1,90,2|0,0:0|0:0,0:0:0:0:
376,120,235491,1,2,0:0:0:0:
268,128,235665,1,0,0:0:0:0:
316,28,235839,6,0,L|432:20,1,90,2|0,0:0|0:0,0:0:0:0:
268,128,236188,1,2,0:0:0:0:
136,32,236363,2,0,P|72:124|120:200,1,180,2|0,0:0|0:0,0:0:0:0:
164,120,236886,1,2,0:0:0:0:
268,216,237060,1,0,0:0:0:0:
268,216,237148,1,0,0:0:0:0:
268,216,237235,6,0,L|400:208,1,90,2|0,0:0|0:0,0:0:0:0:
420,64,237584,2,0,L|288:56,1,90,2|0,0:0|0:0,0:0:0:0:
270,257,237932,6,0,L|384:224,1,90,2|0,0:0|0:0,0:0:0:0:
417,22,238281,2,0,L|304:44,1,90,2|0,0:0|0:0,0:0:0:0:
272,296,238630,1,2,0:0:0:0:
456,224,238805,1,0,0:0:0:0:
456,324,238979,1,2,0:0:0:0:
272,196,239153,2,0,P|200:224|176:328,1,180,2|0,0:0|0:0,0:0:0:0:
180,336,239589,1,0,0:0:0:0:
192,356,239677,1,2,0:0:0:0:
272,296,239851,1,0,0:0:0:0:
360,136,240026,5,0,0:0:0:0:
360,136,240113,1,0,0:0:0:0:
360,136,240200,2,0,P|320:96|260:96,1,90,2|0,0:0|0:0,0:0:0:0:
200,104,240549,1,2,0:0:0:0:
172,188,240723,1,2,0:0:0:0:
172,188,240810,1,0,0:0:0:0:
172,188,240898,2,0,L|68:184,1,90,2|2,0:0|0:0,0:0:0:0:
52,184,241159,1,0,0:0:0:0:
20,184,241246,1,2,0:0:0:0:
176,276,241421,5,0,0:0:0:0:
304,152,241595,1,2,0:0:0:0:
352,324,241770,1,0,0:0:0:0:
276,248,241944,1,2,0:0:0:0:
276,248,242031,1,0,0:0:0:0:
276,248,242119,2,2,P|324:248|376:224,1,90
428,172,242467,1,2,0:0:0:0:
456,88,242642,1,0,0:0:0:0:
212,176,242816,5,0,0:0:0:0:
212,176,242903,1,0,0:0:0:0:
212,176,242991,2,0,P|168:168|116:180,1,90,2|0,0:0|0:0,0:0:0:0:
48,220,243339,1,2,0:0:0:0:
116,280,243514,1,0,0:0:0:0:
116,280,243601,1,0,0:0:0:0:
116,280,243688,2,2,L|196:344,1,90
212,356,243950,1,0,0:0:0:0:
236,376,244037,1,0,0:0:0:0:
232,260,244212,5,0,0:0:0:0:
312,188,244386,2,0,P|312:140|280:96,1,90,2|0,0:0|0:0,0:0:0:0:
208,36,244735,1,2,0:0:0:0:
208,36,244822,1,0,0:0:0:0:
208,36,244909,2,0,L|292:4,1,90,0|2,0:0|0:0,0:0:0:0:
392,44,245258,2,0,L|472:92,1,90,2|0,0:0|0:0,0:0:0:0:
380,248,245607,5,2,0:0:0:0:
356,272,245694,1,0,0:0:0:0:
328,284,245781,1,2,0:0:0:0:
296,284,245869,1,0,0:0:0:0:
268,276,245956,2,0,P|228:256|180:264,1,90
308,188,246305,5,2,0:0:0:0:
332,164,246392,1,0,0:0:0:0:
344,136,246479,1,2,0:0:0:0:
348,104,246566,1,0,0:0:0:0:
348,72,246653,2,0,P|332:28|284:4,1,90
240,100,247002,5,2,0:0:0:0:
220,124,247089,1,0,0:0:0:0:
192,136,247177,1,2,0:0:0:0:
160,136,247264,1,0,0:0:0:0:
132,124,247351,2,0,P|92:108|36:128,1,90
20,136,247613,5,0,0:0:0:0:
4,160,247700,1,2,0:0:0:0:
0,200,247787,1,0,0:0:0:0:
12,228,247874,1,2,0:0:0:0:
36,248,247962,1,0,0:0:0:0:
68,256,248049,2,0,L|156:276,1,90
188,280,248310,6,0,L|240:292,1,45,0|2,0:0|0:0,0:0:0:0:
264,288,248485,2,0,L|312:264,1,45,0|2,0:0|0:0,0:0:0:0:
328,248,248659,2,0,L|368:204,1,45,0|2,0:0|0:0,0:0:0:0:
364,184,248834,2,0,L|352:136,1,45,2|0,0:0|0:0,0:0:0:0:
344,112,249008,2,0,L|360:64,1,45,2|0,0:0|0:0,0:0:0:0:
268,80,249182,6,0,L|248:128,1,45,2|2,0:0|0:0,0:0:0:0:
236,148,249357,2,0,L|196:180,1,45,2|0,0:0|0:0,0:0:0:0:
172,184,249531,2,0,L|116:176,1,45,2|0,0:0|0:0,0:0:0:0:
100,192,249706,2,0,L|44:232,1,45,6|4,0:0|0:0,0:0:0:0:
172,300,250665,5,0,0:0:0:0:
256,140,250839,5,0,0:0:0:0:
400,248,251014,5,0,0:0:0:0:
320,316,251188,5,0,0:0:0:0:
352,160,251363,1,0,0:0:0:0:
248,224,251537,1,0,0:0:0:0:
420,256,251712,2,0,L|509:252,1,90
352,160,252060,1,0,0:0:0:0:
248,224,252235,1,0,0:0:0:0:
136,148,252409,6,0,L|139:58,1,90
56,24,252758,1,0,0:0:0:0:
224,108,252932,1,0,0:0:0:0:
40,168,253107,1,0,0:0:0:0:
128,280,253281,2,0,L|108:372,1,90
248,224,253630,2,0,L|231:312,1,90
220,320,253892,1,0,0:0:0:0:
212,328,253979,6,0,P|255:339|299:334,1,90
336,228,254328,1,0,0:0:0:0:
127,279,254502,2,0,P|83:272|39:278,1,90
225,139,254851,2,0,P|227:183|247:223,1,90
96,167,255200,2,0,P|119:129|127:85,1,90
32,92,255549,5,0,0:0:0:0:
172,204,255723,1,0,0:0:0:0:
208,24,255898,1,0,0:0:0:0:
36,224,256072,1,0,0:0:0:0:
248,120,256246,1,0,0:0:0:0:
248,120,256334,1,0,0:0:0:0:
248,120,256421,1,0,0:0:0:0:
352,300,256595,1,0,0:0:0:0:
352,300,256682,1,0,0:0:0:0:
352,300,256770,6,0,L|352:210,1,90
248,256,257119,1,0,0:0:0:0:
456,348,257293,2,0,L|452:256,1,90
504,184,257642,1,0,0:0:0:0:
404,108,257816,1,0,0:0:0:0:
248,256,257991,6,0,L|158:259,1,90
80,336,258339,1,0,0:0:0:0:
164,176,258514,1,0,0:0:0:0:
188,344,258688,1,0,0:0:0:0:
60,224,258863,2,0,L|44:124,1,90
164,176,259212,2,0,L|187:89,1,90
152,0,259560,5,0,0:0:0:0:
264,140,259735,1,0,0:0:0:0:
80,108,259909,1,0,0:0:0:0:
268,36,260084,2,0,L|372:44,1,90
508,152,260432,2,0,L|412:164,1,90
252,264,260781,2,0,L|341:270,1,90
432,352,261130,5,0,0:0:0:0:
364,172,261305,1,0,0:0:0:0:
320,360,261479,1,0,0:0:0:0:
464,232,261653,2,0,P|473:184|468:140,1,90
356,52,262002,5,0,0:0:0:0:
356,52,262089,1,0,0:0:0:0:
356,52,262177,1,0,0:0:0:0:
236,112,262351,6,0,L|136:120,1,90,2|0,0:0|0:0,0:0:0:0:
248,208,262700,1,0,0:0:0:0:
56,72,262874,2,0,P|50:116|59:160,1,90,0|2,0:0|0:0,0:0:0:0:
168,240,263223,1,0,0:0:0:0:
320,156,263398,2,0,L|440:160,1,90
432,160,263659,1,0,0:0:0:0:
456,161,263746,1,2,0:0:0:0:
376,276,263921,1,0,0:0:0:0:
256,72,264095,1,0,0:0:0:0:
164,144,264270,1,0,0:0:0:0:
56,72,264444,6,0,L|48:196,1,90,2|0,0:0|0:0,0:0:0:0:
176,336,264793,2,0,L|168:212,1,90
164,144,265142,1,2,0:0:0:0:
52,268,265316,1,0,0:0:0:0:
288,248,265491,1,0,0:0:0:0:
420,192,265665,1,0,0:0:0:0:
392,308,265839,1,2,0:0:0:0:
320,136,266014,2,0,L|292:48,1,90
164,144,266363,1,0,0:0:0:0:
288,228,266537,2,0,P|332:230|375:217,1,90,2|0,0:0|0:0,0:0:0:0:
392,204,266799,1,0,0:0:0:0:
404,184,266886,5,0,0:0:0:0:
164,144,267060,1,0,0:0:0:0:
288,228,267235,1,2,0:0:0:0:
76,176,267409,1,0,0:0:0:0:
224,40,267584,1,0,0:0:0:0:
288,228,267758,1,0,0:0:0:0:
76,176,267932,6,0,P|66:219|72:264,1,90,2|0,0:0|0:0,0:0:0:0:
184,88,268281,1,0,0:0:0:0:
288,228,268456,2,0,P|297:184|291:139,1,90,0|2,0:0|0:0,0:0:0:0:
188,316,268805,1,0,0:0:0:0:
320,356,268979,2,0,L|432:344,1,90
288,228,269328,1,2,0:0:0:0:
476,96,269502,2,0,L|364:108,1,90
408,220,269851,1,0,0:0:0:0:
264,112,270026,6,0,P|258:67|267:23,1,90,2|0,0:0|0:0,0:0:0:0:
288,228,270374,2,0,P|254:257|213:274,1,90,0|0,0:0|0:0,0:0:0:0:
88,136,270723,2,0,P|130:150|165:177,1,90,2|0,0:0|0:0,0:0:0:0:
80,240,271072,1,0,0:0:0:0:
264,112,271246,2,0,L|264:12,1,90,0|2,0:0|0:0,0:0:0:0:
384,208,271595,2,0,L|358:111,1,90
484,132,271944,1,0,0:0:0:0:
268,200,272119,5,2,0:0:0:0:
352,332,272293,1,0,0:0:0:0:
192,328,272467,1,0,0:0:0:0:
344,240,272642,5,0,0:0:0:0:
268,368,272816,1,2,0:0:0:0:
273,346,272903,1,0,0:0:0:0:
274,323,272990,1,0,0:0:0:0:
268,302,273077,1,0,0:0:0:0:
258,282,273164,1,0,0:0:0:0:
242,265,273252,1,0,0:0:0:0:
223,253,273339,1,0,0:0:0:0:
20,208,273514,5,0,0:0:0:0:
124,64,273689,1,0,0:0:0:0:
28,112,273863,1,0,0:0:0:0:
124,252,274038,2,0,P|132:296|128:344,1,90
224,292,274386,1,0,0:0:0:0:
32,296,274561,1,0,0:0:0:0:
224,292,274735,6,0,L|320:292,1,90
440,352,275084,1,0,0:0:0:0:
512,244,275258,1,0,0:0:0:0:
384,208,275433,1,0,0:0:0:0:
464,116,275607,2,0,L|460:27,1,90
340,92,275956,2,0,L|336:0,1,90
220,80,276305,5,0,0:0:0:0:
320,216,276479,1,0,0:0:0:0:
340,92,276654,1,0,0:0:0:0:
192,200,276828,2,0,L|102:198,1,90
4,192,277177,1,0,0:0:0:0:
100,280,277352,1,0,0:0:0:0:
100,96,277526,6,0,L|92:-4,1,90,0|0,0:0|0:0,0:0:0:0:
100,188,277875,1,0,0:0:0:0:
8,100,278049,1,0,0:0:0:0:
8,280,278224,1,0,0:0:0:0:
200,96,278398,1,0,0:0:0:0:
200,96,278485,1,0,0:0:0:0:
200,96,278572,1,0,0:0:0:0:
304,264,278747,1,0,0:0:0:0:
304,264,278834,1,0,0:0:0:0:
304,264,278921,1,0,0:0:0:0:
308,72,279096,5,0,0:0:0:0:
200,208,279270,1,0,0:0:0:0:
364,168,279445,1,0,0:0:0:0:
200,96,279619,2,0,L|104:92,1,90
276,164,279968,1,0,0:0:0:0:
408,80,280142,1,0,0:0:0:0:
496,184,280317,6,0,P|504:228|496:280,1,90
388,336,280665,1,0,0:0:0:0:
316,224,280840,1,0,0:0:0:0:
428,232,281014,1,0,0:0:0:0:
276,320,281189,2,0,L|176:324,1,90
152,212,281538,2,0,L|48:220,1,90
156,112,281886,5,0,0:0:0:0:
256,196,282061,1,0,0:0:0:0:
296,48,282235,1,0,0:0:0:0:
400,156,282410,2,0,L|489:160,1,90
412,40,282758,1,0,0:0:0:0:
316,132,282933,1,0,0:0:0:0:
204,28,283107,1,0,0:0:0:0:
124,156,283282,5,0,0:0:0:0:
232,280,283456,1,0,0:0:0:0:
292,136,283630,1,0,0:0:0:0:
144,248,283805,1,0,0:0:0:0:
304,224,283979,1,0,0:0:0:0:
304,224,284066,1,0,0:0:0:0:
304,224,284153,5,0,0:0:0:0:
204,96,284328,1,0,0:0:0:0:
204,96,284415,1,0,0:0:0:0:
204,96,284502,1,0,0:0:0:0:
96,220,284677,6,0,P|90:264|99:308,1,90,2|0,0:0|0:0,0:0:0:0:
220,352,285026,1,0,0:0:0:0:
304,224,285200,1,0,0:0:0:0:
200,256,285374,1,0,0:0:0:0:
320,364,285549,2,0,L|420:360,2,90,0|0|0,0:0|0:0|0:0,0:0:0:0:
200,256,286072,5,2,0:0:0:0:
368,128,286246,2,0,L|468:124,2,90,0|0|0,0:0|0:0|0:0,0:0:0:0:
332,248,286770,1,0,0:0:0:0:
408,20,286944,1,0,0:0:0:0:
476,248,287119,1,0,0:0:0:0:
260,172,287293,1,0,0:0:0:0:
76,248,287467,6,0,L|68:356,1,90,2|0,0:0|0:0,0:0:0:0:
260,172,287816,2,0,L|268:64,1,90
256,260,288165,1,0,0:0:0:0:
372,120,288339,1,0,0:0:0:0:
160,112,288514,1,0,0:0:0:0:
76,248,288688,1,0,0:0:0:0:
260,172,288863,6,0,P|275:129|277:85,1,90,2|0,0:0|0:0,0:0:0:0:
384,212,289212,2,0,P|424:193|457:163,1,90
372,120,289560,1,0,0:0:0:0:
276,280,289735,1,0,0:0:0:0:
152,184,289909,2,0,L|28:188,1,90
276,280,290258,6,0,L|400:284,1,90,2|0,0:0|0:0,0:0:0:0:
160,296,290607,1,0,0:0:0:0:
260,172,290781,2,0,P|275:129|277:85,1,90
152,108,291130,1,0,0:0:0:0:
344,216,291305,2,0,L|456:220,1,90
160,296,291653,5,2,0:0:0:0:
68,168,291828,2,0,L|76:280,1,90
152,108,292177,1,0,0:0:0:0:
256,260,292351,2,0,L|264:372,1,90
328,80,292700,2,0,L|321:169,1,90
400,268,293049,5,2,0:0:0:0:
448,152,293223,1,0,0:0:0:0:
321,169,293398,1,0,0:0:0:0:
200,192,293572,2,0,L|68:208,1,90
172,288,293921,1,0,0:0:0:0:
54,106,294095,2,0,L|144:96,1,90
332,308,294444,5,2,0:0:0:0:
332,308,294619,2,0,L|464:292,2,90,0|0|0,0:0|0:0|0:0,0:0:0:0:
166,334,295142,1,0,0:0:0:0:
172,312,295229,1,0,0:0:0:0:
177,290,295316,1,0,0:0:0:0:
181,268,295403,1,0,0:0:0:0:
183,245,295490,1,0,0:0:0:0:
185,223,295578,1,0,0:0:0:0:
186,201,295665,1,0,0:0:0:0:
185,178,295752,1,0,0:0:0:0:
184,156,295839,5,0,0:0:0:0:
56,188,296014,1,0,0:0:0:0:
304,244,296188,1,0,0:0:0:0:
8,316,296363,1,0,0:0:0:0:
12,320,296712,6,0,L|32:204,1,90
172,71,297061,2,0,L|188:160,1,90
256,192,297322,12,0,298281,0:0:0:0:
327,227,298630,5,0,0:0:0:0:
456,196,298805,1,0,0:0:0:0:
208,140,298979,1,0,0:0:0:0:
504,68,299154,1,0,0:0:0:0:
500,64,299503,6,0,L|480:180,1,90
339,312,299852,2,0,L|324:224,1,90
256,192,300200,12,0,302119,0:0:0:0:
