osu file format v14

[General]
AudioFilename: Toradora! opening 2.MP3
AudioLeadIn: 2000
PreviewTime: 57442
Countdown: 0
SampleSet: Soft
StackLeniency: 0.7
Mode: 0
LetterboxInBreaks: 0
WidescreenStoryboard: 0

[Editor]
DistanceSpacing: 1
BeatDivisor: 8
GridSize: 4
TimelineZoom: 0.9000001

[Metadata]
Title:silky heart
TitleUnicode:silky heart
Artist:Horie Yui
ArtistUnicode:堀江由衣
Creator:Neoskylove
Version:bbNormal
Source:Toradora!
Tags:とらドラ! op opening TV Size [C_u_r_i] Taeyang bbj0920
BeatmapID:843745
BeatmapSetID:358471

[Difficulty]
HPDrainRate:4
CircleSize:3.5
OverallDifficulty:4.5
ApproachRate:4.5
SliderMultiplier:1.3
SliderTickRate:1

[Events]
//Background and Video events
0,0,"BG.jpg",0,0
Video,0,"toradora+op+2.avi"
//Break Periods
//Storyboard Layer 0 (Background)
//Storyboard Layer 1 (Fail)
//Storyboard Layer 2 (Pass)
//Storyboard Layer 3 (Foreground)
//Storyboard Sound Samples

[TimingPoints]
776,444.444444444444,4,2,0,50,1,0
57664,-100,4,1,0,50,0,1
71775,-100,4,1,0,50,0,0
71887,-100,4,1,0,50,0,1
86109,-100,4,2,0,50,0,0
86331,-100,4,1,0,5,0,0

[Colours]
Combo1 : 255,62,62
Combo2 : 255,128,64
Combo3 : 255,0,128
Combo4 : 66,160,255
Combo5 : 211,174,24

[HitObjects]
176,256,776,5,4,0:1:0:0:
48,296,1220,2,0,P|52:204|152:120,1,195,2|2,0:0|0:0,0:0:0:0:
252,152,2331,1,0,0:0:0:0:
288,96,2553,2,0,L|488:88,2,195,2|2|2,0:0|0:0|0:0,0:0:0:0:
222,84,4109,1,4,0:3:0:0:
156,72,4331,5,4,0:1:0:0:
53,157,4775,2,0,P|100:233|228:197,1,195,2|2,0:0|0:0,0:0:0:0:
289,132,5887,1,0,0:0:0:0:
316,71,6109,2,0,B|364:55|412:71|412:71|460:87|508:71,2,195,2|2|0,0:0|0:0|1:0,0:0:0:0:
215,159,7887,6,0,P|210:208|261:271,1,130,4|0,0:1|1:0,0:0:0:0:
320,291,8553,1,2,0:0:0:0:
382,312,8775,2,0,L|375:179,1,130,0|0,0:0|1:0,0:0:0:0:
413,54,9664,5,0,0:0:0:0:
356,90,9887,2,0,P|321:100|291:95,1,65,2|0,0:0|1:0,0:0:0:0:
238,58,10331,2,0,P|244:129|124:153,1,195,2|0,0:0|1:0,0:0:0:0:
81,138,11220,1,0,1:0:0:0:
19,110,11442,6,0,L|35:261,1,130,0|0,0:0|1:0,0:0:0:0:
135,326,12331,1,0,0:0:0:0:
158,194,12775,1,0,1:0:0:0:
225,186,12998,1,0,1:0:0:0:
292,178,13220,1,4,0:1:0:0:
490,331,14553,6,0,L|416:322,1,65,0|0,1:0|1:0,0:0:0:0:
364,350,14998,2,0,P|371:287|364:217,1,130,4|0,0:1|1:0,0:0:0:0:
400,164,15664,2,0,P|346:195|266:173,1,130,2|2,0:0|0:0,0:0:0:0:
228,144,16331,1,0,1:0:0:0:
124,60,16775,6,0,P|95:117|105:191,1,130,2|0,0:0|1:0,0:0:0:0:
148,229,17442,2,0,P|177:286|167:360,1,130,2|2,0:0|0:0,0:0:0:0:
106,367,18109,2,0,L|38:361,2,65,0|0|0,1:0|1:0|0:0,0:0:0:0:
226,306,18998,5,0,1:0:0:0:
258,247,19220,2,0,P|309:233|391:274,1,130,2|2,0:0|0:0,0:0:0:0:
440,233,19887,2,0,L|433:165,1,65,0|2,1:0|0:0,0:0:0:0:
435,102,20331,6,0,P|366:120|303:103,1,130,2|0,0:0|1:0,0:0:0:0:
256,68,20998,2,0,P|174:113|71:97,1,195,2|0,0:0|1:0,0:0:0:0:
32,228,22109,6,0,L|168:244,1,130,0|0,0:0|1:0,0:0:0:0:
212,200,22775,2,0,B|200:264|200:264|212:328,1,130,2|0,0:0|0:0,0:0:0:0:
272,360,23442,1,0,1:0:0:0:
334,335,23664,6,0,P|386:307|462:311,1,130,2|0,0:0|0:0,0:0:0:0:
491,251,24331,2,0,L|496:180,1,65,0|2,1:0|0:0,0:0:0:0:
454,134,24775,2,0,P|388:145|316:142,1,130,0|0,0:0|1:0,0:0:0:0:
269,106,25442,1,2,0:0:0:0:
220,60,25664,6,0,B|180:52|156:64|156:64|132:76|92:68,1,130,2|0,0:0|1:0,0:0:0:0:
32,39,26331,2,0,P|16:99|76:179,1,130,2|2,0:0|0:0,0:0:0:0:
156,232,27220,1,2,0:0:0:0:
128,293,27442,6,0,L|280:277,1,130,0|0,0:0|1:0,0:0:0:0:
322,298,28109,1,2,0:0:0:0:
387,313,28331,2,0,P|393:283|386:239,1,65,0|0,0:0|1:0,0:0:0:0:
339,205,28775,1,0,1:0:0:0:
406,88,29220,6,0,P|376:70|339:73,1,65,4|2,0:1|0:0,0:0:0:0:
284,93,29664,1,0,1:0:0:0:
221,118,29887,2,0,P|153:124|102:82,1,130,2|2,0:0|0:0,0:0:0:0:
51,49,30553,1,0,1:0:0:0:
38,115,30775,6,0,P|77:164|165:200,1,130,2|2,0:0|0:0,0:0:0:0:
181,245,31442,2,0,L|187:334,1,65,0|2,1:0|0:0,0:0:0:0:
246,340,31887,1,2,0:0:0:0:
299,299,32109,2,0,L|294:234,2,65,0|0|2,1:0|1:0|0:0,0:0:0:0:
432,319,32998,6,0,P|440:295|440:255,1,65,2|0,0:0|1:0,0:0:0:0:
474,198,33442,2,0,P|406:202|356:148,1,130,2|2,0:0|0:0,0:0:0:0:
325,107,34109,1,0,1:0:0:0:
260,89,34331,1,2,0:0:0:0:
197,113,34553,6,0,P|186:146|183:190,1,65,2|0,0:0|0:0,0:0:0:0:
197,242,34998,1,0,1:0:0:0:
216,306,35220,2,0,P|121:336|66:260,1,195,2|0,0:0|1:0,0:0:0:0:
56,138,36331,6,0,L|54:68,2,65,0|2|0,0:0|0:0|1:0,0:0:0:0:
117,168,36998,2,0,B|148:178|182:162|182:162|215:149|244:157,1,130,2|2,0:0|0:0,0:0:0:0:
297,116,37664,1,0,1:0:0:0:
360,140,37887,6,0,L|342:276,1,130,2|2,0:0|0:0,0:0:0:0:
370,329,38553,2,0,P|334:331|291:358,1,65,0|2,1:0|0:0,0:0:0:0:
246,370,38998,2,0,L|242:295,1,65,0|2,0:0|0:0,0:0:0:0:
193,258,39442,1,0,1:0:0:0:
59,242,39887,6,0,P|46:179|59:116,1,130,2|0,0:0|1:0,0:0:0:0:
122,92,40553,2,0,P|135:155|122:218,1,130,2|0,0:0|1:0,0:0:0:0:
217,312,41442,6,0,B|235:257|309:241|350:284|350:284|364:227|436:203|479:241,1,325,4|0,1:0|0:0,0:0:0:0:
500,178,42775,2,0,P|431:159|357:180,1,130,2|2,0:0|0:0,0:0:0:0:
312,194,43442,5,4,0:1:0:0:
281,135,43664,1,2,0:0:0:0:
214,127,43887,1,0,1:0:0:0:
160,168,44109,2,0,P|98:185|39:148,1,130,2|2,0:0|0:0,0:0:0:0:
2,102,44775,1,0,1:0:0:0:
54,59,44998,6,0,P|116:41|175:78,1,130,2|2,0:0|0:0,0:0:0:0:
216,122,45664,2,0,L|304:111,1,65,0|2,1:0|0:0,0:0:0:0:
401,56,46331,2,0,L|489:45,2,65,2|0|2,0:0|1:0|0:0,0:0:0:0:
389,122,46998,6,0,L|376:208,1,65,0|2,0:0|0:0,0:0:0:0:
411,245,47442,1,0,1:0:0:0:
393,310,47664,2,0,P|335:333|281:289,1,130,2|2,0:0|0:0,0:0:0:0:
256,236,48331,1,0,1:0:0:0:
234,172,48553,6,0,P|183:135|125:158,1,130,2|2,0:0|0:0,0:0:0:0:
90,216,49220,2,0,P|56:216|20:200,1,65,0|2,1:0|0:0,0:0:0:0:
76,332,49887,2,0,L|215:352,1,130,2|2,0:0|0:0,0:0:0:0:
246,297,50553,6,0,P|272:283|323:286,1,65,0|2,0:0|0:0,0:0:0:0:
369,306,50998,1,0,1:0:0:0:
360,239,51220,2,0,B|382:197|382:197|378:108,1,130,2|2,0:0|0:0,0:0:0:0:
441,88,51887,2,0,L|445:169,1,65,0|2,1:0|0:0,0:0:0:0:
319,205,52553,6,0,L|316:141,1,65,2|0,0:0|1:0,0:0:0:0:
264,104,52998,2,0,B|232:97|218:68|218:68|189:94|150:90|150:90|156:122|134:146,1,195,2|0,0:0|1:0,0:0:0:0:
83,102,53887,1,2,0:0:0:0:
24,134,54109,6,0,L|30:203,1,65,0|0,1:0|1:0,0:0:0:0:
135,284,54775,2,0,L|123:154,1,130,0|0,1:0|1:0,0:0:0:0:
161,99,55442,1,2,0:0:0:0:
256,192,55664,12,0,56998,0:0:0:0:
408,173,57664,6,0,P|412:206|402:243,1,65,4|2,0:0|0:0,0:0:0:0:
348,273,58109,1,8,0:0:0:0:
281,268,58331,2,0,P|215:259|150:284,1,130,2|2,0:0|0:0,0:0:0:0:
91,261,58998,2,0,P|84:233|87:196,2,65,8|2|0,0:0|0:0|0:0,0:0:0:0:
33,296,59664,6,0,P|16:229|45:132,2,130,2|2|2,0:0|0:0|2:0,0:0:0:0:
92,328,60775,2,0,L|170:318,1,65,8|2,0:0|2:0,0:0:0:0:
204,271,61220,5,0,0:0:0:0:
252,223,61442,2,0,P|277:236|296:267,1,65,2|8,0:0|0:0,0:0:0:0:
320,330,61887,2,0,P|388:335|442:272,1,130,2|2,0:0|0:0,0:0:0:0:
445,231,62553,1,8,0:0:0:0:
457,164,62775,1,2,0:0:0:0:
415,111,62998,5,2,0:0:0:0:
349,123,63220,2,0,L|206:146,2,130,2|2|2,0:0|0:0|2:0,0:0:0:0:
366,58,64331,2,0,P|396:73|415:108,1,65,8|2,0:0|2:0,0:0:0:0:
402,166,64775,5,0,0:0:0:0:
364,296,65220,2,0,P|417:301|478:275,2,97.5,8|0|0,0:0|0:0|0:0,0:0:0:0:
303,267,66109,1,8,0:0:0:0:
192,193,66553,6,0,L|56:211,1,130,0|8,0:0|0:0,0:0:0:0:
51,276,67220,2,0,L|179:258,1,130
246,248,67887,1,8,0:0:0:0:
372,203,68331,6,0,P|436:191|500:237,2,130,0|8|0,0:0|0:0|0:0,0:0:0:0:
413,330,69664,1,8,0:0:0:0:
352,300,69887,2,0,B|316:284|288:296|288:296|260:308|224:292,1,130,2|0,0:2|0:0,0:0:0:0:
165,264,70553,1,2,0:2:0:0:
104,235,70775,2,0,P|112:307|181:328,2,130,2|0|2,0:2|0:0|2:0,0:0:0:0:
125,171,71887,6,0,P|129:140|126:106,1,65,4|2,0:0|0:0,0:0:0:0:
68,73,72331,1,8,0:0:0:0:
9,39,72553,2,0,P|1:103|9:169,1,130,2|2,0:0|0:0,0:0:0:0:
31,232,73220,1,8,0:0:0:0:
162,262,73664,6,0,L|251:250,1,65,2|2,0:0|0:0,0:0:0:0:
279,210,74109,1,8,0:0:0:0:
329,164,74331,2,0,P|397:148|457:252,1,195,2|8,0:0|0:0,0:0:0:0:
447,306,75220,1,2,2:0:0:0:
435,372,75442,6,0,L|272:361,1,130,0|8,0:0|0:0,0:0:0:0:
261,312,76109,2,0,P|197:292|141:328,1,130,2|2,0:0|0:0,0:0:0:0:
80,303,76775,1,8,0:0:0:0:
72,236,76998,2,0,L|64:157,1,65,2|2,0:0|0:0,0:0:0:0:
113,123,77442,6,0,P|56:128|2:79,2,130,2|2|2,0:0|0:0|2:0,0:0:0:0:
161,75,78553,2,0,P|189:68|228:74,1,65,8|2,0:0|2:0,0:0:0:0:
283,106,78998,5,0,0:0:0:0:
411,63,79442,2,0,L|424:188,2,97.5,8|0|2,0:0|0:0|2:0,0:0:0:0:
350,34,80331,1,8,0:0:0:0:
313,164,80775,5,0,0:0:0:0:
331,228,80998,2,0,P|368:268|456:264,2,130,2|2|2,0:0|0:0|2:0,0:0:0:0:
265,213,82109,2,0,P|231:218|199:233,1,65,8|2,0:0|0:0,0:0:0:0:
155,278,82553,5,0,0:0:0:0:
88,268,82775,1,2,0:0:0:0:
21,258,82998,2,0,B|14:221|14:221|21:154,2,97.5,8|2|2,0:0|0:0|0:0,0:0:0:0:
40,323,83887,2,0,L|116:316,1,65,8|2,0:0|0:0,0:0:0:0:
161,280,84331,5,0,0:0:0:0:
192,148,84775,1,8,0:0:0:0:
324,128,85220,1,0,0:0:0:0:
388,120,85442,2,0,P|420:200|412:244,1,130,2|0,2:0|0:0,0:0:0:0:
360,276,86109,5,4,0:0:0:0:
256,192,86331,12,0,89664,2:0:0:0:
