osu file format v14

[General]
AudioFilename: Toradora! opening 2.MP3
AudioLeadIn: 2000
PreviewTime: 57442
Countdown: 0
SampleSet: Soft
StackLeniency: 0.7
Mode: 0
LetterboxInBreaks: 0
WidescreenStoryboard: 0

[Editor]
Bookmarks: 776,7887,14998,29220,36331,43442,57664,71887,86109,89664
DistanceSpacing: 1.1
BeatDivisor: 4
GridSize: 4
TimelineZoom: 1.5

[Metadata]
Title:silky heart
TitleUnicode:silky heart
Artist:Horie Yui
ArtistUnicode:堀江由衣
Creator:Neoskylove
Version:Taeyang's Insane
Source:Toradora!
Tags:とらドラ! op opening TV Size [C_u_r_i] Taeyang bbj0920
BeatmapID:793107
BeatmapSetID:358471

[Difficulty]
HPDrainRate:6.5
CircleSize:4
OverallDifficulty:8
ApproachRate:8.2
SliderMultiplier:1.8
SliderTickRate:1

[Events]
//Background and Video events
0,0,"BG.jpg",0,0
Video,0,"toradora+op+2.avi"
//Break Periods
//Storyboard Layer 0 (Background)
//Storyboard Layer 1 (Fail)
//Storyboard Layer 2 (Pass)
//Storyboard Layer 3 (Foreground)
//Storyboard Sound Samples

[TimingPoints]
776,444.444444444444,4,2,15,60,1,0
887,-100,4,2,15,40,0,0
13220,-133.333333333333,4,2,15,40,0,0
14998,-100,4,2,15,50,0,0
54109,-100,4,2,15,60,0,0
55664,-200,4,2,15,60,0,0
56664,-100,4,2,15,60,0,0
57664,-83.3333333333333,4,2,16,70,0,1
71775,-83.3333333333333,4,2,16,70,0,0
71887,-83.3333333333333,4,2,16,70,0,1
86109,-133.333333333333,4,2,15,45,0,0
89664,-133.333333333333,4,2,15,5,0,0

[Colours]
Combo1 : 255,62,62
Combo2 : 255,128,64
Combo3 : 255,0,128
Combo4 : 66,160,255
Combo5 : 211,174,24

[HitObjects]
165,194,109,5,0,0:0:0:0:
230,267,331,2,0,P|274:269|318:261,1,90
425,210,776,5,6,0:0:0:0:
362,132,998,2,0,P|311:125|257:136,1,90
77,160,1664,2,0,L|84:271,1,90,0|2,0:0|0:0,0:0:0:0:
165,194,2109,2,0,L|172:305,1,90,0|2,0:0|0:0,0:0:0:0:
226,125,2553,6,0,P|142:103|77:160,1,180,2|0,0:0|0:0,0:0:0:0:
103,262,3220,2,0,P|186:283|252:227,1,180,2|0,0:0|0:0,0:0:0:0:
321,155,3887,2,0,P|365:140|427:147,1,90,2|2,0:0|0:0,0:0:0:0:
482,292,4331,5,6,0:0:0:0:
405,354,4553,2,0,P|338:341|318:324,1,90
272,242,4998,1,0,0:0:0:0:
301,70,5220,2,0,P|323:134|318:160,1,90,0|2,0:0|0:0,0:0:0:0:
272,242,5664,2,0,L|182:247,1,90,0|2,0:0|0:0,0:0:0:0:
129,332,6109,5,2,0:0:0:0:
322,317,6331,2,0,P|351:284|363:241,1,90,2|0,0:0|0:0,0:0:0:0:
320,154,6775,2,0,P|237:127|218:44,1,180,2|0,0:0|0:0,0:0:0:0:
390,67,7442,2,0,P|345:73|300:69,1,90,8|0,0:0|0:0,0:0:0:0:
137,25,7887,6,0,P|133:69|139:114,1,90,6|0,0:0|0:0,0:0:0:0:
40,117,8331,2,0,P|59:157|86:193,1,90,8|0,0:0|0:0,0:0:0:0:
242,279,8775,2,0,L|331:290,1,90,2|0,0:0|0:0,0:0:0:0:
274,185,9220,2,0,L|185:197,1,90,8|0,0:0|0:0,0:0:0:0:
133,281,9664,5,2,0:0:0:0:
352,215,9887,2,0,P|356:169|338:130,1,90,0|8,0:0|0:0,0:0:0:0:
428,252,10331,2,0,P|437:164|403:79,1,180
274,185,10998,1,8,0:0:0:0:
342,283,11220,1,8,0:0:0:0:
355,301,11331,1,8,0:0:0:0:
369,318,11442,6,0,P|421:266|435:228,1,90,2|0,0:0|0:0,0:0:0:0:
359,128,11887,2,0,P|347:171|351:215,1,90,8|0,0:0|0:0,0:0:0:0:
369,318,12331,2,0,L|279:328,1,90,2|0,0:0|0:0,0:0:0:0:
181,336,12775,1,8,0:0:0:0:
76,217,12998,1,8,0:0:0:0:
64,201,13109,1,8,0:0:0:0:
57,187,13220,6,0,B|43:152|49:129|49:129|81:132|115:160|115:160|86:222|84:257|100:298,1,270.000010299683,2|2,0:0|0:0,0:0:0:0:
181,336,14331,1,2,0:0:0:0:
265,291,14553,1,8,0:3:0:0:
297,281,14664,1,8,0:3:0:0:
331,276,14775,1,4,0:3:0:0:
365,278,14886,1,4,0:3:0:0:
398,285,14998,6,0,P|413:236|422:188,1,90,6|0,0:0|0:0,0:0:0:0:
395,102,15442,2,0,L|306:106,1,90,8|0,0:0|0:0,0:0:0:0:
284,111,15775,1,0,0:0:0:0:
263,117,15886,1,2,0:0:0:0:
162,225,16109,1,0,0:0:0:0:
234,348,16331,1,8,0:0:0:0:
246,316,16442,1,0,0:0:0:0:
258,286,16553,1,0,0:0:0:0:
266,254,16664,1,0,0:0:0:0:
271,222,16775,5,2,0:0:0:0:
284,111,16998,1,0,0:0:0:0:
166,140,17220,1,8,0:0:0:0:
355,185,17442,1,0,0:0:0:0:
355,185,17553,1,0,0:0:0:0:
355,185,17664,2,0,P|373:129|368:85,1,90,2|0,0:0|0:0,0:0:0:0:
166,140,18109,1,8,0:0:0:0:
158,172,18220,1,0,0:0:0:0:
160,206,18331,1,0,0:0:0:0:
169,238,18442,1,0,0:0:0:0:
187,267,18553,6,0,L|288:257,1,90,2|0,0:0|0:0,0:0:0:0:
423,235,18998,1,8,0:0:0:0:
325,344,19220,1,0,0:0:0:0:
325,344,19331,1,0,0:0:0:0:
325,344,19442,1,2,0:0:0:0:
338,192,19664,1,0,0:0:0:0:
244,72,19887,1,8,0:0:0:0:
230,103,19998,1,0,0:0:0:0:
224,136,20109,1,0,0:0:0:0:
227,170,20220,1,0,0:0:0:0:
239,202,20331,5,2,0:0:0:0:
423,235,20553,1,0,0:0:0:0:
293,100,20775,1,8,0:0:0:0:
320,286,20998,1,0,0:0:0:0:
320,286,21109,1,0,0:0:0:0:
320,286,21220,1,2,0:0:0:0:
408,121,21442,1,0,0:0:0:0:
207,75,21664,1,8,0:0:0:0:
203,109,21775,1,0,0:0:0:0:
208,142,21886,1,0,0:0:0:0:
220,173,21997,1,0,0:0:0:0:
239,202,22109,6,0,L|350:192,1,90,2|0,0:0|0:0,0:0:0:0:
409,294,22553,2,0,L|298:283,1,90,8|0,0:0|0:0,0:0:0:0:
297,284,22887,1,0,0:0:0:0:
275,282,22998,1,2,0:0:0:0:
108,259,23220,1,0,0:0:0:0:
170,334,23442,1,8,0:0:0:0:
190,307,23553,1,0,0:0:0:0:
201,275,23664,1,0,0:0:0:0:
200,241,23775,1,0,0:0:0:0:
190,209,23886,5,2,0:0:0:0:
83,109,24109,1,0,0:0:0:0:
108,259,24331,1,8,0:0:0:0:
273,114,24553,1,0,0:0:0:0:
273,114,24664,1,0,0:0:0:0:
273,114,24775,2,0,P|228:105|183:103,1,90,2|0,0:0|0:0,0:0:0:0:
350,215,25220,1,8,0:0:0:0:
369,187,25331,1,0,0:0:0:0:
381,156,25442,1,0,0:0:0:0:
384,122,25553,1,0,0:0:0:0:
378,88,25664,6,0,P|333:90|288:98,1,90,2|0,0:0|0:0,0:0:0:0:
170,130,26109,1,8,0:0:0:0:
259,277,26331,1,0,0:0:0:0:
259,277,26442,1,0,0:0:0:0:
259,277,26553,2,0,P|303:285|348:287,1,90,2|0,0:0|0:0,0:0:0:0:
414,175,26998,1,8,0:0:0:0:
380,173,27109,1,0,0:0:0:0:
346,175,27220,1,0,0:0:0:0:
313,180,27331,1,0,0:0:0:0:
280,187,27442,6,0,P|201:202|155:197,1,90,2|0,0:0|0:0,0:0:0:0:
117,188,27775,1,0,0:0:0:0:
117,188,27887,2,0,P|102:170|87:154,2,45,8|0|0,0:0|0:0|0:0,0:0:0:0:
140,317,28331,1,8,0:0:0:0:
44,218,28553,1,8,0:0:0:0:
108,82,28775,1,8,0:0:0:0:
123,65,28887,2,0,L|212:69,1,90,8|8,0:0|0:0,0:0:0:0:
298,73,29220,5,6,0:0:0:0:
317,244,29442,1,0,0:0:0:0:
248,181,29664,2,0,P|286:157|331:153,1,90,8|0,0:0|0:0,0:0:0:0:
353,158,29998,1,0,0:0:0:0:
375,164,30109,1,2,0:0:0:0:
384,315,30331,1,0,0:0:0:0:
227,329,30553,1,8,0:0:0:0:
317,244,30775,1,0,0:0:0:0:
317,244,30887,1,0,0:0:0:0:
317,244,30998,5,2,0:0:0:0:
209,132,31220,2,0,P|196:194|202:238,1,90,0|8,0:0|0:0,0:0:0:0:
307,332,31664,1,0,0:0:0:0:
307,332,31775,1,0,0:0:0:0:
307,332,31887,1,2,0:0:0:0:
458,254,32109,1,8,0:0:0:0:
456,239,32220,2,0,L|419:245,1,22.5,2|2,0:0|0:0,0:0:0:0:
454,224,32331,2,0,L|403:231,1,45,8|2,0:0|0:0,0:0:0:0:
317,244,32553,1,8,0:0:0:0:
282,96,32775,5,2,0:0:0:0:
282,96,32998,2,0,L|398:107,1,90,0|8,0:0|0:0,0:0:0:0:
454,224,33442,1,0,0:0:0:0:
454,224,33553,1,0,0:0:0:0:
454,224,33664,1,2,0:0:0:0:
351,327,33887,1,0,0:0:0:0:
229,225,34109,2,0,P|273:228|316:243,1,90,8|0,0:0|0:0,0:0:0:0:
210,333,34553,5,2,0:0:0:0:
146,200,34775,1,0,0:0:0:0:
211,66,34998,1,8,0:0:0:0:
229,225,35220,1,0,0:0:0:0:
69,249,35442,2,0,P|51:200|50:143,1,90,2|8,0:0|0:0,0:0:0:0:
241,93,35887,2,0,P|244:158|232:209,1,90,2|8,0:0|0:0,0:0:0:0:
234,204,36220,1,8,0:0:0:0:
229,225,36331,5,2,0:0:0:0:
128,309,36553,1,0,0:0:0:0:
48,161,36775,2,0,P|92:154|136:164,1,90,8|0,0:0|0:0,0:0:0:0:
323,205,37220,1,2,0:0:0:0:
210,308,37442,1,0,0:0:0:0:
136,164,37664,2,0,P|170:135|213:121,1,90,8|0,0:0|0:0,0:0:0:0:
328,93,38109,5,2,0:0:0:0:
309,281,38331,1,0,0:0:0:0:
356,89,38553,1,8,0:0:0:0:
393,303,38775,1,0,0:0:0:0:
393,303,38887,1,0,0:0:0:0:
393,303,38998,1,2,0:0:0:0:
460,195,39220,1,8,0:0:0:0:
458,180,39331,2,0,L|421:186,1,22.5,2|2,0:0|0:0,0:0:0:0:
456,165,39442,2,0,L|405:172,1,45,8|2,0:0|0:0,0:0:0:0:
317,184,39664,1,8,0:0:0:0:
393,303,39887,5,2,0:0:0:0:
355,88,40109,2,0,P|307:88|257:100,1,90,0|8,0:0|0:0,0:0:0:0:
197,230,40553,1,0,0:0:0:0:
197,230,40664,1,0,0:0:0:0:
197,230,40775,1,2,0:0:0:0:
317,184,40998,1,0,0:0:0:0:
144,126,41220,1,8,0:0:0:0:
172,344,41442,1,2,0:0:0:0:
288,298,41664,5,2,0:0:0:0:
95,311,41887,1,8,0:0:0:0:
298,270,42109,5,2,0:0:0:0:
77,225,42332,1,8,0:0:0:0:
172,48,42553,5,8,0:3:0:0:
207,74,42664,1,8,0:3:0:0:
224,115,42775,1,4,0:3:0:0:
217,159,42886,1,4,0:3:0:0:
189,193,42997,1,8,0:3:0:0:
147,208,43108,1,8,0:3:0:0:
104,198,43219,1,4,0:3:0:0:
71,168,43330,1,4,0:3:0:0:
59,125,43442,5,6,0:0:0:0:
281,65,43664,1,0,0:0:0:0:
252,236,43887,1,8,0:0:0:0:
143,124,44109,1,0,0:0:0:0:
143,124,44220,1,0,0:0:0:0:
143,124,44331,1,2,0:0:0:0:
343,129,44553,2,0,P|350:173|341:216,1,90,0|8,0:0|0:0,0:0:0:0:
286,325,44998,1,0,0:0:0:0:
162,231,45220,6,0,L|252:236,1,90,2|0,0:0|0:0,0:0:0:0:
118,345,45664,2,0,L|207:336,1,90,8|0,0:0|0:0,0:0:0:0:
286,325,45998,1,0,0:0:0:0:
286,325,46109,1,2,0:0:0:0:
405,363,46331,5,2,0:0:0:0:
425,330,46443,1,2,0:0:0:0:
415,294,46554,1,8,0:3:0:0:
434,262,46665,1,8,0:3:0:0:
425,226,46776,1,4,0:3:0:0:
444,193,46887,1,4,0:3:0:0:
434,157,46998,5,2,0:0:0:0:
235,149,47220,1,0,0:0:0:0:
334,265,47442,1,8,0:0:0:0:
348,84,47664,1,0,0:0:0:0:
348,84,47775,1,0,0:0:0:0:
348,84,47887,1,2,0:0:0:0:
164,92,48109,2,0,P|146:132|149:177,1,90,0|8,0:0|0:0,0:0:0:0:
210,286,48553,1,0,0:0:0:0:
230,277,48664,1,0,0:0:0:0:
251,269,48775,6,0,L|260:170,1,90,2|0,0:0|0:0,0:0:0:0:
261,37,49220,1,8,0:0:0:0:
142,110,49442,1,0,0:0:0:0:
142,110,49553,1,0,0:0:0:0:
142,110,49664,2,0,L|150:199,1,90,2|0,0:0|0:0,0:0:0:0:
330,308,50109,2,0,L|338:218,1,90,8|0,0:0|0:0,0:0:0:0:
349,141,50442,1,0,0:0:0:0:
349,141,50553,5,2,0:0:0:0:
401,354,50775,1,0,0:0:0:0:
240,231,50998,1,8,0:0:0:0:
439,207,51220,1,0,0:0:0:0:
439,207,51331,1,0,0:0:0:0:
439,207,51442,1,2,0:0:0:0:
310,337,51664,2,0,P|266:336|222:323,1,90,0|8,0:0|0:0,0:0:0:0:
82,221,52109,1,0,0:0:0:0:
85,198,52220,1,0,0:0:0:0:
89,176,52331,6,0,L|189:162,1,90,2|0,0:0|0:0,0:0:0:0:
349,141,52775,1,8,0:0:0:0:
224,251,52998,1,0,0:0:0:0:
224,251,53109,1,0,0:0:0:0:
224,251,53220,1,2,0:0:0:0:
384,312,53442,1,0,0:0:0:0:
197,335,53664,1,8,0:0:0:0:
159,311,53775,1,0,0:0:0:0:
137,272,53886,1,0,0:0:0:0:
138,227,53997,1,0,0:0:0:0:
160,189,54108,5,8,0:0:0:0:
422,195,54331,1,8,0:0:0:0:
430,205,54775,5,2,0:0:0:0:
393,283,55220,1,2,0:0:0:0:
309,302,55664,2,0,L|296:115,1,180,10|8,0:0|0:0,0:0:0:0:
248,64,56664,6,0,L|250:34,2,22.5,8|8|8,0:0|0:0|0:0,0:0:0:0:
233,242,56998,2,0,P|169:287|230:338,1,180,2|0,0:0|0:0,0:0:0:0:
309,302,57553,1,0,0:0:0:0:
309,302,57664,5,6,0:0:0:0:
195,137,57887,1,0,0:0:0:0:
230,358,58109,1,8,0:0:0:0:
344,141,58331,1,2,0:0:0:0:
344,141,58442,1,2,0:0:0:0:
344,141,58553,1,2,0:0:0:0:
333,332,58775,1,0,0:0:0:0:
151,341,58998,1,8,0:0:0:0:
125,310,59109,1,0,0:0:0:0:
113,271,59220,1,0,0:0:0:0:
116,231,59331,1,0,0:0:0:0:
135,196,59442,5,2,0:0:0:0:
412,193,59664,1,0,0:0:0:0:
225,260,59887,1,8,0:0:0:0:
260,64,60109,1,2,0:0:0:0:
260,64,60220,1,2,0:0:0:0:
260,64,60331,1,2,0:0:0:0:
333,249,60553,1,0,0:0:0:0:
135,196,60775,1,8,0:0:0:0:
317,151,60998,1,0,0:0:0:0:
317,151,61109,1,0,0:0:0:0:
317,151,61220,5,2,0:0:0:0:
97,207,61442,1,0,0:0:0:0:
220,300,61664,1,8,0:0:0:0:
235,40,61887,1,2,0:0:0:0:
235,40,61998,1,2,0:0:0:0:
235,40,62109,1,2,0:0:0:0:
135,196,62331,1,0,0:0:0:0:
313,312,62553,1,8,0:0:0:0:
321,272,62664,1,0,0:0:0:0:
324,231,62775,1,0,0:0:0:0:
323,191,62886,1,0,0:0:0:0:
317,151,62997,5,2,0:0:0:0:
77,143,63220,1,0,0:0:0:0:
242,258,63442,1,8,0:0:0:0:
222,87,63664,1,2,0:0:0:0:
217,70,63775,1,2,0:0:0:0:
212,52,63886,5,2,0:0:0:0:
171,51,63997,1,2,0:0:0:0:
131,53,64109,1,2,0:0:0:0:
100,239,64331,1,8,0:0:0:0:
235,156,64553,1,0,0:0:0:0:
235,156,64664,1,0,0:0:0:0:
235,156,64775,5,2,0:0:0:0:
77,143,64998,1,0,0:0:0:0:
197,246,65220,1,8,0:0:0:0:
160,92,65442,1,2,0:0:0:0:
160,92,65553,1,2,0:0:0:0:
160,92,65664,1,2,0:0:0:0:
100,239,65887,1,0,0:0:0:0:
294,234,66109,1,8,0:0:0:0:
294,234,66220,1,0,0:0:0:0:
294,234,66331,1,0,0:0:0:0:
154,172,66553,5,2,0:0:0:0:
171,325,66775,1,0,0:0:0:0:
311,248,66998,1,8,0:0:0:0:
89,259,67220,1,2,0:0:0:0:
89,259,67331,1,2,0:0:0:0:
89,259,67442,1,2,0:0:0:0:
269,346,67664,1,0,0:0:0:0:
255,147,67887,1,8,0:0:0:0:
255,147,67998,1,0,0:0:0:0:
255,147,68109,1,0,0:0:0:0:
171,325,68331,5,2,0:0:0:0:
357,338,68553,1,0,0:0:0:0:
266,179,68775,1,8,0:0:0:0:
269,346,68998,1,2,0:0:0:0:
269,346,69109,1,2,0:0:0:0:
269,346,69220,1,2,0:0:0:0:
165,219,69442,1,0,0:0:0:0:
325,262,69664,1,8,0:0:0:0:
171,325,69887,1,2,0:0:0:0:
182,114,70109,5,8,0:0:0:0:
182,114,70220,1,8,0:0:0:0:
182,114,70331,1,2,0:0:0:0:
244,263,70553,1,8,0:0:0:0:
92,168,70775,1,2,0:0:0:0:
278,194,70998,5,8,0:0:0:0:
76,285,71220,1,2,0:0:0:0:
281,290,71442,1,8,0:0:0:0:
182,114,71664,1,2,0:0:0:0:
182,114,71775,1,2,0:0:0:0:
182,114,71887,5,6,0:0:0:0:
171,325,72109,1,0,0:0:0:0:
360,230,72331,1,8,0:0:0:0:
116,203,72553,1,2,0:0:0:0:
116,203,72664,1,2,0:0:0:0:
116,203,72775,1,2,0:0:0:0:
268,88,72998,1,0,0:0:0:0:
341,257,73220,1,8,0:0:0:0:
305,274,73331,1,0,0:0:0:0:
266,285,73442,1,0,0:0:0:0:
226,288,73553,1,0,0:0:0:0:
186,283,73664,5,2,0:0:0:0:
161,42,73887,1,0,0:0:0:0:
322,171,74109,1,8,0:0:0:0:
116,203,74331,1,2,0:0:0:0:
116,203,74442,1,2,0:0:0:0:
116,203,74553,1,2,0:0:0:0:
268,88,74775,1,0,0:0:0:0:
266,285,74998,1,8,0:0:0:0:
176,117,75220,1,0,0:0:0:0:
176,117,75331,1,0,0:0:0:0:
176,117,75442,5,2,0:0:0:0:
189,349,75664,1,0,0:0:0:0:
356,161,75887,1,8,0:0:0:0:
116,203,76109,1,2,0:0:0:0:
116,203,76220,1,2,0:0:0:0:
116,203,76331,1,2,0:0:0:0:
349,281,76553,1,0,0:0:0:0:
268,88,76775,1,8,0:0:0:0:
224,274,76998,1,0,0:0:0:0:
224,274,77109,1,0,0:0:0:0:
224,274,77220,5,2,0:0:0:0:
281,44,77442,1,0,0:0:0:0:
116,203,77664,1,8,0:0:0:0:
314,270,77887,1,2,0:0:0:0:
331,276,77998,1,2,0:0:0:0:
349,281,78109,5,2,0:0:0:0:
363,242,78220,1,2,0:0:0:0:
372,203,78331,1,2,0:0:0:0:
193,119,78553,1,8,0:0:0:0:
224,274,78775,1,0,0:0:0:0:
224,274,78887,1,0,0:0:0:0:
224,274,78998,5,2,0:0:0:0:
291,131,79220,1,0,0:0:0:0:
152,207,79442,1,8,0:0:0:0:
309,227,79664,1,2,0:0:0:0:
309,227,79775,1,2,0:0:0:0:
309,227,79887,1,2,0:0:0:0:
193,119,80109,1,0,0:0:0:0:
224,274,80331,1,8,0:0:0:0:
291,131,80553,1,0,0:0:0:0:
125,222,80775,5,2,0:0:0:0:
331,248,80998,1,0,0:0:0:0:
251,57,81220,1,8,0:0:0:0:
224,274,81442,1,2,0:0:0:0:
224,274,81553,1,2,0:0:0:0:
224,274,81664,1,2,0:0:0:0:
314,112,81887,1,0,0:0:0:0:
152,207,82109,1,8,0:0:0:0:
330,271,82331,1,0,0:0:0:0:
330,271,82442,1,0,0:0:0:0:
330,271,82553,5,2,0:0:0:0:
144,298,82775,1,0,0:0:0:0:
335,242,82998,1,8,0:0:0:0:
114,195,83220,1,2,0:0:0:0:
114,195,83331,1,2,0:0:0:0:
114,195,83442,1,2,0:0:0:0:
335,147,83664,1,0,0:0:0:0:
225,325,83887,1,8,0:0:0:0:
209,83,84109,1,0,0:0:0:0:
209,83,84220,1,0,0:0:0:0:
209,83,84331,5,2,0:0:0:0:
425,190,84553,1,0,0:0:0:0:
198,351,84775,1,8,0:0:0:0:
187,56,84998,1,0,0:0:0:0:
448,194,85220,1,2,0:0:0:0:
448,194,85331,1,2,0:0:0:0:
448,194,85442,1,2,0:0:0:0:
448,194,85553,1,2,0:0:0:0:
448,194,85664,1,8,0:0:0:0:
438,221,85775,2,0,L|394:218,1,26.9999991760254,2|2,0:0|0:0,0:0:0:0:
426,251,85887,2,0,P|390:254|358:250,1,53.9999983520508,8|2,0:0|0:0,0:0:0:0:
252,249,86109,6,0,P|180:251|127:297,1,135.000005149842,6|2,0:0|0:0,0:1:0:0:
132,289,87220,5,2,0:0:0:0:
293,352,87664,1,2,0:0:0:0:
362,293,87887,6,0,P|375:228|369:161,1,135.000005149842,2|0,0:0|0:0,0:0:0:0:
290,180,88553,2,0,P|425:218|390:83,1,337.500012874604,2|0,0:0|0:0,0:0:0:0:
