osu file format v11

[General]
AudioFilename: neko.mp3
AudioLeadIn: 1500
PreviewTime: 37147
Countdown: 0
SampleSet: None
StackLeniency: 0.7
Mode: 0
LetterboxInBreaks: 0

[Editor]
DistanceSpacing: 1
BeatDivisor: 4
GridSize: 4

[Metadata]
Title:perfect slumbers (TV Size)
TitleUnicode:perfect slumbers (TV Size)
Artist:Horie Yui
ArtistUnicode:堀江由衣
Creator:alacat
Version:Normal
Source:Nekomonogatari(Kuro)
Tags:hanekawa tsubasa neko opening meg rock monaca
BeatmapID:205970
BeatmapSetID:71996

[Difficulty]
HPDrainRate:4
CircleSize:3
OverallDifficulty:4
ApproachRate:4
SliderMultiplier:1.4
SliderTickRate:1

[Events]
//Background and Video events
0,0,"bg.jpg"
Video,448,"Opening.flv"
//Break Periods
//Storyboard Layer 0 (Background)
//Storyboard Layer 1 (Fail)
//Storyboard Layer 2 (Pass)
//Storyboard Layer 3 (Foreground)
//Storyboard Sound Samples
//Background Colour Transformations
3,100,0,0,0

[TimingPoints]
1147,750,4,2,2,40,1,0
7147,-100,4,2,1,30,0,0
7334,-100,4,2,2,40,0,0
11272,-100,4,2,1,40,0,0
12022,-100,4,3,1,40,0,0
12397,-100,4,2,1,40,0,0
12584,-100,4,3,1,40,0,0
13147,-100,4,2,2,30,0,0
13334,-100,4,2,1,40,0,0
25147,-100,4,2,1,50,0,0
37147,-100,4,2,2,50,0,0
37334,-100,4,2,1,60,0,0
47647,-100,4,2,1,40,0,0
48397,-100,4,2,1,50,0,0
49147,-100,4,2,1,60,0,0
59647,-100,4,2,1,40,0,0
60397,-100,4,2,1,50,0,0
61147,-100,4,2,2,50,0,1
61897,-100,4,2,1,50,0,1
62272,-100,4,2,2,60,0,1
63022,-100,4,2,1,50,0,1
64147,-100,4,2,2,50,0,1
64897,-100,4,2,1,50,0,1
65272,-100,4,2,2,60,0,1
66022,-100,4,2,1,50,0,1
66772,-100,4,2,2,50,0,1
67147,-100,4,2,1,50,0,1
70147,-100,4,2,2,40,0,0
70334,-100,4,2,1,50,0,0
79147,-100,4,2,2,40,0,0
79522,-100,4,3,1,40,0,0
80647,-100,4,2,2,30,0,0
82147,-100,4,2,2,40,0,0
82334,-100,4,2,2,30,0,0
83647,-100,4,2,2,40,0,0
84209,-100,4,2,2,30,0,0
84772,-100,4,2,2,40,0,0
85147,-100,4,2,1,30,0,0
85897,-100,4,2,1,25,0,0
86647,-100,4,2,1,20,0,0
87397,-100,4,2,1,15,0,0
88147,-100,4,2,1,10,0,0
88897,-100,4,2,1,5,0,0

[Colours]
Combo1 : 255,173,134
Combo2 : 255,255,181
Combo3 : 255,191,255

[HitObjects]
36,40,1147,2,0,P|52:180,1,140,2|2,0:0|0:0,0:0:0
152,276,2647,2,0,P|224:264|288:284,1,140,2|2,0:0|0:0,0:0:0
332,336,3772,1,0,0:0:0
332,336,4147,6,0,P|388:288|404:224,1,140,2|2,0:0|0:0,0:0:0
264,204,5647,1,2,0:0:0
152,116,6397,2,0,P|84:104,2,70,2|0|4,0:0|0:0|0:0,0:0:0
288,88,7897,5,2,0:0:0
420,40,8647,2,0,P|484:68|504:132,1,140,2|2,0:0|0:0,0:0:0
488,200,9772,1,0,0:0:0
488,200,10147,6,0,P|456:336,1,140,2|2,0:0|0:0,0:0:0
388,356,11272,1,2,0:0:0
324,328,11647,2,0,P|252:336,1,70,8|4,0:0|0:0,0:0:0
196,296,12397,2,0,P|156:304,2,35,8|8|8,0:0|0:0|0:0,0:0:0
240,240,13147,6,0,P|256:168|232:108,1,140,4|8,0:0|0:0,0:0:0
168,76,14272,1,2,0:0:0
112,120,14647,2,0,P|40:120,2,70,2|0|8,0:0|0:0|0:0,0:0:0
168,76,15772,1,0,0:0:0
228,40,16147,6,0,P|304:48|368:40,1,140,2|8,0:0|0:0,0:0:0
432,64,17272,1,2,0:0:0
472,120,17647,2,0,P|472:192,1,70,2|0,0:0|0:0,0:0:0
432,248,18397,2,0,P|392:252|360:248,1,70,8|0,0:0|0:0,0:0:0
312,200,19147,6,0,P|244:164|180:172,1,140,2|8,0:0|0:0,0:0:0
128,216,20272,1,2,0:0:0
96,280,20647,2,0,P|96:352,2,70,2|0|8,0:0|0:0|0:0,0:0:0
32,156,22147,6,0,P|40:84|88:36,1,140,2|8,0:0|0:0,0:0:0
152,56,23272,1,2,0:0:0
216,84,23647,2,0,P|288:84,1,70,2|0,0:0|0:0,0:0:0
336,132,24397,2,0,P|348:168|348:200,1,70,8|0,0:0|0:0,0:0:0
308,256,25147,6,0,P|168:276,1,140,2|8,0:0|0:0,0:0:0
100,264,26272,1,2,0:0:0
60,204,26647,2,0,P|80:136,2,70,2|0|8,0:0|0:0|0:0,0:0:0
28,264,27772,1,0,0:0:0
64,324,28147,6,0,P|133:343|200:333,1,140,2|8,0:0|0:0,0:0:0
244,280,29272,2,0,P|312:268,1,70,2|2,0:0|0:0,0:0:0
444,320,30397,1,8,0:0:0
480,184,31147,6,0,P|484:108|456:52,1,140,2|8,0:0|0:0,0:0:0
392,76,32272,1,2,0:0:0
392,76,32647,2,0,P|252:76,1,140,2|8,0:0|0:0,0:0:0
184,96,33772,1,0,0:0:0
184,96,34147,6,0,P|168:168|192:228,1,140,2|8,0:0|0:0,0:0:0
260,224,35272,1,2,0:0:0
304,280,35647,2,0,P|308:316|304:352,1,70,2|0,0:0|0:0,0:0:0
236,352,36397,2,0,P|168:340,1,70,8|2,0:0|0:0,0:0:0
124,284,37147,6,0,P|92:240|156:188|128:148,1,140,4|8,0:0|0:0,0:0:0
76,104,38272,1,2,0:0:0
24,152,38647,2,0,P|12:220,2,70,2|0|8,0:0|0:0|0:0,0:0:0
120,52,40147,6,0,P|192:44|256:64,1,140,2|8,0:0|0:0,0:0:0
272,132,41272,1,2,0:0:0
272,132,41647,2,0,P|244:272,1,140,2|8,0:0|0:0,0:0:0
108,304,43147,6,0,P|136:164,1,140,2|8,0:0|0:0,0:0:0
180,112,44272,1,2,0:0:0
180,112,44647,2,0,P|252:132|316:120,1,140,2|8,0:0|0:0,0:0:0
452,140,46147,6,0,P|464:208,1,70,2|0,0:0|0:0,0:0:0
424,268,46897,2,0,P|416:340,1,70,8|2,0:0|0:0,0:0:0
348,344,47647,2,0,P|280:360|212:344,1,140,2|8,0:0|0:0,0:0:0
156,216,49147,6,0,P|172:144|160:80,1,140,2|8,0:0|0:0,0:0:0
96,48,50272,2,0,P|28:68,1,70,2|2,0:0|0:0,0:0:0
24,136,51022,2,0,P|12:204,1,70,0|8,0:0|0:0,0:0:0
88,324,52147,6,0,P|152:292|220:296,1,140,2|8,0:0|0:0,0:0:0
280,332,53272,1,2,0:0:0
280,332,53647,2,0,P|312:268|300:200,1,140,2|8,0:0|0:0,0:0:0
240,172,54772,1,0,0:0:0
200,112,55147,6,0,P|244:52|304:32,1,140,2|8,0:0|0:0,0:0:0
364,68,56272,1,2,0:0:0
364,68,56647,2,0,P|436:68,2,70,2|0|8,0:0|0:0|0:0,0:0:0
300,192,58147,6,0,P|232:208,1,70,2|0,0:0|0:0,0:0:0
196,148,58897,2,0,P|124:140,1,70,8|2,0:0|0:0,0:0:0
128,72,59647,2,0,P|60:48,2,70,2|4|8,0:0|0:0|0:0,0:0:0
268,60,61147,6,0,P|340:72|404:52,1,140,4|8,0:0|0:0,0:0:0
472,36,62272,2,0,P|500:96|500:176,1,140,4|2,0:0|0:0,0:0:0
452,220,63397,2,0,P|416:228,2,35,8|0|0,0:0|0:0|0:0,0:0:0
500,272,64147,6,0,P|443:317|381:339,1,140,4|8,0:0|0:0,0:0:0
312,320,65272,2,0,P|292:180,1,140,4|2,0:0|0:0,0:0:0
240,132,66397,1,8,0:0:0
180,168,66772,6,0,P|108:168,1,70,4|0,0:0|0:0,0:0:0
48,200,67522,2,0,P|36:236,2,35,2|0|8,0:0|0:0|0:0,0:0:0
24,132,68272,1,2,0:0:0
56,68,68647,2,0,P|88:44|116:32,1,70,2|0,0:0|0:0,0:0:0
176,68,69397,2,0,P|248:68,1,70,2|0,0:0|0:0,0:0:0
308,100,70147,5,4,0:0:0
340,236,70897,2,0,P|328:304,2,70,8|2|2,0:0|0:0|0:0,0:0:0
456,156,72397,2,0,P|404:108,1,70,8|0,0:0|0:0,0:0:0
336,92,73147,6,0,P|268:104|200:88,1,140,2|8,0:0|0:0,0:0:0
144,44,74272,1,2,0:0:0
76,64,74647,2,0,P|56:136,1,70,2|0,0:0|0:0,0:0:0
100,188,75397,2,0,P|96:260,1,70,8|0,0:0|0:0,0:0:0
140,312,76147,6,0,P|212:296|276:308,1,140,2|8,0:0|0:0,0:0:0
332,352,77272,1,2,0:0:0
384,308,77647,2,0,P|456:304,2,70,2|0|8,0:0|0:0|0:0,0:0:0
348,248,78772,6,0,P|324:180,1,70,0|4,0:0|0:0,0:0:0
280,128,79522,2,0,P|240:128,2,35,0|0|8,0:0|0:0|0:0,0:0:0
324,72,80272,2,0,P|360:72,2,35,0|0|4,0:0|0:0|0:0,0:0:0
92,228,82147,6,0,P|84:280|100:332,1,105,2|2,0:0|0:0,0:0:0
256,256,83647,6,0,P|360:256,2,105,2|0|2,0:0|0:0|0:0,0:0:0
256,192,85147,12,0,88897,0:0:0
