osu file format v11

[General]
AudioFilename: neko.mp3
AudioLeadIn: 1500
PreviewTime: 37147
Countdown: 0
SampleSet: None
StackLeniency: 0.7
Mode: 0
LetterboxInBreaks: 0

[Editor]
DistanceSpacing: 1.8
BeatDivisor: 4
GridSize: 4

[Metadata]
Title:perfect slumbers (TV Size)
TitleUnicode:perfect slumbers (TV Size)
Artist:Horie Yui
ArtistUnicode:堀江由衣
Creator:alacat
Version:Hard
Source:Nekomonogatari(Kuro)
Tags:hanekawa tsubasa neko opening meg rock monaca
BeatmapID:205969
BeatmapSetID:71996

[Difficulty]
HPDrainRate:6
CircleSize:4
OverallDifficulty:6
ApproachRate:7
SliderMultiplier:1.6
SliderTickRate:1

[Events]
//Background and Video events
0,0,"bg.jpg"
Video,448,"Opening.flv"
//Break Periods
//Storyboard Layer 0 (Background)
//Storyboard Layer 1 (Fail)
//Storyboard Layer 2 (Pass)
//Storyboard Layer 3 (Foreground)
//Storyboard Sound Samples
//Background Colour Transformations
3,100,0,0,0

[TimingPoints]
1147,750,4,2,2,40,1,0
7147,-100,4,2,1,30,0,0
7334,-100,4,2,2,40,0,0
11272,-100,4,2,1,40,0,0
12022,-100,4,3,1,40,0,0
12397,-100,4,2,1,40,0,0
12584,-100,4,3,1,40,0,0
13147,-100,4,2,2,30,0,0
13334,-100,4,2,1,40,0,0
25147,-100,4,2,1,50,0,0
37147,-100,4,2,2,50,0,0
37334,-100,4,2,1,60,0,0
47647,-100,4,2,1,40,0,0
48397,-100,4,2,1,50,0,0
49147,-100,4,2,1,60,0,0
59647,-100,4,2,1,40,0,0
60397,-100,4,2,1,50,0,0
61147,-100,4,2,2,50,0,1
61897,-100,4,2,1,50,0,1
62272,-100,4,2,2,60,0,1
63022,-100,4,2,1,50,0,1
64147,-100,4,2,2,50,0,1
64897,-100,4,2,1,50,0,1
65272,-100,4,2,2,60,0,1
66022,-100,4,2,1,50,0,1
66772,-100,4,2,2,50,0,1
67147,-100,4,2,1,50,0,1
70147,-100,4,2,2,40,0,0
70334,-100,4,2,1,50,0,0
79147,-100,4,2,2,40,0,0
79522,-100,4,3,1,40,0,0
80647,-100,4,2,2,30,0,0
82147,-100,4,2,2,40,0,0
82334,-100,4,2,2,30,0,0
83647,-100,4,2,2,40,0,0
84209,-100,4,2,2,30,0,0
84772,-100,4,2,2,40,0,0
85147,-100,4,2,1,30,0,0
85897,-100,4,2,1,25,0,0
86647,-100,4,2,1,20,0,0
87397,-100,4,2,1,15,0,0
88147,-100,4,2,1,10,0,0
88897,-100,4,2,1,5,0,0

[Colours]
Combo1 : 255,173,134
Combo2 : 255,255,181
Combo3 : 255,191,255

[HitObjects]
56,316,1147,2,0,P|136:336|196:296,1,160,2|2,0:0|0:0,0:0:0
456,68,2647,2,0,P|376:48|316:88,1,160,2|2,0:0|0:0,0:0:0
344,180,3772,1,0,0:0:0
160,288,4147,6,0,P|240:308|300:268,1,160,2|2,0:0|0:0,0:0:0
168,60,5647,2,0,P|88:40|28:80,1,160,2|2,0:0|0:0,0:0:0
56,172,6772,1,0,0:0:0
56,172,6959,1,0,0:0:0
56,172,7147,6,0,P|68:252,1,80,4|0,0:0|0:0,0:0:0
132,324,7897,1,2,0:0:0
180,188,8272,1,0,0:0:0
216,276,8647,2,0,P|256:268|296:252,1,80,2|0,0:0|0:0,0:0:0
376,141,9397,2,0,P|336:149|300:164,1,80,2|0,0:0|0:0,0:0:0
216,276,10147,6,0,P|179:290|139:298,1,80,2|0,0:0|0:0,0:0:0
48,332,10897,1,2,0:0:0
32,236,11272,2,0,P|32:200,4,20,2|0|0|0|8,0:0|0:0|0:0|0:0|0:0,0:0:0
48,332,12022,1,4,0:0:0
140,372,12397,1,8,0:0:0
140,372,12584,1,8,0:0:0
140,372,12772,1,8,0:0:0
328,324,13147,6,0,P|372:256|360:180,1,160,4|8,0:0|0:0,0:0:0
264,168,14272,1,2,0:0:0
116,44,14647,2,0,P|76:48|40:64,1,80,2|0,0:0|0:0,0:0:0
4,152,15397,1,8,0:0:0
88,268,15772,2,0,P|128:256,1,40
172,240,16147,6,0,P|252:252|308:204,1,160,2|8,0:0|0:0,0:0:0
268,116,17272,1,2,0:0:0
404,68,17647,2,0,P|440:84|468:112,1,80,2|0,0:0|0:0,0:0:0
440,204,18397,2,0,P|432:284,1,80,8|0,0:0|0:0,0:0:0
292,260,19147,6,0,P|208:252|140:284,1,160,2|8,0:0|0:0,0:0:0
120,376,20272,1,2,0:0:0
24,212,20647,2,0,P|12:168|16:132,1,80,2|0,0:0|0:0,0:0:0
88,68,21397,1,8,0:0:0
168,188,21772,1,0,0:0:0
288,108,22147,6,0,P|320:88|320:88|384:88|420:148,1,160,2|8,0:0|0:0,0:0:0
400,240,23272,1,2,0:0:0
260,204,23647,2,0,P|256:244|260:284,1,80,2|0,0:0|0:0,0:0:0
124,312,24397,2,0,P|128:272|124:232,1,80,8|0,0:0|0:0,0:0:0
48,112,25147,6,0,P|103:52|179:35,1,160,2|8,0:0|0:0,0:0:0
292,156,26272,1,2,0:0:0
292,156,26459,1,0,0:0:0
292,156,26647,2,0,P|296:196|288:236,1,80,2|0,0:0|0:0,0:0:0
212,292,27397,1,8,0:0:0
48,252,27772,2,0,P|88:236,1,40
116,200,28147,6,0,P|128:160|124:120,1,80,2|0,0:0|0:0,0:0:0
108,96,28709,1,0,0:0:0
84,76,28897,2,0,P|112:44|152:32,1,80,8|2,0:0|0:0,0:0:0
316,112,29647,2,0,P|340:148|344:188,1,80,2|0,0:0|0:0,0:0:0
484,263,30397,2,0,P|441:266|408:252,1,80,8|0,0:0|0:0,0:0:0
252,184,31147,6,0,P|172:188,1,80,2|0,0:0|0:0,0:0:0
160,216,31709,1,0,0:0:0
148,244,31897,2,0,P|68:248,1,80,8|2,0:0|0:0,0:0:0
124,116,32647,1,2,0:0:0
252,184,33022,1,0,0:0:0
272,208,33209,1,0,0:0:0
292,232,33397,1,8,0:0:0
436,216,33772,1,0,0:0:0
436,216,34147,6,0,P|508:256,2,80,2|0|8,0:0|0:0|0:0,0:0:0
332,116,35272,1,2,0:0:0
256,56,35647,1,2,0:0:0
226,45,35834,1,0,0:0:0
196,56,36022,1,0,0:0:0
124,116,36397,1,8,0:0:0
225,217,36772,1,2,0:0:0
356,160,37147,6,0,P|396:236,1,80,4|0,0:0|0:0,0:0:0
268,136,37897,1,8,0:0:0
232,52,38272,1,2,0:0:0
232,52,38459,1,0,0:0:0
232,52,38647,2,0,P|272:32|308:24,1,80,2|0,0:0|0:0,0:0:0
312,236,39397,2,0,P|308:316,1,80,8|0,0:0|0:0,0:0:0
220,216,40147,5,2,0:0:0
180,128,40522,1,0,0:0:0
148,280,40897,1,8,0:0:0
188,368,41272,1,2,0:0:0
188,368,41459,1,0,0:0:0
188,368,41647,2,0,P|268:356,1,80,2|0,0:0|0:0,0:0:0
280,144,42397,2,0,P|288:100|280:64,1,80,8|0,0:0|0:0,0:0:0
136,80,43147,6,0,P|88:80|56:76,1,80,2|0,0:0|0:0,0:0:0
180,172,43897,1,8,0:0:0
272,204,44272,2,0,P|316:196,1,40,2|0,0:0|0:0,0:0:0
348,168,44647,2,0,P|364:128|364:92,1,80,2|0,0:0|0:0,0:0:0
196,260,45397,2,0,P|192:340,1,80,8|0,0:0|0:0,0:0:0
104,224,46147,5,2,0:0:0
25,105,46522,1,0,0:0:0
158,154,46897,1,8,0:0:0
21,193,47272,1,2,0:0:0
108,81,47647,1,2,0:0:0
404,81,48397,1,8,0:0:0
255,355,49147,6,0,P|255:275,1,80,2|0,0:0|0:0,0:0:0
343,159,49897,1,8,0:0:0
404,81,50272,1,2,0:0:0
404,81,50459,1,0,0:0:0
404,81,50647,2,0,P|448:85|482:99,1,80,2|0,0:0|0:0,0:0:0
256,200,51397,2,0,P|176:204,1,80,8|0,0:0|0:0,0:0:0
288,292,52147,5,2,0:0:0
256,200,52522,1,0,0:0:0
400,96,52897,2,0,P|400:140|388:173,1,80,8|2,0:0|0:0,0:0:0
364,193,53459,1,0,0:0:0
336,205,53647,2,0,P|252:201,1,80,2|0,0:0|0:0,0:0:0
120,84,54397,1,8,0:0:0
48,148,54772,2,0,P|32:184,1,40
12,228,55147,6,0,P|32:272|36:304,1,80,2|0,0:0|0:0,0:0:0
124,188,55897,1,8,0:0:0
204,132,56272,1,2,0:0:0
204,132,56459,1,0,0:0:0
204,132,56647,2,0,P|248:128|284:132,1,80,2|0,0:0|0:0,0:0:0
232,344,57397,2,0,P|224:264,1,80,8|0,0:0|0:0,0:0:0
352,192,58147,5,2,0:0:0
488,148,58522,1,0,0:0:0
404,263,58897,1,8,0:0:0
404,120,59272,1,2,0:0:0
488,235,59647,1,2,0:0:0
24,235,60397,1,8,0:0:0
296,40,61147,6,0,P|316:120|300:196,1,160,4|8,0:0|0:0,0:0:0
392,352,62272,2,0,P|312:329|256:279,1,160,4|2,0:0|0:0,0:0:0
200,200,63397,2,0,P|160:184,2,40,8|0|0,0:0|0:0|0:0,0:0:0
396,248,64147,6,0,P|424:172|424:93,1,160,4|8,0:0|0:0,0:0:0
300,228,65272,2,0,P|224:200|145:199,1,160,4|2,0:0|0:0,0:0:0
84,272,66397,1,8,0:0:0
304,324,66772,2,0,P|343:313|377:292,1,80,4|0,0:0|0:0,0:0:0
412,192,67522,5,2,0:0:0
412,192,67709,1,0,0:0:0
412,192,67897,2,0,P|416:152,2,40,10|0|2,0:0|0:0|0:0,0:0:0
456,276,68647,2,0,P|444:316|424:352,1,80,2|0,0:0|0:0,0:0:0
304,216,69397,2,0,P|280:140,1,80,2|0,0:0|0:0,0:0:0
108,80,70147,6,0,P|64:128|92:192|92:192|80:232,1,160,4|8,0:0|0:0,0:0:0
136,334,71272,2,0,P|148:296,1,40,2|0,0:0|0:0,0:0:0
176,256,71647,2,0,P|220:244|256:244,1,80,2|0,0:0|0:0,0:0:0
324,312,72397,1,8,0:0:0
424,248,72772,2,0,P|408:212,1,40
376,176,73147,6,0,P|332:164|297:163,2,80,2|0|8,0:0|0:0|0:0,0:0:0
324,312,74272,1,2,0:0:0
324,312,74459,1,0,0:0:0
324,312,74647,2,0,P|284:328|244:332,1,80,2|0,0:0|0:0,0:0:0
200,148,75397,2,0,P|228:224,1,80,8|0,0:0|0:0,0:0:0
144,344,76147,6,0,P|96:348|64:340,1,80,2|0,0:0|0:0,0:0:0
44,316,76709,1,0,0:0:0
28,288,76897,2,0,P|36:208,1,80,8|2,0:0|0:0,0:0:0
136,64,77647,2,0,P|144:144,1,80,2|0,0:0|0:0,0:0:0
164,168,78209,1,0,0:0:0
188,192,78397,2,0,P|196:272,1,80,8|0,0:0|0:0,0:0:0
292,380,79147,6,0,P|329:379|369:367,1,80,4|0,0:0|0:0,0:0:0
396,344,79709,1,0,0:0:0
408,312,79897,1,8,0:0:0
332,184,80272,2,0,P|288:180,2,40,0|0|4,0:0|0:0|0:0,0:0:0
60,348,82147,6,0,P|72:308|68:268,1,80,2|0,0:0|0:0,0:0:0
52,240,82709,1,2,0:0:0
224,72,83647,6,0,P|284:56|344:64,2,120,2|0|2,0:0|0:0|0:0,0:0:0
256,192,85147,12,0,88897,0:0:0
