osu file format v11

[General]
AudioFilename: neko.mp3
AudioLeadIn: 1500
PreviewTime: 37147
Countdown: 0
SampleSet: Soft
StackLeniency: 0.7
Mode: 0
LetterboxInBreaks: 0

[Editor]
DistanceSpacing: 1
BeatDivisor: 4
GridSize: 4

[Metadata]
Title:perfect slumbers (TV Size)
TitleUnicode:perfect slumbers (TV Size)
Artist:Horie Yui
ArtistUnicode:堀江由衣
Creator:alacat
Version:Easy
Source:Nekomonogatari(Kuro)
Tags:hanekawa tsubasa neko opening meg rock monaca
BeatmapID:205968
BeatmapSetID:71996

[Difficulty]
HPDrainRate:2
CircleSize:3
OverallDifficulty:2
ApproachRate:3
SliderMultiplier:1.2
SliderTickRate:1

[Events]
//Background and Video events
0,0,"bg.jpg"
Video,448,"Opening.flv"
//Break Periods
//Storyboard Layer 0 (Background)
//Storyboard Layer 1 (Fail)
//Storyboard Layer 2 (Pass)
//Storyboard Layer 3 (Foreground)
//Storyboard Sound Samples
//Background Colour Transformations
3,100,0,0,0

[TimingPoints]
1147,750,4,2,2,40,1,0
7147,-100,4,2,1,30,0,0
7334,-100,4,2,2,40,0,0
11272,-100,4,2,1,40,0,0
12397,-100,4,2,1,40,0,0
13147,-100,4,2,2,35,0,0
13334,-100,4,2,1,40,0,0
25147,-100,4,2,1,50,0,0
37147,-100,4,2,2,50,0,0
37334,-100,4,2,1,60,0,0
47647,-100,4,2,1,40,0,0
48397,-100,4,2,1,50,0,0
49147,-100,4,2,1,60,0,0
59647,-100,4,2,1,40,0,0
60397,-100,4,2,1,50,0,0
61147,-100,4,2,2,50,0,1
61897,-100,4,2,1,50,0,1
62272,-100,4,2,2,60,0,1
63022,-100,4,2,1,50,0,1
64147,-100,4,2,2,50,0,1
64897,-100,4,2,1,50,0,1
65272,-100,4,2,2,60,0,1
66022,-100,4,2,1,50,0,1
66772,-100,4,2,2,50,0,1
70147,-100,4,2,2,40,0,0
70334,-100,4,2,1,50,0,0
79147,-100,4,2,2,40,0,0
79522,-100,4,3,1,40,0,0
80647,-100,4,2,2,30,0,0
82147,-100,4,2,2,40,0,0
82334,-100,4,2,2,30,0,0
83647,-100,4,2,2,40,0,0
84209,-100,4,2,2,30,0,0
84772,-100,4,2,2,40,0,0
85147,-100,4,2,1,30,0,0
85897,-100,4,2,1,25,0,0
86647,-100,4,2,1,20,0,0
87397,-100,4,2,1,15,0,0
88147,-100,4,2,1,10,0,0
88897,-100,4,2,1,5,0,0

[Colours]
Combo1 : 255,173,134
Combo2 : 255,255,181
Combo3 : 255,191,255

[HitObjects]
276,104,1147,2,0,P|292:164|284:224,1,120,2|2,0:0|0:0,0:0:0
212,316,2647,2,0,P|92:336,2,120,2|2|2,0:0|0:0|0:0,0:0:0
332,328,4897,1,2,0:0:0
420,248,5647,2,0,P|428:192|412:132,1,120,2|2,0:0|0:0,0:0:0
300,92,7147,6,0,P|180:84,1,120,4|2,0:0|0:0,0:0:0
64,120,8647,1,2,0:0:0
64,120,9397,1,2,0:0:0
12,228,10147,2,0,P|12:292|32:348,1,120,2|2,0:0|0:0,0:0:0
144,304,11647,2,0,P|168:280|176:256|176:256|208:268|240:268,1,120,2|8,0:0|0:0,0:0:0
336,340,13147,6,0,P|396:336|452:308,1,120,4|8,0:0|0:0,0:0:0
472,256,14272,1,2,0:0:0
472,256,14647,2,0,P|460:136,1,120,2|8,0:0|0:0,0:0:0
360,72,16147,5,2,0:0:0
260,140,16897,2,0,P|248:172|248:204,2,60,8|2|2,0:0|0:0|0:0,0:0:0
368,188,18397,1,8,0:0:0
420,296,19147,5,2,0:0:0
308,344,19897,1,8,0:0:0
256,312,20272,2,0,P|192:320,1,60,2|2,0:0|0:0,0:0:0
76,336,21397,1,8,0:0:0
132,228,22147,6,0,P|152:168|144:112,1,120,2|8,0:0|0:0,0:0:0
140,52,23272,2,0,P|200:40,1,60,2|2,0:0|0:0,0:0:0
300,104,24397,1,8,0:0:0
420,84,25147,6,0,P|438:141|441:203,1,120,2|8,0:0|0:0,0:0:0
408,252,26272,2,0,P|349:266,1,60,2|2,0:0|0:0,0:0:0
240,312,27397,2,0,P|180:312|120:300,1,120,8|2,0:0|0:0,0:0:0
56,200,28897,6,0,P|36:144,2,60,8|2|2,0:0|0:0|0:0,0:0:0
176,196,30397,1,8,0:0:0
276,128,31147,6,0,P|396:112,1,120,2|8,0:0|0:0,0:0:0
452,132,32272,1,2,0:0:0
452,132,32647,2,0,P|464:192|456:252,1,120,2|8,0:0|0:0,0:0:0
356,316,34147,5,2,0:0:0
256,248,34897,2,0,P|196:264,2,60,8|2|2,0:0|0:0|0:0,0:0:0
360,188,36397,2,0,P|348:124,1,60,8|2,0:0|0:0,0:0:0
312,84,37147,6,0,P|252:68|192:72,1,120,4|8,0:0|0:0,0:0:0
148,108,38272,2,0,P|88:108,1,60,2|2,0:0|0:0,0:0:0
16,204,39397,1,8,0:0:0
72,308,40147,5,2,0:0:0
184,268,40897,1,8,0:0:0
232,232,41272,2,0,P|240:172,1,60,2|2,0:0|0:0,0:0:0
324,88,42397,1,8,0:0:0
444,84,43147,6,0,P|484:132|492:188,1,120,2|8,0:0|0:0,0:0:0
460,240,44272,1,2,0:0:0
460,240,44647,2,0,P|340:260,1,120,2|8,0:0|0:0,0:0:0
256,344,46147,5,2,0:0:0
256,224,46897,2,0,P|256:164,1,60,8|2,0:0|0:0,0:0:0
276,108,47647,2,0,P|332:92|392:108,1,120,2|8,0:0|0:0,0:0:0
416,224,49147,5,2,0:0:0
476,328,49897,2,0,P|500:388,2,60,8|2|2,0:0|0:0|0:0,0:0:0
416,224,51397,1,8,0:0:0
388,104,52147,6,0,P|332:88|272:104,1,120,2|8,0:0|0:0,0:0:0
236,148,53272,2,0,P|228:208,1,60,2|2,0:0|0:0,0:0:0
276,320,54397,1,8,0:0:0
164,276,55147,6,0,P|104:280|60:320,1,120,2|8,0:0|0:0,0:0:0
20,360,56272,1,2,0:0:0
20,360,56647,2,0,P|12:300|24:240,1,120,2|8,0:0|0:0,0:0:0
96,136,58147,5,2,0:0:0
204,80,58897,1,8,0:0:0
204,80,59272,1,2,0:0:0
204,80,59647,2,0,P|264:76|316:48,1,120,2|8,0:0|0:0,0:0:0
424,100,61147,6,0,P|452:220,1,120,4|8,0:0|0:0,0:0:0
436,276,62272,2,0,P|340:284|272:328,1,180,4|8,0:0|0:0,0:0:0
156,356,64147,6,0,P|120:304|120:244,1,120,4|8,0:0|0:0,0:0:0
156,200,65272,2,0,P|332:164,1,180,4|8,0:0|0:0,0:0:0
256,192,66772,12,4,70147,0:0:0
320,256,70897,6,0,P|304:316,1,60,8|2,0:0|0:0,0:0:0
256,352,71647,2,0,P|192:356|144:332,1,120,2|8,0:0|0:0,0:0:0
136,212,73147,5,2,0:0:0
76,108,73897,2,0,P|16:124,2,60,8|2|2,0:0|0:0|0:0,0:0:0
196,120,75397,1,8,0:0:0
296,56,76147,6,0,P|356:52|416:72,1,120,2|8,0:0|0:0,0:0:0
440,124,77272,1,2,0:0:0
440,124,77647,2,0,P|424:184|432:244,1,120,2|8,0:0|0:0,0:0:0
360,336,79147,5,4,0:0:0
360,336,79522,2,0,P|296:336,1,60,0|8,0:0|0:0,0:0:0
260,292,80272,2,0,P|200:292,1,60,0|4,0:0|0:0,0:0:0
256,60,82147,6,0,P|300:64|340:84,1,90,2|2,0:0|0:0,0:0:0
256,208,83647,6,0,P|256:300,2,90,2|0|2,0:0|0:0|0:0,0:0:0
256,192,85147,12,0,88897,0:0:0
