osu file format v11

[General]
AudioFilename: Vanilla Salt.mp3
AudioLeadIn: 0
PreviewTime: 19994
Countdown: 0
SampleSet: Soft
StackLeniency: 0.7
Mode: 0
LetterboxInBreaks: 0

[Editor]
DistanceSpacing: 1.7
BeatDivisor: 4
GridSize: 4

[Metadata]
Title:Vanilla Salt (TV Size)
TitleUnicode:バニラソルト (TV Size)
Artist:Horie Yui
ArtistUnicode:堀江由衣
Creator:Darksonic
Version:Insane
Source:Toradora!
Tags:ending sekai-nyan
BeatmapID:201210
BeatmapSetID:69872

[Difficulty]
HPDrainRate:7
CircleSize:4
OverallDifficulty:7
ApproachRate:8
SliderMultiplier:1.6
SliderTickRate:2

[Events]
//Background and Video events
0,0,"BG.jpg"
Video,13243,"Toradora ED.avi"
//Break Periods
//Storyboard Layer 0 (Background)
//Storyboard Layer 1 (Fail)
//Storyboard Layer 2 (Pass)
//Storyboard Layer 3 (Foreground)
//Storyboard Sound Samples
//Background Colour Transformations
3,100,163,162,255

[TimingPoints]
14010,428.571428571429,4,2,0,60,1,0
15724,-100,4,2,2,60,0,0
16152,-100,4,2,0,60,0,0
20010,-100,4,2,0,5,0,0
20438,-100,4,2,0,60,0,0
20867,-100,4,2,1,70,0,1
25152,-100,4,2,2,70,0,1
25367,-100,4,2,1,70,0,1
34581,-100,4,2,1,60,0,0
36724,-100,4,2,3,60,0,0
36938,-100,4,2,1,60,0,0
62010,-100,4,2,1,70,0,1
63724,-100,4,2,2,70,0,1
63938,-100,4,2,1,70,0,1
67152,-100,4,2,2,70,0,1
67367,-100,4,2,1,70,0,1
70581,-100,4,2,2,70,0,1
70795,-100,4,2,1,70,0,1
74010,-100,4,2,1,70,0,0
75081,-100,4,2,3,70,0,0
75295,-100,4,2,1,70,0,0
75724,-100,4,2,1,70,0,1
77438,-100,4,2,2,70,0,1
77652,-100,4,2,1,70,0,1
84295,-100,4,2,2,70,0,1
84510,-100,4,2,1,70,0,1
85152,-100,4,2,2,70,0,1
85367,-100,4,2,1,70,0,1
87724,-100,4,2,1,70,0,0
89438,-100,4,2,1,70,0,1
93724,-100,4,2,2,70,0,1
93938,-100,4,2,1,70,0,1
99510,-100,4,2,0,60,0,0

[Colours]
Combo1 : 223,0,0
Combo2 : 242,237,38
Combo3 : 210,105,0
Combo4 : 0,64,128
SliderBorder : 255,255,255

[HitObjects]
188,148,14009,2,0,P|256:112|324:148,2,160,6|0|0,0:0|0:0|0:0,0:0:0
256,192,15081,1,0,0:0:0
256,192,15295,1,0,0:0:0
324,236,15509,6,0,P|256:272|188:236,2,160,0|0|0,0:0|0:0|0:0,0:0:0
328,156,16581,2,0,P|305:82|231:59,1,160,2|0,0:0|0:0,0:0:0
248,140,17224,1,0,0:0:0
248,140,17331,1,0,0:0:0
248,140,17438,6,0,P|220:194|288:242|263:292,2,160,2|0|2,0:0|0:0|0:0,0:0:0
200,76,18509,1,0,0:0:0
68,116,18724,1,0,0:0:0
172,204,18938,1,0,0:0:0
256,192,19152,12,0,20010,0:0:0
256,272,20438,5,0,0:0:0
256,112,20867,6,0,P|336:112|388:168,1,160,4|8,0:0|0:0,0:0:0
320,212,21510,1,0,0:0:0
452,268,21724,2,0,P|372:268|320:212,1,160,0|8,0:0|0:0,0:0:0
256,164,22367,1,0,0:0:0
192,212,22581,2,0,P|140:268|60:268,1,160,2|8,0:0|0:0,0:0:0
64,348,23224,1,0,0:0:0
108,196,23438,6,0,P|88:156|88:120,1,80,2|0,0:0|0:0,0:0:0
200,40,23867,2,0,P|220:80|220:116,1,80,8|0,0:0|0:0,0:0:0
192,248,24295,2,0,P|256:289|320:248,1,160,2|8,0:0|0:0,0:0:0
384,200,24938,2,0,P|320:159|256:200,1,160,0|0,0:0|0:0,0:0:0
192,248,25581,2,0,P|172:208|171:173,1,80,8|0,0:0|0:0,0:0:0
294,113,26010,2,0,P|256:102|218:113,1,80
340,173,26438,2,0,P|340:208|320:248,1,80,8|0,0:0|0:0,0:0:0
416,152,26867,6,0,P|416:222|376:302,2,160,2|8|2,0:0|0:0|0:0,0:0:0
360,96,27938,1,0,0:0:0
256,184,28152,1,8,0:0:0
152,96,28367,1,0,0:0:0
256,184,28581,2,0,P|296:184|331:203,1,80
200,248,29010,2,0,P|160:248|124:228,1,80,8|0,0:0|0:0,0:0:0
152,96,29438,2,0,P|84:136|56:216,1,160,2|8,0:0|0:0,0:0:0
88,284,30081,5,0,0:0:0
184,188,30295,1,2,0:0:0
256,304,30510,1,0,0:0:0
328,188,30724,1,8,0:0:0
424,284,30938,1,0,0:0:0
328,188,31152,6,0,P|274:128,1,80,2|0,0:0|0:0,0:0:0
144,92,31581,2,0,P|91:33,1,80,8|0,0:0|0:0,0:0:0
144,92,32010,2,0,P|197:151,1,80,2|0,0:0|0:0,0:0:0
88,232,32438,2,0,P|141:291,1,80,8|0,0:0|0:0,0:0:0
244,380,32867,6,0,P|304:328|309:251,1,160,2|8,0:0|0:0,0:0:0
268,184,33510,1,0,0:0:0
132,196,33724,2,0,P|186:255,1,80,2|0,0:0|0:0,0:0:0
52,224,34152,2,0,P|64:148|132:112,1,160,8|4,0:0|0:0,0:0:0
196,164,34795,5,0,0:0:0
216,240,35010,1,8,0:0:0
256,308,35224,1,0,0:0:0
296,240,35438,1,0,0:0:0
316,164,35652,1,0,0:0:0
256,108,35867,2,0,P|200:52|122:47,1,160,8|0,0:0|0:0,0:0:0
256,108,36510,6,0,P|312:52|389:47,1,160
374,126,37152,1,2,0:0:0
441,243,37367,1,2,0:0:0
324,311,37581,1,10,0:0:0
256,194,37795,1,2,0:0:0
188,311,38010,6,0,P|152:288|130:257,1,80
0,224,38438,2,0,P|33:198|70:187,1,80,8|0,0:0|0:0,0:0:0
48,52,38867,2,0,P|84:75|105:104,1,80
144,176,39295,1,8,0:0:0
144,176,39510,1,0,0:0:0
68,320,39724,6,0,P|107:336|144:336,1,80
220,192,40152,2,0,P|181:176|144:176,1,80,8|0,0:0|0:0,0:0:0
292,192,40581,2,0,P|331:176|368:176,1,80,2|2,0:0|0:0,0:0:0
444,320,41010,2,0,P|405:336|368:336,1,80,10|2,0:0|0:0,0:0:0
256,256,41438,1,0,0:0:0
256,120,41652,6,0,P|256:40,2,80,2|10|2,0:0|0:0|0:0,0:0:0
204,180,42295,2,0,P|160:112,1,80
308,180,42724,2,0,P|352:112,1,80,10|2,0:0|0:0,0:0:0
400,48,43152,1,0,0:0:0
396,184,43367,6,0,P|352:252,1,80,2|10,0:0|0:0,0:0:0
288,300,43795,2,0,P|256:276|256:276|224:300,1,80,2|0,0:0|0:0,0:0:0
160,252,44224,2,0,P|116:184,2,80,0|10|2,0:0|0:0|0:0,0:0:0
224,300,44867,1,0,0:0:0
296,184,45081,6,0,P|336:168|360:124,1,80,2|10,0:0|0:0,0:0:0
244,64,45509,2,0,P|204:80|180:124,1,80,2|0,0:0|0:0,0:0:0
316,76,45938,1,0,0:0:0
220,172,46152,1,10,0:0:0
316,268,46367,2,0,P|352:288|364:324,1,80,2|0,0:0|0:0,0:0:0
286,341,46795,5,2,0:0:0
168,272,47009,1,2,0:0:0
132,140,47224,1,2,0:0:0
380,140,47652,5,6,0:0:0
256,40,47867,1,2,0:0:0
132,140,48081,1,2,0:0:0
256,240,48295,1,6,0:0:0
256,40,48724,6,0,P|256:120,1,80,8|0,0:0|0:0,0:0:0
256,200,49152,1,0,0:0:0
212,268,49367,1,8,3:0:0
256,336,49581,1,12,3:0:0
300,268,49795,6,0,P|348:208|360:128,1,160,6|2,0:0|0:0,0:0:0
256,40,50438,1,8,0:0:0
152,128,50652,2,0,P|164:208|212:268,1,160,2|2,0:0|0:0,0:0:0
256,200,51295,2,0,P|256:120,1,80,8|2,0:0|0:0,0:0:0
328,84,51724,5,0,0:0:0
256,200,51938,1,2,0:0:0
184,84,52152,1,8,0:0:0
328,84,52367,1,2,0:0:0
144,240,52795,1,8,0:0:0
144,240,52902,1,8,0:0:0
144,240,53009,1,8,0:0:0
184,84,53224,6,0,P|112:116|83:187,1,160,6|0,0:0|0:0,0:0:0
144,240,53867,2,0,P|172:268|210:276,1,80,10|0,0:0|0:0,0:0:0
368,240,54295,2,0,P|340:268|301:276,1,80,2|0,0:0|0:0,0:0:0
428,187,54724,2,0,P|400:116|328:84,1,160,10|2,0:0|0:0,0:0:0
200,324,55581,5,8,0:0:0
142,196,55795,1,0,0:0:0
112,336,56009,1,0,0:0:0
220,244,56224,1,8,3:0:0
76,256,56438,1,8,3:0:0
200,324,56652,6,0,P|276:300|298:229,1,160,6|2,0:0|0:0,0:0:0
220,244,57295,1,8,0:0:0
318,149,57509,2,0,P|242:173|220:244,1,160,2|2,0:0|0:0,0:0:0
354,285,58152,6,0,P|298:229,1,80,8|2,0:0|0:0,0:0:0
388,124,58581,1,4,0:0:0
256,84,58795,1,2,0:0:0
124,124,59009,1,10,0:0:0
184,248,59224,2,0,P|256:278|328:248,1,160,2|0,0:0|0:0,0:0:0
388,124,59867,5,10,0:0:0
292,48,60081,2,0,P|256:33|220:48,1,80,2|2,0:0|0:0,0:0:0
256,120,60509,2,0,P|256:200,2,80
336,260,61367,5,8,0:0:0
176,260,61581,1,8,0:0:0
256,120,62009,6,0,P|296:112|334:115,1,80,6|0,0:0|0:0,0:0:0
256,120,62438,2,0,P|216:112|177:115,1,80,8|0,0:0|0:0,0:0:0
96,224,62867,2,0,P|44:160|60:89,1,160,0|8,0:0|0:0,0:0:0
96,224,63509,2,0,P|166:207|230:259,1,160
152,284,64152,1,8,0:0:0
256,372,64367,1,0,0:0:0
360,284,64581,2,0,P|360:236|384:192|384:192|384:128,1,160,2|8,0:0|0:0,0:0:0
256,100,65224,1,0,0:0:0
256,100,65331,1,0,0:0:0
256,100,65438,6,0,P|256:180,1,80,2|0,0:0|0:0,0:0:0
293,251,65867,2,0,P|325:227|340:191,1,80,8|0,0:0|0:0,0:0:0
219,251,66295,2,0,P|187:227|171:191,1,80,2|0,0:0|0:0,0:0:0
256,180,66724,1,8,0:0:0
196,320,66938,2,0,P|132:272|101:200,1,160
116,64,67581,1,8,0:0:0
116,64,67795,2,0,P|148:88|164:124,1,80,0|2,0:0|0:0,0:0:0
200,196,68224,5,0,0:0:0
316,124,68438,1,8,0:0:0
316,260,68652,1,0,0:0:0
200,196,68867,6,0,P|232:164|243:131,1,80,2|0,0:0|0:0,0:0:0
359,59,69295,2,0,P|327:91|316:124,1,80,8|0,0:0|0:0,0:0:0
316,260,69724,2,0,P|240:248|184:302,1,160,0|8,0:0|0:0,0:0:0
264,324,70367,2,0,P|340:336|395:281,1,160
388,144,71009,1,8,0:0:0
316,260,71224,1,0,0:0:0
188,308,71438,2,0,P|116:280|95:205,1,160,2|8,0:0|0:0,0:0:0
196,124,72081,1,0,0:0:0
196,124,72188,1,0,0:0:0
196,124,72295,6,0,P|196:168|177:197,1,80,2|0,0:0|0:0,0:0:0
316,124,72724,2,0,P|316:168|334:197,1,80,8|0,0:0|0:0,0:0:0
256,308,73152,2,0,P|256:228,1,80,2|0,0:0|0:0,0:0:0
256,228,73581,1,8,0:0:0
256,228,73795,1,0,0:0:0
360,316,74009,6,0,P|382:242|456:219,1,160,2|8,0:0|0:0,0:0:0
322,182,74652,1,0,0:0:0
436,296,74867,2,0,P|322:182,1,160,2|8,0:0|0:0,0:0:0
256,136,75509,1,0,0:0:0
232,136,75617,1,0,0:0:0
208,136,75724,6,0,P|172:152|132:149,1,80,6|0,0:0|0:0,0:0:0
236,60,76152,2,0,P|272:44|311:46,1,80,8|0,0:0|0:0,0:0:0
316,128,76581,2,0,P|387:156|409:229,1,160,0|8,0:0|0:0,0:0:0
416,368,77224,2,0,P|344:339|322:266,1,160
220,176,77867,2,0,P|256:159|256:159|292:176,1,80,8|0,0:0|0:0,0:0:0
190,266,78295,2,0,P|168:339|96:368,1,160,2|8,0:0|0:0,0:0:0
108,288,78938,1,0,0:0:0
108,288,79045,1,0,0:0:0
108,288,79152,6,0,P|84:256|84:212,1,80,2|0,0:0|0:0,0:0:0
116,84,79581,2,0,P|140:116|140:160,1,80,8|0,0:0|0:0,0:0:0
164,232,80009,2,0,P|240:212|281:146,1,160,2|8,0:0|0:0,0:0:0
416,152,80652,2,0,P|378:162|357:194,1,80,0|2,0:0|0:0,0:0:0
256,288,81081,5,0,0:0:0
128,334,81295,1,8,0:0:0
81,206,81509,1,0,0:0:0
209,160,81724,2,0,P|240:128|256:96|256:96|272:128|303:160,1,160,2|8,0:0|0:0,0:0:0
384,272,82367,1,0,0:0:0
384,272,82474,1,0,0:0:0
384,272,82581,6,0,P|416:244|430:210,1,80,2|0,0:0|0:0,0:0:0
436,132,83009,1,8,0:0:0
300,120,83224,2,0,P|240:72|164:91,1,160
208,160,83867,1,8,0:0:0
72,131,84081,2,0,P|132:179|208:160,1,160
179,295,84724,1,8,0:0:0
179,295,84938,2,0,P|227:235|208:160,1,160
343,131,85581,2,0,P|268:112|208:160,1,160,8|2,0:0|0:0,0:0:0
256,192,86117,12,0,87295,0:0:0
256,68,87509,5,0,0:0:0
256,68,87724,2,0,P|256:228,1,160,2|8,0:0|0:0,0:0:0
256,308,88367,1,0,0:0:0
392,288,88581,6,0,P|416:256|427:218,1,80,2|8,0:0|0:0,0:0:0
412,84,89009,2,0,P|388:116|376:153,1,80,8|0,0:0|0:0,0:0:0
244,188,89438,6,0,P|204:120|129:99,1,160,6|8,0:0|0:0,0:0:0
104,176,90081,1,0,0:0:0
176,208,90295,2,0,P|216:276|290:296,1,160,0|8,0:0|0:0,0:0:0
428,308,90938,1,0,0:0:0
428,308,91152,2,0,P|388:240|313:219,1,160,2|8,0:0|0:0,0:0:0
256,164,91795,1,0,0:0:0
364,80,92009,6,0,P|332:60|288:52,1,80,2|0,0:0|0:0,0:0:0
148,80,92438,2,0,P|180:60|221:52,1,80,8|0,0:0|0:0,0:0:0
148,168,92867,2,0,P|80:128|63:53,1,160,2|8,0:0|0:0,0:0:0
148,168,93509,2,0,P|216:208|232:282,1,160
308,304,94152,5,8,0:0:0
404,207,94367,1,0,0:0:0
308,304,94581,1,2,0:0:0
307,167,94795,1,0,0:0:0
308,304,95009,1,8,0:0:0
210,207,95224,1,0,0:0:0
308,304,95438,6,0,P|388:304|456:352,2,160,2|8|2,0:0|0:0|0:0,0:0:0
256,244,96509,1,0,0:0:0
204,304,96724,2,0,P|164:304|130:280,1,80,8|0,0:0|0:0,0:0:0
0,248,97152,2,0,P|20:213|57:195,1,80
150,98,97581,2,0,P|168:132|166:174,1,80,8|0,0:0|0:0,0:0:0
204,304,98009,2,0,P|244:320|256:361|256:361|268:320|308:304,1,160,2|8,0:0|0:0,0:0:0
256,244,98652,5,0,0:0:0
307,93,98867,1,2,0:0:0
176,185,99081,1,0,0:0:0
336,185,99295,1,8,0:0:0
205,93,99509,1,4,0:0:0
