osu file format v11

[General]
AudioFilename: Vanilla Salt.mp3
AudioLeadIn: 0
PreviewTime: 19994
Countdown: 0
SampleSet: Soft
StackLeniency: 0.7
Mode: 0
LetterboxInBreaks: 0

[Editor]
DistanceSpacing: 0.8
BeatDivisor: 2
GridSize: 4

[Metadata]
Title:Vanilla Salt (TV Size)
TitleUnicode:バニラソルト (TV Size)
Artist:Horie Yui
ArtistUnicode:堀江由衣
Creator:Darksonic
Version:Easy
Source:Toradora!
Tags:ending sekai-nyan
BeatmapID:203632
BeatmapSetID:69872

[Difficulty]
HPDrainRate:2
CircleSize:3
OverallDifficulty:2
ApproachRate:2
SliderMultiplier:1
SliderTickRate:2

[Events]
//Background and Video events
0,0,"BG.jpg"
Video,13243,"Toradora ED.avi"
//Break Periods
//Storyboard Layer 0 (Background)
//Storyboard Layer 1 (Fail)
//Storyboard Layer 2 (Pass)
//Storyboard Layer 3 (Foreground)
//Storyboard Sound Samples
//Background Colour Transformations
3,100,163,162,255

[TimingPoints]
14010,428.571428571429,4,2,0,60,1,0
20010,-100,4,2,0,5,0,0
20867,-100,4,2,1,70,0,1
21295,-100,4,2,3,70,0,1
21510,-100,4,2,1,70,0,1
23010,-100,4,2,3,70,0,1
23224,-100,4,2,1,70,0,1
23867,-100,4,2,3,70,0,1
24081,-100,4,2,1,70,0,1
25152,-100,4,2,2,70,0,1
25367,-100,4,2,1,70,0,1
29438,-100,4,2,2,70,0,1
29652,-100,4,2,1,70,0,1
32010,-100,4,2,2,70,0,1
32224,-100,4,2,1,70,0,1
33724,-100,4,2,2,70,0,1
33938,-100,4,2,3,70,0,1
34152,-100,4,2,1,70,0,1
34581,-100,4,2,1,60,0,0
35010,-100,4,2,3,60,0,0
35224,-100,4,2,1,60,0,0
38438,-100,4,2,3,60,0,0
38652,-100,4,2,1,60,0,0
40152,-100,4,2,3,60,0,0
40367,-100,4,2,1,60,0,0
42081,-100,4,2,2,60,0,0
42295,-100,4,2,1,60,0,0
43581,-100,4,2,3,60,0,0
43795,-100,4,2,1,60,0,0
44867,-100,4,2,2,60,0,0
45295,-100,4,2,3,60,0,0
45510,-100,4,2,1,60,0,0
50438,-100,4,2,3,60,0,0
50652,-100,4,2,2,60,0,0
50867,-100,4,2,1,60,0,0
51938,-100,4,2,2,60,0,0
52152,-100,4,2,3,60,0,0
52367,-100,4,2,1,60,0,0
53010,-100,4,2,3,60,0,0
53224,-100,4,2,1,60,0,0
57295,-100,4,2,3,60,0,0
57510,-100,4,2,2,60,0,0
57724,-100,4,2,1,60,0,0
60510,-100,4,2,2,60,0,0
60938,-100,4,2,1,60,0,0
62010,-100,4,2,1,70,0,1
63295,-100,4,2,3,70,0,1
63510,-100,4,2,1,70,0,1
66724,-100,4,2,3,70,0,1
66938,-100,4,2,1,70,0,1
70152,-100,4,2,3,70,0,1
70367,-100,4,2,1,70,0,1
73581,-100,4,2,3,70,0,1
73795,-100,4,2,1,70,0,1
74010,-100,4,2,1,70,0,0
75724,-100,4,2,1,70,0,1
77010,-100,4,2,3,70,0,1
77224,-100,4,2,1,70,0,1
80438,-100,4,2,3,70,0,1
80652,-100,4,2,1,70,0,1
87724,-100,4,2,1,70,0,0
88795,-100,4,2,3,70,0,0
89010,-100,4,2,1,70,0,0
89438,-100,4,2,1,70,0,1
92010,-100,4,2,2,70,0,1
92224,-100,4,2,1,70,0,1
93295,-100,4,2,3,70,0,1
93724,-100,4,2,2,70,0,1
93938,-100,4,2,1,70,0,1
96724,-100,4,2,3,70,0,1
96938,-100,4,2,1,70,0,1
98438,-100,4,2,3,70,0,1
98652,-100,4,2,1,70,0,1
99510,-100,4,2,0,60,0,0

[Colours]
Combo1 : 223,0,0
Combo2 : 242,237,38
Combo3 : 210,105,0
Combo4 : 0,64,128
SliderBorder : 255,255,255

[HitObjects]
314,250,14009,2,0,P|299:297|255:329|255:329|212:297|197:250,1,200,6|0,0:0|0:0,0:0:0
168,92,15724,2,0,P|256:52|344:92,1,200,2|2,0:0|0:0,0:0:0
256,224,17438,1,2,0:0:0
256,192,18295,12,0,20009,0:0:0
432,148,20867,6,0,P|380:72|296:110,1,200,4|0,0:0|0:0,0:0:0
256,180,22152,1,8,0:0:0
215,110,22581,2,0,P|132:72|80:148,2,200,2|2|2,0:0|0:0|0:0,0:0:0
216,192,24724,6,0,P|192:256|256:308|320:256|296:192,1,200,8|8,0:0|0:0,0:0:0
372,168,26009,1,2,0:0:0
376,248,26438,2,0,P|352:300|320:327,1,100,8|2,0:0|0:0,0:0:0
256,376,27295,1,8,0:0:0
191,327,27724,6,0,P|160:300|136:248,1,100,2|8,0:0|0:0,0:0:0
140,168,28581,1,0,0:0:0
200,116,29009,2,0,P|244:140|256:195|256:195|268:140|312:116,1,200,8|8,0:0|0:0,0:0:0
372,168,30295,2,0,P|424:192|444:232,2,100,2|8|0,0:0|0:0|0:0,0:0:0
364,248,31581,6,0,P|280:280|212:208,1,200,8|8,0:0|0:0,0:0:0
140,240,32867,1,2,0:0:0
144,160,33295,2,0,P|228:128|295:199,1,200,8|8,0:0|0:0,0:0:0
328,272,34581,6,0,P|256:341|256:341|184:272,1,200,4|0,0:0|0:0,0:0:0
128,216,35867,1,8,0:0:0
121,136,36295,2,0,P|169:124|215:139,1,100,0|8,0:0|0:0,0:0:0
296,139,37152,2,0,P|343:124|391:136,1,100,2|10,0:0|0:0,0:0:0
428,208,38010,6,0,P|376:248|376:248|384:316|305:351,1,200
256,288,39295,1,8,0:0:0
206,351,39724,2,0,P|128:316|136:248|136:248|84:208,1,200,0|2,0:0|0:0,0:0:0
112,132,41010,2,0,P|192:192,1,100,10|0,0:0|0:0,0:0:0
212,112,41867,6,0,P|184:68|256:40|256:40|328:68|300:112,1,200,10|10,0:0|0:0,0:0:0
376,136,43152,2,0,P|392:232|322:295,1,200
256,248,44438,1,10,0:0:0
190,295,44867,6,0,P|120:232|136:136,1,200,2|0,0:0|0:0,0:0:0
132,56,46152,2,0,P|180:68|212:106,1,100,8|0,0:0|0:0,0:0:0
256,172,47010,6,0,P|256:228,1,50,10|2,0:0|0:0,0:0:0
192,272,47652,2,0,P|256:305|320:272,1,150,4|4,0:0|0:0,0:0:0
364,204,48724,6,0,P|364:168|364:168|364:114|307:75,1,150,8|10,0:0|3:0,0:0:0
256,136,49795,1,6,0:0:0
205,75,50224,2,0,P|129:127|129:199|129:199|129:247,1,200,2|2,0:0|0:0,0:0:0
168,316,51510,6,0,P|256:357|344:316,1,200,2|2,0:0|0:0,0:0:0
296,252,52795,2,0,P|256:277|216:252,1,100,10|6,0:0|0:0,0:0:0
152,144,53867,6,0,P|168:98|214:81,1,100,2|2,0:0|0:0,0:0:0
297,81,54724,2,0,P|343:98|360:144,1,100,2|2,0:0|0:0,0:0:0
380,220,55581,6,0,P|377:291|312:317,1,150,0|10,0:0|0:3,0:0:0
256,260,56652,1,6,0:0:0
199,318,57081,2,0,P|112:283|108:187,1,200,2|2,0:0|0:0,0:0:0
124,108,58367,6,0,P|150:65,1,50,2|4,0:0|0:0,0:0:0
212,116,59010,2,0,P|256:136|300:116,1,100,10|2,0:0|0:0,0:0:0
376,140,59867,1,8,0:0:0
324,200,60295,2,0,P|255:224|186:200,1,150,2|2,0:0|0:0,0:0:0
177,119,61367,6,0,P|127:115,1,50,8|8,0:0|0:0,0:0:0
96,188,62010,6,0,P|96:236|96:236|136:268,1,100,6|8,0:0|0:0,0:0:0
188,208,62867,2,0,P|240:184|256:139|256:139|272:184|324:208,1,200,0|2,0:0|0:0,0:0:0
376,268,64152,2,0,P|416:236|416:236|416:188,1,100,8|2,0:0|0:0,0:0:0
412,108,65010,1,8,0:0:0
376,36,65438,6,0,P|336:64|330:111,1,100,2|8,0:0|0:0,0:0:0
316,192,66295,2,0,P|256:258|196:192,1,200,2|2,0:0|0:0,0:0:0
181,111,67581,2,0,P|176:64|136:36,1,100,8|2,0:0|0:0,0:0:0
100,108,68438,1,8,0:0:0
20,104,68867,6,0,P|25:151|65:179,1,100,2|8,0:0|0:0,0:0:0
140,212,69724,2,0,P|139:309|224:339,1,200,0|2,0:0|0:0,0:0:0
208,260,71010,2,0,P|256:246|256:246|304:260,1,100,8|2,0:0|0:0,0:0:0
372,304,71867,1,8,0:0:0
380,224,72295,6,0,P|388:176|366:130,1,100,2|8,0:0|0:0,0:0:0
348,52,73152,2,0,P|292:52|256:85|256:85|220:52|164:52,1,200,2|2,0:0|0:0,0:0:0
145,130,74438,2,0,P|124:176|132:224,1,100,8|2,0:0|0:0,0:0:0
140,304,75295,1,8,0:0:0
212,268,75724,6,0,P|256:248|300:268,1,100,6|8,0:0|0:0,0:0:0
300,348,76581,2,0,P|376:296|352:204,1,200,0|2,0:0|0:0,0:0:0
300,140,77867,2,0,P|256:120|212:140,1,100,8|2,0:0|0:0,0:0:0
164,204,78724,1,8,0:0:0
128,276,79152,6,0,P|92:244|83:194,1,100,2|8,0:0|0:0,0:0:0
31,133,80010,2,0,P|124:120|164:204,1,200,2|2,0:0|0:0,0:0:0
216,264,81295,2,0,P|256:290|296:264,1,100,8|2,0:0|0:0,0:0:0
256,196,82152,1,8,0:0:0
212,128,82581,6,0,P|256:108|300:128,1,100,2|8,0:0|0:0,0:0:0
378,148,83438,2,0,P|398:192|378:236,1,100,0|8,0:0|0:0,0:0:0
300,256,84295,2,0,P|256:276|212:256,1,100,2|8,0:0|0:0,0:0:0
134,236,85152,2,0,P|114:192|134:148,1,100,2|8,0:0|0:0,0:0:0
256,192,86010,12,2,87724,0:0:0
212,252,88581,6,0,P|256:276|256:276|300:252,2,100,2|8|6,0:0|0:0|0:0,0:0:0
176,324,89867,6,0,P|132:240|195:172,1,200,8|8,0:0|0:0,0:0:0
256,120,91152,1,2,0:0:0
316,172,91581,2,0,P|380:240|336:324,1,200,8|8,0:0|0:0,0:0:0
300,252,92867,6,0,P|245:227|214:310|161:283,2,150,2|0|8,0:0|0:0|0:0,0:0:0
316,173,94581,1,2,0:0:0
304,92,95009,2,0,P|256:80|208:92,1,100,8|2,0:0|0:0,0:0:0
196,173,95867,1,8,0:0:0
116,168,96295,6,0,P|164:248|255:227,1,200,2|0,0:0|0:0,0:0:0
292,300,97581,1,8,0:0:0
335,232,98009,2,0,P|287:152|196:173,1,200,2|2,0:0|0:0,0:0:0
152,240,99295,6,0,P|120:279,1,50,8|4,0:0|0:0,0:0:0
