osu file format v14

[General]
AudioFilename: 04 True truly love.mp3
AudioLeadIn: 0
PreviewTime: 51207
Countdown: 0
SampleSet: None
StackLeniency: 0.7
Mode: 0
LetterboxInBreaks: 1
WidescreenStoryboard: 1

[Editor]
DistanceSpacing: 1.1
BeatDivisor: 4
GridSize: 8
TimelineZoom: 1.8

[Metadata]
Title:True truly love
TitleUnicode:True truly love
Artist:Horie Yui
ArtistUnicode:Horie Yui
Creator:Silynn
Version:True truly 2016
Source:
Tags:
BeatmapID:955615
BeatmapSetID:97595

[Difficulty]
HPDrainRate:4
CircleSize:4.2
OverallDifficulty:9.5
ApproachRate:9.8
SliderMultiplier:2.2
SliderTickRate:1

[Events]
//Background and Video events
0,0,"oppai.jpg",0,0
//Break Periods
//Storyboard Layer 0 (Background)
//Storyboard Layer 1 (Fail)
//Storyboard Layer 2 (Pass)
//Storyboard Layer 3 (Foreground)
//Storyboard Sound Samples

[TimingPoints]
611,294.117647058824,4,2,0,100,1,0
611,-200,4,2,0,100,0,0
5316,-100,4,2,0,100,0,0
22375,-57.1428571428571,4,1,0,75,0,0
22964,-100,4,1,0,75,0,0
51199,-66.6666666666667,4,1,0,75,0,1
60317,-66.6666666666667,4,1,0,75,0,0
60611,-66.6666666666667,4,1,0,75,0,1
70022,-66.6666666666667,4,1,0,50,0,1
71787,-200,4,1,0,75,0,1
74728,-100,4,1,0,75,0,0
84140,-133.333333333333,4,1,0,75,0,0
90022,-100,4,1,0,75,0,0
115905,-66.6666666666667,4,1,0,75,0,1
124875,-66.6666666666667,4,1,0,75,0,0
125317,-62.5,4,1,0,75,0,1
136493,-133.333333333333,4,1,0,75,0,1
137081,-66.6666666666667,4,1,0,75,0,1
139140,-100,4,1,0,75,0,1
139434,-100,4,1,0,75,0,0
160611,-133.333333333333,4,2,0,81,0,0
174728,-133.333333333333,4,1,0,55,0,0
176493,-200,4,1,0,55,0,0
177081,-100,4,1,0,55,0,0
182964,-133.333333333333,4,1,0,75,0,0
184140,-50,4,1,0,75,0,1
193111,-66.6666666666667,4,1,0,75,0,0
193552,-66.6666666666667,4,1,0,75,0,1
199875,-57.1428571428571,4,1,0,75,0,1
201493,-50,4,1,0,75,0,1
210022,-89.2857142857143,4,1,0,75,0,0

[Colours]
Combo1 : 255,121,121
Combo2 : 255,136,255
Combo3 : 255,0,255
Combo4 : 255,191,255

[HitObjects]
43,320,611,6,0,P|129:337|181:337,1,110
474,173,1199,2,0,L|471:53,1,110
92,122,1787,6,0,P|65:177|54:240,1,110
462,194,2375,2,0,L|436:71,1,110
99,313,2963,5,0,0:0:0:0:
205,341,3258,1,0,0:0:0:0:
314,330,3552,1,0,0:0:0:0:
412,281,3846,1,0,0:0:0:0:
471,86,4140,5,0,0:0:0:0:
256,192,4213,12,0,5022,0:0:0:0:
476,64,5317,5,0,0:0:0:0:
36,64,5464,1,0,0:0:0:0:
256,344,5611,1,0,0:0:0:0:
475,282,5758,2,0,L|486:173,1,110
26,173,6052,2,0,L|37:292,1,110
476,64,6346,5,0,0:0:0:0:
18,185,6493,2,0,P|50:249|174:339,1,220
103,119,6934,2,0,P|166:119|251:91,1,110
382,28,7228,5,0,0:0:0:0:
418,347,7375,1,0,0:0:0:0:
426,343,7669,5,0,0:0:0:0:
35,350,7817,1,0,0:0:0:0:
493,182,7964,5,0,0:0:0:0:
25,48,8111,1,0,0:0:0:0:
0,141,8405,2,0,P|5:251|32:358,1,220
311,84,8846,6,0,P|248:60|197:46,1,110
142,187,9140,1,0,0:0:0:0:
360,277,9287,2,0,L|478:268,1,110
133,340,9581,1,0,0:0:0:0:
360,277,9728,1,0,0:0:0:0:
133,340,9875,1,0,0:0:0:0:
39,127,10022,6,0,P|56:59|83:24,1,110
478,109,10317,1,0,0:0:0:0:
40,331,10464,2,0,P|28:255|31:209,1,110
198,47,10758,2,0,P|296:32|332:36,1,110
461,198,11052,5,0,0:0:0:0:
337,351,11199,1,0,0:0:0:0:
136,289,11346,1,0,0:0:0:0:
402,102,11493,5,0,0:0:0:0:
337,351,11640,1,0,0:0:0:0:
170,160,11787,5,0,0:0:0:0:
483,290,11934,1,0,0:0:0:0:
229,353,12081,1,0,0:0:0:0:
402,102,12228,1,0,0:0:0:0:
80,48,12375,5,0,0:0:0:0:
58,99,12449,1,0,0:0:0:0:
49,153,12522,1,0,0:0:0:0:
44,208,12596,1,0,0:0:0:0:
59,260,12669,1,0,0:0:0:0:
96,300,12743,1,0,0:0:0:0:
79,352,12817,1,0,0:0:0:0:
46,308,12890,1,0,0:0:0:0:
88,273,12964,5,0,0:0:0:0:
151,305,13037,1,0,0:0:0:0:
220,323,13111,1,0,0:0:0:0:
290,317,13184,1,0,0:0:0:0:
352,280,13258,1,0,0:0:0:0:
291,242,13331,1,0,0:0:0:0:
255,304,13405,1,0,0:0:0:0:
315,341,13478,1,0,0:0:0:0:
352,280,13552,5,0,0:0:0:0:
392,221,13625,1,0,0:0:0:0:
461,240,13699,1,0,0:0:0:0:
463,310,13772,1,0,0:0:0:0:
395,335,13846,1,0,0:0:0:0:
367,269,13919,1,0,0:0:0:0:
426,229,13993,1,0,0:0:0:0:
459,165,14067,1,0,0:0:0:0:
455,94,14140,5,0,0:0:0:0:
408,47,14214,1,0,0:0:0:0:
347,47,14287,1,0,0:0:0:0:
309,88,14361,1,0,0:0:0:0:
269,116,14434,1,0,0:0:0:0:
224,120,14508,1,0,0:0:0:0:
187,107,14581,1,0,0:0:0:0:
164,82,14655,1,0,0:0:0:0:
237,38,14728,6,0,P|239:108|104:141,1,220
237,38,15169,2,0,P|248:95|229:164,1,110
78,248,15464,1,0,0:0:0:0:
351,174,15611,1,0,0:0:0:0:
53,32,15758,6,0,P|31:109|31:154,1,110
53,32,16052,2,0,P|31:109|31:154,1,110
123,336,16346,1,0,0:0:0:0:
338,187,16493,2,0,L|209:165,1,110
390,280,16787,6,0,P|452:282|551:266,1,110
356,51,17081,5,0,0:0:0:0:
323,346,17228,1,0,0:0:0:0:
197,256,17375,1,0,0:0:0:0:
488,154,17522,1,0,0:0:0:0:
262,102,17669,5,0,0:0:0:0:
486,238,17817,1,0,0:0:0:0:
197,256,17964,1,0,0:0:0:0:
356,51,18111,2,0,P|387:127|390:268,1,220
46,109,18552,6,0,P|87:77|145:51,1,110
83,315,18846,1,0,0:0:0:0:
66,195,18993,1,0,0:0:0:0:
177,367,19140,1,0,0:0:0:0:
160,247,19287,1,0,0:0:0:0:
286,340,19434,5,0,0:0:0:0:
83,315,19581,2,0,P|61:233|66:197,1,110
453,43,19875,1,0,0:0:0:0:
283,348,20022,2,0,L|146:346,1,110
464,318,20317,5,0,0:0:0:0:
74,191,20464,2,0,L|183:192,1,110
473,199,20758,1,0,0:0:0:0:
73,102,20905,1,0,0:0:0:0:
511,97,21052,1,0,0:0:0:0:
39,350,21199,5,0,0:0:0:0:
62,103,21346,2,0,P|104:50|154:31,1,110
141,33,21640,1,0,0:0:0:0:
283,348,21787,6,0,L|40:348,1,220
449,348,22228,1,0,0:0:0:0:
63,36,22375,2,0,L|456:36,1,385.000003671646
55,244,22817,5,0,0:0:0:0:
144,179,22964,2,0,P|228:181|277:193,1,110
354,228,23258,2,0,P|438:254|476:258,1,110
358,117,23552,1,0,0:0:0:0:
337,341,23699,1,0,0:0:0:0:
255,71,23846,1,0,0:0:0:0:
337,341,23993,5,0,0:0:0:0:
337,341,24067,1,0,0:0:0:0:
337,341,24140,2,0,P|303:350|266:352,1,55
63,297,24287,2,0,P|48:279|36:239,1,55
147,115,24434,6,0,L|151:188,1,55
197,296,24581,2,0,L|201:369,1,55
262,201,24728,6,0,L|258:146,1,55
116,40,24875,2,0,P|80:37|50:44,1,55
62,303,25022,2,0,P|77:333|101:350,1,55
357,243,25169,2,0,P|363:219|364:180,1,55
28,188,25317,5,0,0:0:0:0:
430,343,25464,1,0,0:0:0:0:
476,80,25611,1,0,0:0:0:0:
197,296,25758,5,0,0:0:0:0:
430,343,25905,1,0,0:0:0:0:
369,146,26052,1,0,0:0:0:0:
197,296,26199,1,0,0:0:0:0:
197,296,26493,5,0,0:0:0:0:
476,80,26640,1,0,0:0:0:0:
28,188,26787,1,0,0:0:0:0:
430,343,26934,1,0,0:0:0:0:
369,146,27081,1,0,0:0:0:0:
197,296,27228,5,0,0:0:0:0:
298,337,27375,2,0,P|374:340|411:328,1,110
481,36,27669,5,0,0:0:0:0:
429,322,27817,1,0,0:0:0:0:
12,219,27964,1,0,0:0:0:0:
487,247,28111,1,0,0:0:0:0:
118,337,28258,5,0,0:0:0:0:
258,31,28405,1,0,0:0:0:0:
429,322,28552,1,0,0:0:0:0:
266,194,28699,1,0,0:0:0:0:
266,194,28846,6,0,P|174:235|110:240,1,146.666666666667
38,35,29238,1,0,0:0:0:0:
485,36,29434,5,0,0:0:0:0:
256,352,29581,1,0,0:0:0:0:
38,35,29728,1,0,0:0:0:0:
485,36,29875,1,0,0:0:0:0:
23,349,30022,5,0,0:0:0:0:
498,197,30169,1,0,0:0:0:0:
506,358,30317,1,0,0:0:0:0:
373,54,30464,5,0,0:0:0:0:
506,358,30611,1,0,0:0:0:0:
500,202,30758,1,0,0:0:0:0:
136,168,30905,5,0,0:0:0:0:
293,354,31052,2,0,P|397:337|435:313,1,110
191,81,31346,5,0,0:0:0:0:
156,342,31493,2,0,L|291:355,1,110
483,215,31787,6,0,P|481:125|469:76,1,110
34,105,32081,2,0,P|27:160|29:215,1,110
256,128,32375,5,0,0:0:0:0:
256,208,32522,1,0,0:0:0:0:
256,288,32669,1,0,0:0:0:0:
328,96,32817,5,0,0:0:0:0:
256,48,32964,1,0,0:0:0:0:
184,96,33111,1,0,0:0:0:0:
184,96,33405,5,0,0:0:0:0:
328,96,33552,2,0,P|286:51|221:49,1,110
430,268,33846,2,0,P|444:199|443:145,1,110
96,329,34140,1,0,0:0:0:0:
167,359,34214,1,0,0:0:0:0:
243,361,34287,1,0,0:0:0:0:
319,346,34361,1,0,0:0:0:0:
392,326,34434,1,0,0:0:0:0:
448,273,34508,1,0,0:0:0:0:
482,204,34581,1,0,0:0:0:0:
486,126,34655,1,0,0:0:0:0:
461,53,34728,6,0,L|229:34,1,220
21,196,35169,1,0,0:0:0:0:
275,232,35317,1,0,0:0:0:0:
140,64,35464,1,0,0:0:0:0:
101,321,35611,1,0,0:0:0:0:
252,142,35758,1,0,0:0:0:0:
13,76,35905,6,0,P|8:149|12:222,1,110
238,352,36199,2,0,P|317:353|372:348,1,110
461,53,36493,2,0,L|229:34,1,220
4,83,36934,1,0,0:0:0:0:
307,63,37081,5,0,0:0:0:0:
439,142,37228,2,0,P|493:211|511:248,1,110
104,329,37522,1,0,0:0:0:0:
439,142,37669,6,0,P|460:205|465:262,1,110
4,83,37964,2,0,L|148:85,1,110
345,282,38258,5,0,0:0:0:0:
122,357,38405,1,0,0:0:0:0:
286,162,38552,5,0,0:0:0:0:
225,353,38699,1,0,0:0:0:0:
168,102,38846,5,0,0:0:0:0:
331,344,38993,1,0,0:0:0:0:
32,97,39140,5,0,0:0:0:0:
441,337,39287,1,0,0:0:0:0:
474,35,39434,6,0,P|386:29|325:35,1,110
183,203,39728,2,0,P|96:257|74:292,1,110
331,344,40022,1,0,0:0:0:0:
454,192,40169,1,0,0:0:0:0:
168,102,40317,1,0,0:0:0:0:
189,333,40464,5,0,0:0:0:0:
265,254,40611,2,0,P|278:177|274:105,1,110
53,28,40905,2,0,P|41:81|39:136,1,110
189,333,41199,2,0,P|278:349|437:341,1,220
407,346,41640,1,0,0:0:0:0:
470,80,41787,5,0,0:0:0:0:
67,322,41934,1,0,0:0:0:0:
371,86,42081,5,0,0:0:0:0:
116,245,42228,1,0,0:0:0:0:
178,31,42375,5,0,0:0:0:0:
512,208,42522,1,0,0:0:0:0:
116,245,42669,1,0,0:0:0:0:
371,86,42817,5,0,0:0:0:0:
449,275,42964,2,0,P|414:326|367:358,1,110
136,353,43258,1,0,0:0:0:0:
27,139,43405,5,0,0:0:0:0:
256,32,43552,1,0,0:0:0:0:
485,139,43699,1,0,0:0:0:0:
256,240,43846,1,0,0:0:0:0:
27,139,43993,1,0,0:0:0:0:
485,139,44140,6,0,P|496:230|488:369,1,220
416,56,44581,1,0,0:0:0:0:
22,357,44728,2,0,P|15:248|27:139,1,220
96,56,45169,1,0,0:0:0:0:
273,286,45317,5,0,0:0:0:0:
244,301,45390,1,0,0:0:0:0:
211,292,45464,1,0,0:0:0:0:
207,259,45537,1,0,0:0:0:0:
238,247,45611,1,0,0:0:0:0:
265,264,45684,1,0,0:0:0:0:
266,297,45758,1,0,0:0:0:0:
238,315,45831,1,0,0:0:0:0:
205,308,45905,5,0,0:0:0:0:
191,278,45978,1,0,0:0:0:0:
200,246,46052,1,0,0:0:0:0:
221,221,46125,1,0,0:0:0:0:
253,216,46199,1,0,0:0:0:0:
281,231,46272,1,0,0:0:0:0:
302,256,46346,1,0,0:0:0:0:
306,288,46419,1,0,0:0:0:0:
246,345,46493,5,0,0:0:0:0:
256,192,46530,12,0,48552,0:0:0:0:
36,60,48846,5,0,0:0:0:0:
496,30,48993,1,0,0:0:0:0:
6,17,49140,1,0,0:0:0:0:
506,367,49287,5,0,0:0:0:0:
16,354,49434,1,0,0:0:0:0:
476,324,49581,1,0,0:0:0:0:
496,30,49728,5,0,0:0:0:0:
6,17,49875,1,0,0:0:0:0:
31,354,50022,5,0,0:0:0:0:
82,28,50169,1,0,0:0:0:0:
135,371,50317,5,0,0:0:0:0:
181,12,50464,1,0,0:0:0:0:
241,343,50611,5,0,0:0:0:0:
313,29,50758,1,0,0:0:0:0:
348,363,50905,5,0,0:0:0:0:
22,148,51052,1,0,0:0:0:0:
348,363,51199,6,0,P|445:342|521:133,1,330.000012588501
256,24,51640,1,0,0:0:0:0:
119,258,51787,2,0,P|196:342|269:354,1,165.000006294251
309,99,52081,5,0,0:0:0:0:
22,338,52228,2,0,L|19:150,1,165.000006294251
22,338,52522,6,0,L|19:173,1,165.000006294251
380,46,52817,2,0,B|440:51|484:78|484:78|516:167|454:209|486:318,1,330.000012588501
262,377,53258,1,0,0:0:0:0:
0,319,53405,1,0,0:0:0:0:
397,154,53552,5,0,0:0:0:0:
126,358,53699,1,0,0:0:0:0:
248,93,53846,1,0,0:0:0:0:
403,342,53993,1,0,0:0:0:0:
76,201,54140,1,0,0:0:0:0:
475,208,54287,5,0,0:0:0:0:
72,208,54434,1,0,0:0:0:0:
476,199,54581,1,0,0:0:0:0:
29,69,54728,6,0,P|135:33|204:30,1,165.000006294251
342,246,55022,1,0,0:0:0:0:
184,294,55169,1,0,0:0:0:0:
403,41,55317,5,0,0:0:0:0:
494,323,55464,1,0,0:0:0:0:
48,348,55611,1,0,0:0:0:0:
32,69,55758,1,0,0:0:0:0:
499,327,55905,6,0,P|355:360|167:370,1,330.000012588501
0,192,56346,1,0,0:0:0:0:
487,76,56493,2,0,P|503:191|505:293,1,165.000006294251
412,367,56787,2,0,B|336:376|336:376|228:371,1,165.000006294251
6,104,57081,5,0,0:0:0:0:
509,30,57228,1,0,0:0:0:0:
276,266,57375,5,0,0:0:0:0:
83,156,57522,2,0,P|201:80|383:31,1,330.000012588501
73,252,57964,2,0,P|84:153|117:75,1,165.000006294251
313,29,58258,5,0,0:0:0:0:
461,100,58405,1,0,0:0:0:0:
498,260,58552,1,0,0:0:0:0:
186,113,58699,5,0,0:0:0:0:
461,100,58846,1,0,0:0:0:0:
406,345,58993,1,0,0:0:0:0:
186,113,59140,1,0,0:0:0:0:
498,260,59287,1,0,0:0:0:0:
36,345,59434,5,0,0:0:0:0:
497,20,59728,5,0,0:0:0:0:
15,20,60022,5,0,0:0:0:0:
476,345,60169,1,0,0:0:0:0:
256,216,60317,1,0,0:0:0:0:
256,199,60390,1,0,0:0:0:0:
256,182,60464,1,0,0:0:0:0:
256,165,60537,1,0,0:0:0:0:
256,148,60611,6,0,P|287:58|352:10,1,165.000006294251
356,292,60905,1,0,0:0:0:0:
31,216,61052,1,0,0:0:0:0:
463,190,61199,5,0,0:0:0:0:
67,347,61346,1,0,0:0:0:0:
159,45,61493,1,0,0:0:0:0:
415,354,61640,6,0,P|212:366|65:350,1,330.000012588501
2,79,62081,1,0,0:0:0:0:
97,30,62228,2,0,P|300:18|447:34,1,330.000012588501
501,247,62669,5,0,0:0:0:0:
315,369,62817,1,0,0:0:0:0:
120,344,62964,2,0,P|42:298|-1:234,1,165.000006294251
472,134,63258,5,0,0:0:0:0:
0,275,63405,2,0,P|47:341|119:381,1,165.000006294251
328,23,63699,1,0,0:0:0:0:
81,218,63846,1,0,0:0:0:0:
392,381,63993,2,0,P|464:341|512:275,1,165.000006294251
184,23,64287,1,0,0:0:0:0:
256,344,64434,6,0,L|256:168,1,165.000006294251
8,184,64729,1,0,0:0:0:0:
22,272,64802,1,0,0:0:0:0:
73,347,64876,1,0,0:0:0:0:
160,369,64949,1,0,0:0:0:0:
256,352,65023,1,0,0:0:0:0:
352,369,65096,1,0,0:0:0:0:
439,347,65169,1,0,0:0:0:0:
490,272,65243,1,0,0:0:0:0:
504,184,65317,6,0,P|493:86|469:20,1,165.000006294251
41,23,65611,2,0,P|15:102|8:184,1,165.000006294251
439,347,65905,5,0,0:0:0:0:
369,62,66052,1,0,0:0:0:0:
137,345,66199,1,0,0:0:0:0:
504,184,66346,1,0,0:0:0:0:
176,33,66493,5,0,0:0:0:0:
137,345,66640,1,0,0:0:0:0:
439,347,66787,1,0,0:0:0:0:
369,62,66934,1,0,0:0:0:0:
15,96,67081,2,0,P|64:318|199:340,1,330.000012588501
182,111,67522,5,0,0:0:0:0:
104,48,67596,1,0,0:0:0:0:
15,96,67669,2,0,P|-17:196|-17:293,2,165.000006294251
496,95,68111,2,0,P|524:173|532:255,2,165.000006294251
96,328,68552,2,0,P|256:363|416:328,1,330.000012588501
416,56,68993,2,0,P|256:21|96:56,1,330.000012588501
96,328,69434,6,0,L|272:306,1,165.000006294251
416,56,69728,2,0,L|240:78,1,165.000006294251
86,317,70022,5,0,0:0:0:0:
121,352,70096,1,0,0:0:0:0:
169,359,70169,1,0,0:0:0:0:
218,361,70243,1,0,0:0:0:0:
259,333,70317,1,0,0:0:0:0:
279,288,70390,1,0,0:0:0:0:
277,238,70464,1,0,0:0:0:0:
247,198,70537,1,0,0:0:0:0:
187,167,70611,5,0,0:0:0:0:
131,201,70684,1,0,0:0:0:0:
126,267,70758,1,0,0:0:0:0:
179,305,70831,1,0,0:0:0:0:
245,305,70905,1,0,0:0:0:0:
290,257,70978,1,0,0:0:0:0:
296,190,71052,1,0,0:0:0:0:
263,132,71125,1,0,0:0:0:0:
186,98,71199,5,0,0:0:0:0:
108,125,71272,1,0,0:0:0:0:
56,190,71346,1,0,0:0:0:0:
51,271,71419,1,0,0:0:0:0:
85,346,71493,1,0,0:0:0:0:
159,382,71567,1,0,0:0:0:0:
240,373,71640,1,0,0:0:0:0:
315,338,71714,1,0,0:0:0:0:
374,233,71787,6,0,P|376:183|340:110,1,110
33,30,72375,5,0,0:0:0:0:
496,25,72817,5,0,0:0:0:0:
19,53,72965,1,0,0:0:0:0:
508,359,73552,5,0,0:0:0:0:
473,23,73699,1,0,0:0:0:0:
4,78,73846,1,0,0:0:0:0:
5,359,73993,1,0,0:0:0:0:
256,16,74140,1,0,0:0:0:0:
476,260,74434,5,0,0:0:0:0:
386,358,74508,1,0,0:0:0:0:
256,376,74581,1,0,0:0:0:0:
126,358,74655,1,0,0:0:0:0:
36,260,74728,2,0,P|30:157|35:125,1,110
256,32,75022,1,0,0:0:0:0:
481,150,75169,6,0,P|483:205|476:260,1,110
36,260,75464,2,0,P|30:157|35:125,1,110
418,42,75758,5,0,0:0:0:0:
233,336,75905,2,0,L|126:358,1,110
94,42,76199,5,0,0:0:0:0:
278,336,76346,2,0,L|386:358,1,110
24,360,76640,5,0,0:0:0:0:
192,112,76787,1,0,0:0:0:0:
416,208,76934,1,0,0:0:0:0:
6,225,77081,5,0,0:0:0:0:
25,116,77228,2,0,P|75:44|102:25,1,110
419,31,77522,2,0,P|460:68|487:116,1,110
416,208,77817,1,0,0:0:0:0:
256,296,77964,1,0,0:0:0:0:
96,208,78111,1,0,0:0:0:0:
272,112,78258,6,0,P|280:126|260:107,1,110
261,135,78454,6,0,P|269:149|249:130,1,110
250,158,78650,6,0,P|258:172|238:153,1,110
262,158,78846,6,0,P|254:172|274:153,1,110
251,135,79042,6,0,P|243:149|263:130,1,110
240,112,79238,6,0,P|232:126|252:107,1,110
256,32,79434,5,0,0:0:0:0:
256,344,80611,5,0,0:0:0:0:
172,338,81787,5,0,0:0:0:0:
451,220,82964,5,0,0:0:0:0:
393,278,83552,1,0,0:0:0:0:
312,55,84140,6,0,P|400:81|454:158,1,165.000006294251
256,192,84581,1,0,0:0:0:0:
66,135,84728,2,0,P|121:75|200:55,1,165.000006294251
53,317,85169,6,0,L|60:150,1,165.000006294251
138,58,85611,1,0,0:0:0:0:
256,24,85758,1,0,0:0:0:0:
372,59,85905,1,0,0:0:0:0:
470,347,86199,6,0,P|391:367|355:358,1,82.5000031471254
120,366,86493,2,0,P|38:361|-11:286,1,165.000006294251
36,100,86934,1,0,0:0:0:0:
476,100,87081,2,0,L|476:365,1,247.500009441376
385,219,87669,6,0,P|371:118|346:52,1,165.000006294251
162,59,88258,2,0,P|136:137|127:219,1,165.000006294251
256,328,88699,1,0,0:0:0:0:
256,288,88772,1,0,0:0:0:0:
256,240,88846,1,0,0:0:0:0:
28,357,89140,5,0,0:0:0:0:
496,368,89434,5,0,0:0:0:0:
256,24,89728,5,0,0:0:0:0:
28,357,90022,5,0,0:0:0:0:
306,223,90169,2,0,P|319:134|315:76,1,110
193,114,90464,2,0,P|195:169|206:223,1,110
496,368,90758,1,0,0:0:0:0:
417,122,90905,1,0,0:0:0:0:
63,237,91052,1,0,0:0:0:0:
300,347,91199,6,0,P|397:365|460:372,1,110
499,219,91493,1,0,0:0:0:0:
290,17,91640,1,0,0:0:0:0:
53,143,91787,1,0,0:0:0:0:
53,143,92081,5,0,0:0:0:0:
481,121,92522,2,0,P|431:70|392:55,1,110
53,143,92817,1,0,0:0:0:0:
173,352,92964,5,0,0:0:0:0:
465,252,93111,2,0,L|461:135,1,110
471,359,93405,1,0,0:0:0:0:
173,352,93552,6,0,P|136:343|106:326,1,55
291,182,93699,2,0,P|293:212|289:248,1,55
16,225,93846,2,0,P|14:195|18:159,1,55
134,55,93993,2,0,P|171:64|201:81,1,55
350,359,94140,2,0,P|443:366|506:339,1,110
504,122,94434,1,0,0:0:0:0:
53,32,94581,1,0,0:0:0:0:
31,344,94728,6,0,P|150:317|269:318,1,220
350,359,95169,2,0,P|443:366|506:339,1,110
171,242,95464,2,0,P|69:256|49:261,1,110
62,257,95758,5,0,0:0:0:0:
434,203,95905,1,0,0:0:0:0:
62,257,96052,5,0,0:0:0:0:
465,282,96199,1,0,0:0:0:0:
227,23,96346,1,0,0:0:0:0:
122,338,96493,1,0,0:0:0:0:
360,164,96640,5,0,0:0:0:0:
252,142,96787,2,0,P|160:153|110:179,1,110
51,264,97081,6,0,P|29:323|24:369,1,110
59,39,97375,1,0,0:0:0:0:
461,264,97669,5,0,0:0:0:0:
481,315,97742,1,0,0:0:0:0:
488,369,97816,1,0,0:0:0:0:
453,39,97964,1,0,0:0:0:0:
256,344,98111,1,0,0:0:0:0:
59,39,98258,6,0,P|139:34|185:44,1,110
267,104,98552,2,0,P|331:117|391:109,1,110
453,39,98846,1,0,0:0:0:0:
40,345,99140,1,0,0:0:0:0:
453,39,99434,6,0,P|495:95|510:256,1,220
468,340,99875,1,0,0:0:0:0:
366,298,100022,2,0,P|381:227|421:183,1,110
59,258,100317,1,0,0:0:0:0:
280,341,100464,1,0,0:0:0:0:
59,258,100611,6,0,P|42:197|47:142,1,110
78,46,100905,2,0,P|128:10|191:1,1,110
295,121,101199,2,0,P|376:128|489:224,1,220
482,211,101640,1,0,0:0:0:0:
78,46,101787,6,0,P|128:10|191:1,1,110
309,212,102081,1,0,0:0:0:0:
99,347,102228,2,0,P|99:242|123:123,1,220
78,46,102669,1,0,0:0:0:0:
212,296,102817,5,0,0:0:0:0:
99,347,102964,2,0,P|37:331|-13:299,1,110
383,269,103258,2,0,P|340:318|279:348,1,110
392,16,103552,2,0,P|411:97|410:157,1,110
99,347,103846,1,0,0:0:0:0:
24,178,103993,5,0,0:0:0:0:
108,107,104140,2,0,P|196:96|227:101,1,110
348,202,104434,1,0,0:0:0:0:
136,214,104581,1,0,0:0:0:0:
303,23,104728,1,0,0:0:0:0:
407,288,104875,1,0,0:0:0:0:
136,214,105022,1,0,0:0:0:0:
455,145,105169,1,0,0:0:0:0:
277,353,105317,6,0,P|215:349|154:328,1,110
277,353,105611,2,0,P|215:349|154:328,1,110
455,145,105905,2,0,P|460:221|406:358,1,220
49,341,106346,1,0,0:0:0:0:
130,28,106493,5,0,0:0:0:0:
489,354,106640,2,0,L|482:228,1,110
49,341,106934,1,0,0:0:0:0:
455,145,107081,5,0,0:0:0:0:
40,38,107228,2,0,P|17:101|12:185,1,110
150,360,107522,1,0,0:0:0:0:
436,36,107669,5,0,0:0:0:0:
259,369,107817,2,0,L|149:359,1,110
28,238,108111,1,0,0:0:0:0:
74,51,108258,5,0,0:0:0:0:
493,31,108405,1,0,0:0:0:0:
315,292,108552,2,0,P|261:233|248:195,1,110
237,64,108846,5,0,0:0:0:0:
266,39,108919,1,0,0:0:0:0:
304,39,108993,1,0,0:0:0:0:
338,57,109067,1,0,0:0:0:0:
358,89,109140,1,0,0:0:0:0:
350,126,109214,1,0,0:0:0:0:
326,155,109287,1,0,0:0:0:0:
287,159,109361,1,0,0:0:0:0:
236,138,109434,5,0,0:0:0:0:
202,94,109508,1,0,0:0:0:0:
151,73,109581,1,0,0:0:0:0:
95,77,109655,1,0,0:0:0:0:
54,113,109728,1,0,0:0:0:0:
36,165,109802,1,0,0:0:0:0:
54,216,109875,1,0,0:0:0:0:
101,244,109949,1,0,0:0:0:0:
170,230,110022,5,0,0:0:0:0:
224,183,110096,1,0,0:0:0:0:
294,190,110169,1,0,0:0:0:0:
340,245,110243,1,0,0:0:0:0:
328,315,110317,1,0,0:0:0:0:
278,365,110390,1,0,0:0:0:0:
206,365,110464,1,0,0:0:0:0:
164,307,110537,1,0,0:0:0:0:
152,219,110611,5,0,0:0:0:0:
184,137,110684,1,0,0:0:0:0:
259,89,110758,1,0,0:0:0:0:
346,95,110831,1,0,0:0:0:0:
424,135,110905,1,0,0:0:0:0:
460,214,110978,1,0,0:0:0:0:
492,296,111052,1,0,0:0:0:0:
504,382,111125,1,0,0:0:0:0:
504,382,111199,5,0,0:0:0:0:
256,192,111236,12,0,113258,0:0:0:0:
106,362,113405,6,0,P|82:355|53:326,1,55
32,45,113552,1,0,0:0:0:0:
489,139,113699,1,0,0:0:0:0:
256,360,113846,1,0,0:0:0:0:
480,45,113993,5,0,0:0:0:0:
23,139,114140,1,0,0:0:0:0:
256,360,114287,1,0,0:0:0:0:
256,24,114434,5,0,0:0:0:0:
256,360,114581,1,0,0:0:0:0:
364,37,114728,5,0,0:0:0:0:
429,281,114875,1,0,0:0:0:0:
148,37,115022,5,0,0:0:0:0:
83,281,115169,1,0,0:0:0:0:
472,104,115317,5,0,0:0:0:0:
468,196,115390,1,0,0:0:0:0:
429,281,115464,1,0,0:0:0:0:
347,326,115537,1,0,0:0:0:0:
256,344,115611,1,0,0:0:0:0:
165,326,115684,1,0,0:0:0:0:
83,281,115757,1,0,0:0:0:0:
44,196,115831,1,0,0:0:0:0:
40,104,115905,6,0,B|89:34|89:34|206:63|232:58,1,165.000006294251
345,51,116199,2,0,B|423:34|423:34|472:104,1,165.000006294251
21,344,116493,1,0,0:0:0:0:
256,48,116640,1,0,0:0:0:0:
491,344,116787,1,0,0:0:0:0:
205,381,116934,6,0,P|115:374|26:350,1,165.000006294251
0,33,117228,1,0,0:0:0:0:
320,192,117375,1,0,0:0:0:0:
21,344,117522,1,0,0:0:0:0:
105,27,117669,5,0,0:0:0:0:
27,341,117817,1,0,0:0:0:0:
256,120,117964,5,0,0:0:0:0:
2,249,118111,1,0,0:0:0:0:
357,345,118258,2,0,P|413:270|432:191,1,165.000006294251
256,24,118552,1,0,0:0:0:0:
80,202,118699,2,0,P|104:280|155:345,1,165.000006294251
421,75,118993,1,0,0:0:0:0:
256,360,119140,1,0,0:0:0:0:
91,75,119287,1,0,0:0:0:0:
489,157,119434,6,0,P|491:257|476:325,1,165.000006294251
34,320,119728,2,0,P|19:239|23:157,1,165.000006294251
351,30,120022,5,0,0:0:0:0:
462,357,120169,1,0,0:0:0:0:
50,357,120317,1,0,0:0:0:0:
161,30,120464,1,0,0:0:0:0:
489,157,120611,6,0,P|418:215|334:233,1,165.000006294251
163,232,120905,2,0,P|84:210|23:157,1,165.000006294251
256,24,121199,1,0,0:0:0:0:
398,332,121346,5,0,0:0:0:0:
50,357,121493,1,0,0:0:0:0:
476,41,121640,1,0,0:0:0:0:
36,41,121787,5,0,0:0:0:0:
50,357,121934,1,0,0:0:0:0:
462,357,122081,1,0,0:0:0:0:
476,41,122228,2,0,P|364:29|113:26,1,330.000012588501
438,289,122669,2,0,P|441:194|434:118,1,165.000006294251
27,202,122963,5,0,0:0:0:0:
271,349,123111,2,0,P|355:343|442:308,1,165.000006294251
128,50,123405,5,0,0:0:0:0:
83,334,123552,1,0,0:0:0:0:
336,192,123699,1,0,0:0:0:0:
21,96,123846,5,0,0:0:0:0:
256,352,123993,1,0,0:0:0:0:
491,96,124140,1,0,0:0:0:0:
491,96,124434,5,0,0:0:0:0:
491,96,124728,5,0,0:0:0:0:
21,96,124875,1,0,0:0:0:0:
24,305,125022,1,0,0:0:0:0:
136,359,125096,1,0,0:0:0:0:
256,384,125169,1,0,0:0:0:0:
376,359,125243,1,0,0:0:0:0:
488,305,125316,6,0,P|494:203|493:106,1,165.000006294251
17,140,125611,2,0,P|18:222|24:305,1,165.000006294251,0|0,0:0|0:0,0:0:0:0:
415,75,125905,1,0,0:0:0:0:
97,75,126052,1,0,0:0:0:0:
415,75,126199,1,0,0:0:0:0:
256,352,126346,6,0,L|256:128,1,176
21,29,126640,1,0,0:0:0:0:
482,227,126787,1,0,0:0:0:0:
136,364,126934,1,0,0:0:0:0:
466,130,127081,5,0,0:0:0:0:
136,364,127228,1,0,0:0:0:0:
21,29,127375,6,0,P|119:28|199:39,1,176
315,345,127669,2,0,P|403:356|491:355,1,176
504,24,127963,1,0,0:0:0:0:
8,360,128111,1,0,0:0:0:0:
414,196,128258,5,0,0:0:0:0:
256,32,128405,1,0,0:0:0:0:
98,196,128552,1,0,0:0:0:0:
256,352,128699,1,0,0:0:0:0:
256,32,128846,5,0,0:0:0:0:
256,360,128993,1,0,0:0:0:0:
501,167,129140,2,0,P|422:232|165:239,1,352
60,176,129508,5,0,0:0:0:0:
60,176,129581,2,0,P|33:134|21:83,1,88
108,314,129728,2,0,P|55:306|-4:279,1,88
307,327,129875,2,0,P|245:358|195:365,1,88
502,351,130022,2,0,P|434:271|184:267,1,352
201,256,130463,5,0,0:0:0:0:
441,172,130611,2,0,P|466:128|478:4,1,176
33,5,130905,1,0,0:0:0:0:
143,359,131052,1,0,0:0:0:0:
478,5,131199,5,0,0:0:0:0:
369,359,131346,1,0,0:0:0:0:
32,192,131493,1,0,0:0:0:0:
480,192,131640,1,0,0:0:0:0:
143,359,131787,6,0,P|31:317|2:250,1,176
33,5,132081,2,0,L|232:0,1,176
454,102,132375,6,0,B|514:190|499:348|499:348|479:322|450:259,1,352
59,263,132816,2,0,B|33:322|13:348|13:348|-2:190|58:102,1,352
424,280,133258,2,0,P|256:328|88:280,1,352
88,80,133699,2,0,P|257:33|424:80,1,352
22,371,134140,6,0,P|14:246|56:110,1,264
458,114,134434,2,0,P|497:239|490:371,1,264
88,80,134728,5,0,0:0:0:0:
168,45,134801,1,0,0:0:0:0:
255,33,134875,1,0,0:0:0:0:
342,44,134948,1,0,0:0:0:0:
422,79,135022,2,0,P|481:117|538:103,1,88
182,135,135169,2,0,P|222:124|295:126,1,88
381,216,135316,5,0,0:0:0:0:
397,257,135390,1,0,0:0:0:0:
393,300,135463,1,0,0:0:0:0:
376,340,135537,1,0,0:0:0:0:
336,360,135611,1,0,0:0:0:0:
293,368,135684,1,0,0:0:0:0:
250,356,135758,1,0,0:0:0:0:
217,326,135831,1,0,0:0:0:0:
188,261,135905,5,0,0:0:0:0:
255,244,135978,1,0,0:0:0:0:
256,314,136052,1,0,0:0:0:0:
196,350,136125,1,0,0:0:0:0:
128,327,136199,1,0,0:0:0:0:
93,266,136272,1,0,0:0:0:0:
115,198,136346,1,0,0:0:0:0:
182,180,136419,1,0,0:0:0:0:
295,223,136493,6,0,P|281:325|223:366,1,165.000006294251
295,223,137081,6,0,P|281:325|223:366,1,165.000006294251
39,33,137522,5,0,0:0:0:0:
295,223,137669,2,0,P|281:325|223:366,1,165.000006294251
473,33,138258,5,0,0:0:0:0:
39,33,138405,1,0,0:0:0:0:
497,117,138552,1,0,0:0:0:0:
15,117,138699,1,0,0:0:0:0:
295,223,138846,2,0,P|281:325|223:366,1,165.000006294251
130,377,139140,6,0,P|61:359|21:323,1,110
18,317,139361,1,0,0:0:0:0:
8,297,139434,1,0,0:0:0:0:
8,297,139728,5,0,0:0:0:0:
96,76,139875,2,0,P|130:86|160:107,1,55
203,273,140022,2,0,P|122:303|75:299,1,110
25,138,140316,5,0,0:0:0:0:
316,47,140463,1,0,0:0:0:0:
296,356,140611,2,0,P|276:257|291:122,1,220
316,47,141199,5,0,0:0:0:0:
380,211,141346,1,0,0:0:0:0:
164,165,141493,1,0,0:0:0:0:
433,103,141640,1,0,0:0:0:0:
442,319,141787,5,0,0:0:0:0:
408,339,141861,1,0,0:0:0:0:
371,349,141934,1,0,0:0:0:0:
332,355,142008,1,0,0:0:0:0:
294,350,142081,2,0,P|264:343|226:311,1,55
102,355,142228,2,0,P|102:321|111:290,1,55
10,217,142375,2,0,P|81:159|220:151,1,220
380,211,142816,5,0,0:0:0:0:
474,154,142963,2,0,P|472:75|453:38,1,110
166,258,143258,2,0,L|301:256,1,110
81,104,143552,1,0,0:0:0:0:
196,342,143699,1,0,0:0:0:0:
397,128,143846,5,0,0:0:0:0:
376,95,143919,1,0,0:0:0:0:
341,76,143993,1,0,0:0:0:0:
303,68,144066,1,0,0:0:0:0:
264,69,144140,2,0,P|204:95|155:240,1,220
336,272,144508,1,0,0:0:0:0:
328,234,144581,1,0,0:0:0:0:
318,196,144655,1,0,0:0:0:0:
309,158,144728,1,0,0:0:0:0:
130,34,144875,5,0,0:0:0:0:
62,207,145022,1,0,0:0:0:0:
336,272,145169,1,0,0:0:0:0:
309,158,145316,2,0,P|228:141|74:194,1,220
281,350,145758,5,0,0:0:0:0:
390,335,145905,2,0,P|452:290|486:226,1,110
499,157,146199,2,0,P|499:74|482:20,1,110
24,329,146493,2,0,P|109:358|248:358,1,220
117,193,146861,5,0,0:0:0:0:
85,238,146934,1,0,0:0:0:0:
53,283,147008,1,0,0:0:0:0:
24,329,147081,2,0,P|121:345|238:319,2,220
117,193,147743,5,0,0:0:0:0:
162,163,147816,1,0,0:0:0:0:
216,153,147890,1,0,0:0:0:0:
296,190,147963,5,0,0:0:0:0:
335,228,148037,1,0,0:0:0:0:
391,235,148111,1,0,0:0:0:0:
444,225,148184,1,0,0:0:0:0:
484,126,148258,5,0,0:0:0:0:
468,73,148331,1,0,0:0:0:0:
424,38,148405,1,0,0:0:0:0:
363,37,148478,1,0,0:0:0:0:
272,109,148552,5,0,0:0:0:0:
227,140,148625,1,0,0:0:0:0:
175,160,148699,1,0,0:0:0:0:
120,156,148772,1,0,0:0:0:0:
66,73,148846,6,0,B|107:12|170:76|170:76|155:119|112:164,1,220
23,276,149213,1,0,0:0:0:0:
59,317,149287,1,0,0:0:0:0:
109,339,149361,1,0,0:0:0:0:
160,355,149434,2,0,P|238:359|380:307,1,220
370,313,149875,5,0,0:0:0:0:
41,132,150022,2,0,P|27:208|33:373,1,220
386,328,150463,1,0,0:0:0:0:
350,60,150611,2,0,P|222:46|120:50,1,220
486,158,151052,5,0,0:0:0:0:
432,88,151125,1,0,0:0:0:0:
350,60,151199,2,0,P|238:73|114:143,1,220
308,204,151566,1,0,0:0:0:0:
363,204,151640,1,0,0:0:0:0:
417,205,151713,1,0,0:0:0:0:
472,207,151787,1,0,0:0:0:0:
477,211,152081,6,0,L|358:197,1,110
123,310,152375,2,0,P|49:301|-28:176,1,220
256,32,152816,1,0,0:0:0:0:
512,187,152963,2,0,P|492:283|389:310,1,220
8,223,153405,5,0,0:0:0:0:
36,176,153478,1,0,0:0:0:0:
86,153,153552,2,0,P|151:142|290:212,1,220
27,327,153919,1,0,0:0:0:0:
5,277,153993,1,0,0:0:0:0:
8,223,154066,1,0,0:0:0:0:
36,176,154140,1,0,0:0:0:0:
301,100,154287,5,0,0:0:0:0:
172,308,154434,1,0,0:0:0:0:
46,29,154581,1,0,0:0:0:0:
301,100,154728,2,0,P|308:204|295:289,1,165
454,98,155022,2,0,P|400:53|338:39,1,110
255,345,155316,2,0,P|149:356|29:306,1,220
30,144,155758,5,0,0:0:0:0:
137,166,155905,2,0,P|196:221|209:279,1,110
256,40,156199,1,0,0:0:0:0:
306,246,156346,1,0,0:0:0:0:
331,198,156419,1,0,0:0:0:0:
375,165,156493,1,0,0:0:0:0:
490,298,156640,5,0,0:0:0:0:
256,368,156787,1,0,0:0:0:0:
22,298,156934,1,0,0:0:0:0:
489,304,157081,6,0,P|416:355|331:378,1,165
168,376,157375,2,0,P|89:351|23:304,1,165
256,80,157669,2,0,L|256:328,1,220
256,72,158111,5,0,0:0:0:0:
256,64,158184,1,0,0:0:0:0:
256,56,158258,1,0,0:0:0:0:
256,352,159287,5,0,0:0:0:0:
256,224,159361,1,0,0:0:0:0:
256,104,159434,1,0,0:0:0:0:
27,152,160316,5,0,0:0:0:0:
69,50,160463,1,0,0:0:0:0:
148,127,160611,1,0,0:0:0:0:
485,152,161493,5,0,0:0:0:0:
443,50,161640,1,0,0:0:0:0:
364,127,161788,1,0,0:0:0:0:
24,267,162669,6,0,P|60:315|161:337,1,165.000006294251
256,256,163258,1,0,0:0:0:0:
353,337,163552,2,0,P|433:326|488:267,1,165.000006294251
256,48,164140,2,0,L|256:240,1,165.000006294251
256,288,164728,1,0,0:0:0:0:
480,152,165022,5,0,0:0:0:0:
256,24,165169,1,0,0:0:0:0:
32,152,165316,1,0,0:0:0:0:
480,232,165611,5,0,0:0:0:0:
256,360,165758,1,0,0:0:0:0:
32,232,165905,1,0,0:0:0:0:
445,314,166199,5,0,0:0:0:0:
337,55,166346,1,0,0:0:0:0:
92,294,166493,1,0,0:0:0:0:
67,70,166787,5,0,0:0:0:0:
175,329,166934,1,0,0:0:0:0:
420,90,167081,1,0,0:0:0:0:
256,200,167375,6,0,B|217:160|305:138|313:232|203:226,2,165.000006294251
290,269,168258,2,0,P|334:207|293:132,1,165.000006294251
174,339,168846,2,0,P|264:359|369:350,1,165.000006294251
436,82,169434,1,0,0:0:0:0:
433,92,169728,5,0,0:0:0:0:
356,143,169875,1,0,0:0:0:0:
267,161,170022,2,0,P|218:158|118:97,1,165.000006294251
332,235,170611,2,0,P|398:250|476:322,1,165.000006294251
41,312,171199,2,0,P|101:256|180:235,1,165.000006294251
391,346,171787,5,0,0:0:0:0:
473,50,172081,1,0,0:0:0:0:
39,50,172375,5,0,0:0:0:0:
121,346,172669,1,0,0:0:0:0:
479,250,172963,5,0,0:0:0:0:
256,24,173258,1,0,0:0:0:0:
33,250,173552,1,0,0:0:0:0:
256,312,174434,6,0,L|256:192,1,82.5000031471254
256,120,174728,5,0,0:0:0:0:
324,60,174875,1,0,0:0:0:0:
414,58,175022,1,0,0:0:0:0:
449,277,175169,5,0,0:0:0:0:
371,230,175316,1,0,0:0:0:0:
346,142,175463,1,0,0:0:0:0:
166,142,175611,5,0,0:0:0:0:
141,230,175758,1,0,0:0:0:0:
63,277,175905,1,0,0:0:0:0:
98,58,176052,5,0,0:0:0:0:
188,60,176199,1,0,0:0:0:0:
256,120,176346,1,0,0:0:0:0:
256,216,176493,2,0,L|256:330,1,110
256,326,177081,6,0,L|256:216,1,110
256,32,177375,1,0,0:0:0:0:
40,328,177669,6,0,P|125:351|166:349,1,110
472,328,177963,1,0,0:0:0:0:
472,56,178258,6,0,P|387:33|346:35,1,110
40,56,178552,1,0,0:0:0:0:
382,314,178846,6,0,P|386:210|380:173,1,110
21,354,179140,1,0,0:0:0:0:
130,70,179434,6,0,P|126:174|132:211,1,110
388,327,179728,2,0,P|458:342|516:344,1,110
382,70,180022,6,0,P|386:174|380:211,1,110
124,327,180316,2,0,P|54:342|-4:344,1,110
256,32,180611,5,0,0:0:0:0:
480,192,180905,1,0,0:0:0:0:
256,352,181199,1,0,0:0:0:0:
32,192,181493,1,0,0:0:0:0:
32,208,181787,5,0,0:0:0:0:
25,178,181861,1,0,0:0:0:0:
95,206,181934,5,0,0:0:0:0:
88,176,182008,1,0,0:0:0:0:
160,208,182081,5,0,0:0:0:0:
153,178,182155,1,0,0:0:0:0:
223,206,182228,5,0,0:0:0:0:
216,176,182302,1,0,0:0:0:0:
288,208,182375,5,0,0:0:0:0:
281,178,182449,1,0,0:0:0:0:
351,206,182522,5,0,0:0:0:0:
344,176,182596,1,0,0:0:0:0:
416,208,182669,5,0,0:0:0:0:
409,178,182743,1,0,0:0:0:0:
479,206,182816,5,0,0:0:0:0:
472,176,182890,1,0,0:0:0:0:
464,134,182963,5,0,0:0:0:0:
141,50,183111,1,0,0:0:0:0:
256,344,183258,1,0,0:0:0:0:
371,50,183405,1,0,0:0:0:0:
48,134,183552,5,0,0:0:0:0:
32,227,183625,1,0,0:0:0:0:
81,309,183699,1,0,0:0:0:0:
163,355,183772,1,0,0:0:0:0:
256,376,183846,1,0,0:0:0:0:
349,355,183919,1,0,0:0:0:0:
431,309,183992,1,0,0:0:0:0:
480,227,184066,1,0,0:0:0:0:
464,134,184140,6,0,P|395:28|290:8,1,220
256,360,184434,1,0,0:0:0:0:
202,5,184581,2,0,P|100:40|48:134,1,220
22,368,184875,1,0,0:0:0:0:
490,368,185022,1,0,0:0:0:0:
256,96,185169,5,0,0:0:0:0:
115,353,185316,1,0,0:0:0:0:
458,183,185463,1,0,0:0:0:0:
47,34,185611,1,0,0:0:0:0:
392,384,185758,2,0,P|452:267|457:177,1,220
154,24,186052,5,0,0:0:0:0:
22,286,186199,2,0,P|153:253|255:271,1,220
392,384,186493,6,0,P|452:267|457:177,1,220
256,24,186787,1,0,0:0:0:0:
54,180,186934,2,0,P|66:289|120:384,1,220
496,16,187228,1,0,0:0:0:0:
256,368,187375,1,0,0:0:0:0:
16,16,187522,1,0,0:0:0:0:
496,16,187669,6,0,P|510:140|503:267,1,220
18,358,187963,1,0,0:0:0:0:
256,24,188111,5,0,0:0:0:0:
497,346,188258,2,0,P|355:372|266:365,1,220
16,16,188552,1,0,0:0:0:0:
135,338,188699,1,0,0:0:0:0:
256,24,188846,6,0,P|384:42|486:76,1,220
41,69,189140,2,0,P|146:37|256:24,1,220
370,258,189434,1,0,0:0:0:0:
0,168,189581,5,0,0:0:0:0:
440,8,189728,1,0,0:0:0:0:
512,360,189875,1,0,0:0:0:0:
0,168,190022,6,0,P|88:70|176:25,1,220
512,360,190316,1,0,0:0:0:0:
15,325,190463,2,0,P|22:165|249:15,1,440
322,355,190905,2,0,L|58:347,1,220
398,41,191199,5,0,0:0:0:0:
512,360,191346,1,0,0:0:0:0:
398,41,191493,1,0,0:0:0:0:
139,165,191640,5,0,0:0:0:0:
491,79,191787,1,0,0:0:0:0:
139,165,191934,2,0,P|43:242|-11:335,1,220
36,35,192228,1,0,0:0:0:0:
512,323,192375,6,0,P|459:231|373:165,1,220
139,165,192669,2,0,P|43:242|-11:335,1,220
256,368,192963,1,0,0:0:0:0:
256,16,193111,1,0,0:0:0:0:
256,16,193258,5,0,0:0:0:0:
256,104,193331,1,0,0:0:0:0:
256,192,193405,1,0,0:0:0:0:
256,280,193478,1,0,0:0:0:0:
256,368,193552,5,0,0:0:0:0:
444,165,193699,1,0,0:0:0:0:
66,51,193846,1,0,0:0:0:0:
112,347,193993,1,0,0:0:0:0:
369,21,194140,5,0,0:0:0:0:
52,242,194287,1,0,0:0:0:0:
471,358,194434,1,0,0:0:0:0:
66,51,194581,6,0,P|-2:149|-11:257,1,165.000006294251
496,192,194875,1,0,0:0:0:0:
180,28,195022,1,0,0:0:0:0:
0,293,195169,2,0,P|72:346|315:351,1,330.000012588501
385,57,195611,6,0,L|177:25,1,165.000006294251
471,358,195905,1,0,0:0:0:0:
51,64,196052,2,0,P|63:166|119:253,1,165.000006294251
461,64,196346,5,0,0:0:0:0:
256,360,196493,1,0,0:0:0:0:
51,64,196640,1,0,0:0:0:0:
461,64,196787,1,0,0:0:0:0:
256,360,196934,2,0,P|128:349|1:193,1,330.000012588501
508,202,197375,5,0,0:0:0:0:
256,360,197522,1,0,0:0:0:0:
3,202,197669,2,0,P|-1:155|0:104,1,82.5000031471254
216,40,197816,2,0,P|255:32|296:40,1,82.5000031471254
508,181,197963,2,0,P|513:229|512:280,1,82.5000031471254
296,343,198111,2,0,P|256:352|216:344,1,82.5000031471254
3,202,198258,6,0,P|-1:155|13:6,1,165.000006294251
343,112,198552,1,0,0:0:0:0:
43,288,198699,1,0,0:0:0:0:
203,34,198846,1,0,0:0:0:0:
484,338,198993,6,0,P|336:354|260:347,1,165.000006294251
36,278,199287,1,0,0:0:0:0:
414,34,199434,6,0,P|480:108|503:203,1,165.000006294251
256,24,199728,1,0,0:0:0:0:
98,350,199875,6,0,P|32:276|11:151,1,192.500001835823
414,34,200169,1,0,0:0:0:0:
98,350,200316,1,0,0:0:0:0:
98,350,200611,6,0,B|-4:291|-4:291|281:361,1,385.000003671646
414,350,201052,2,0,B|516:291|516:291|231:361,1,385.000003671646
134,192,201493,6,0,B|158:62|158:62|260:366,1,440
378,192,201934,2,0,B|354:62|354:62|252:366,1,440
256,0,202375,6,0,L|256:360,1,330
256,24,202669,6,0,L|256:384,1,330
80,365,202963,6,0,P|20:316|-13:264,1,110
84,342,203111,6,0,P|24:293|-9:241,1,110
89,316,203258,6,0,P|29:267|-4:215,1,110
93,293,203406,6,0,P|33:244|0:192,1,110
99,274,203552,6,0,P|39:225|6:173,1,110
103,251,203700,6,0,P|43:202|10:150,1,110
108,225,203847,6,0,P|48:176|11:107,1,146.666666666667
58,25,204042,1,0,0:0:0:0:
158,6,204140,2,0,P|218:55|255:124,9,146.666666666667
251,142,205316,6,0,P|152:215|54:190,1,220
448,196,205758,6,0,P|342:211|267:148,1,165
216,184,205905,2,0,P|142:216|23:154,1,220
448,196,206493,6,0,P|342:211|267:148,1,165
216,184,206640,2,0,P|142:216|63:196,1,165
466,31,206787,2,0,L|483:214,1,165
30,195,206934,2,0,L|46:31,1,165
256,256,207081,2,0,L|257:372,1,110
27,96,207375,5,0,0:0:0:0:
133,36,207449,1,0,0:0:0:0:
256,24,207522,1,0,0:0:0:0:
379,36,207596,1,0,0:0:0:0:
485,96,207669,2,0,P|546:211|569:301,1,220
485,96,208111,6,0,P|546:211|566:290,1,165
325,260,208258,2,0,P|359:168|466:98,1,220
485,96,208846,6,0,P|546:211|566:290,1,165
325,260,208993,2,0,P|359:168|436:108,1,165
505,344,209140,2,0,L|327:343,1,165
205,306,209287,2,0,L|27:305,1,165
0,190,209434,1,0,0:0:0:0:
20,69,209508,1,0,0:0:0:0:
130,22,209581,1,0,0:0:0:0:
250,42,209655,1,0,0:0:0:0:
300,151,209728,1,0,0:0:0:0:
284,271,209802,1,0,0:0:0:0:
174,319,209875,1,0,0:0:0:0:
53,298,209949,1,0,0:0:0:0:
0,190,210022,6,0,P|14:84|46:23,1,123.200001503906
355,41,210316,1,0,0:0:0:0:
174,319,210463,2,0,L|39:295,1,123.200001503906
174,319,210758,2,0,L|39:295,1,123.200001503906
369,30,211052,5,0,0:0:0:0:
484,235,211199,2,0,P|497:302|498:362,1,123.200001503906
14,356,211493,5,0,0:0:0:0:
498,356,211640,2,0,P|496:295|484:235,1,123.200001503906
256,24,211934,1,0,0:0:0:0:
14,356,212081,2,0,P|116:369|152:363,1,123.200001503906
396,241,212375,5,0,0:0:0:0:
128,39,212522,1,0,0:0:0:0:
14,356,212669,1,0,0:0:0:0:
396,241,212816,2,0,B|359:179|313:127|313:127,1,123.200001503906
17,232,213111,2,0,B|9:303|15:372|15:372,1,123.200001503906
392,338,213405,5,0,0:0:0:0:
256,24,213552,1,0,0:0:0:0:
159,283,213699,1,0,0:0:0:0:
491,102,213846,1,0,0:0:0:0:
21,102,213993,2,0,P|23:181|41:250,1,123.200001503906
383,155,214287,2,0,P|240:138|134:157,1,246.400003007813
471,327,214728,6,0,P|461:228|449:184,1,123.200001503906
135,37,215022,1,0,0:0:0:0:
339,352,215169,2,0,L|472:328,1,123.200001503906
339,352,215463,2,0,L|472:328,1,123.200001503906
45,333,215758,5,0,0:0:0:0:
256,54,215905,2,0,P|176:38|122:37,1,123.200001503906
25,341,216199,5,0,0:0:0:0:
339,182,216346,2,0,P|404:123|423:77,1,123.200001503906
26,30,216640,5,0,0:0:0:0:
176,380,216787,1,0,0:0:0:0:
369,22,216934,1,0,0:0:0:0:
18,226,217081,5,0,0:0:0:0:
256,128,217228,1,0,0:0:0:0:
494,226,217375,5,0,0:0:0:0:
256,128,217522,1,0,0:0:0:0:
85,359,217669,5,0,0:0:0:0:
256,104,217816,1,0,0:0:0:0:
427,359,217963,5,0,0:0:0:0:
256,104,218110,1,0,0:0:0:0:
48,32,218258,5,0,0:0:0:0:
304,352,218405,1,0,0:0:0:0:
464,32,218552,5,0,0:0:0:0:
208,352,218699,1,0,0:0:0:0:
27,137,218846,5,0,0:0:0:0:
427,285,218993,1,0,0:0:0:0:
27,247,219140,5,0,0:0:0:0:
427,99,219287,1,0,0:0:0:0:
16,32,219434,5,0,0:0:0:0:
456,40,219581,1,0,0:0:0:0:
501,159,219728,5,0,0:0:0:0:
76,126,219875,1,0,0:0:0:0:
20,263,220022,5,0,0:0:0:0:
406,207,220169,1,0,0:0:0:0:
496,358,220316,5,0,0:0:0:0:
115,312,220463,1,0,0:0:0:0:
122,28,220611,5,0,0:0:0:0:
421,355,220758,1,0,0:0:0:0:
347,48,220905,5,0,0:0:0:0:
13,351,221052,1,0,0:0:0:0:
478,270,221199,5,0,0:0:0:0:
14,68,221346,1,0,0:0:0:0:
93,360,221493,5,0,0:0:0:0:
482,43,221640,1,0,0:0:0:0:
122,28,221787,5,0,0:0:0:0:
256,192,221824,12,0,224140,0:0:0:0:
