osu file format v14

[General]
AudioFilename: True truly love.mp3
AudioLeadIn: 2000
PreviewTime: 51408
Countdown: 0
SampleSet: Soft
StackLeniency: 1
Mode: 0
LetterboxInBreaks: 0
WidescreenStoryboard: 1

[Editor]
DistanceSpacing: 1.2
BeatDivisor: 4
GridSize: 4
TimelineZoom: 3.100001

[Metadata]
Title:True Truly love
TitleUnicode:True Truly love
Artist:Horie Yui
ArtistUnicode:堀江由衣
Creator:toara_fict
Version:Insane
Source:DIVINA
Tags:Short KinomiCandy CloudSplash16 mingmichael ts8zs
BeatmapID:506538
BeatmapSetID:123967

[Difficulty]
HPDrainRate:7
CircleSize:4
OverallDifficulty:7
ApproachRate:9
SliderMultiplier:1.6
SliderTickRate:2

[Events]
//Background and Video events
0,0,"BG.jpg",0,0
//Break Periods
//Storyboard Layer 0 (Background)
//Storyboard Layer 1 (Fail)
//Storyboard Layer 2 (Pass)
//Storyboard Layer 3 (Foreground)
//Storyboard Sound Samples

[TimingPoints]
820,294.117647058824,4,1,0,80,1,0
820,-125,4,1,0,80,0,0
5525,-100,4,1,0,80,0,0
13761,-100,4,2,0,80,0,0
14937,-100,4,2,0,60,0,0
25231,-66.6666666666667,4,2,0,60,0,0
25525,-100,4,2,1,80,0,0
29055,-100,4,2,0,80,0,0
30231,-100,4,2,1,80,0,0
32584,-100,4,2,0,60,0,0
34349,-100,4,2,0,70,0,0
51408,-83.3333333333333,4,2,1,100,0,1
77290,-100,4,1,0,80,0,0
89128,-100,4,2,0,5,0,0

[HitObjects]
80,128,820,6,0,P|60:192|84:244,1,128,2|0,0:0|0:0,0:0:0:0:
192,314,1408,1,2,0:0:0:0:
320,314,1702,1,0,0:0:0:0:
432,256,1996,6,0,P|452:192|428:140,1,128,2|0,0:0|0:0,0:0:0:0:
320,72,2584,1,2,0:0:0:0:
192,72,2878,1,0,0:0:0:0:
256,192,3172,6,0,L|384:192,1,128,2|0,0:0|0:0,0:0:0:0:
256,192,3761,2,0,L|128:192,1,128,2|0,0:0|0:0,0:0:0:0:
256,192,4349,12,4,5525,0:0:0:0:
101,115,5820,5,8,0:0:0:0:
41,190,5967,2,0,P|30:266|82:327,1,160
122,241,6408,1,8,0:0:0:0:
180,165,6555,1,0,0:0:0:0:
243,92,6702,6,0,P|302:42|379:53,1,160,0|8,0:0|0:0,0:0:0:0:
441,125,7143,1,0,0:0:0:0:
375,321,7437,1,0,0:0:0:0:
315,147,7584,1,8,0:0:0:0:
487,290,7731,1,0,0:0:0:0:
417,224,7878,6,0,P|337:220|279:275,1,160,0|8,0:0|0:0,0:0:0:0:
223,348,8320,1,0,0:0:0:0:
223,348,8614,1,0,0:0:0:0:
193,155,8761,1,8,0:0:0:0:
339,219,8908,1,0,0:0:0:0:
186,262,9055,6,0,P|113:227|92:130,1,160,0|8,0:0|0:0,0:0:0:0:
104,61,9496,1,0,0:0:0:0:
295,61,9790,2,0,P|334:58|372:69,1,80,0|8,0:0|0:0,0:0:0:0:
404,160,10084,2,0,P|364:162|326:151,1,80,0|4,0:0|0:0,0:0:0:0:
237,114,10378,5,0,0:0:0:0:
147,80,10525,1,8,0:0:0:0:
71,139,10672,2,0,P|26:200|45:284,1,160
131,321,11114,1,8,0:0:0:0:
219,274,11261,1,0,0:0:0:0:
270,195,11408,6,0,P|194:180|131:226,1,160,0|8,0:0|0:0,0:0:0:0:
131,226,11849,1,0,0:0:0:0:
290,334,12143,2,0,P|329:335|366:321,1,80,0|8,0:0|0:0,0:0:0:0:
407,234,12437,1,0,0:0:0:0:
384,90,12584,6,0,P|351:67|314:52,1,80,8|0,0:0|0:0,0:0:0:0:
252,225,12878,2,0,P|284:247|321:262,1,80,8|0,0:0|0:0,0:0:0:0:
407,234,13172,2,0,P|429:201|444:164,1,80,8|0,0:0|0:0,0:0:0:0:
227,88,13467,2,0,P|204:120|189:157,1,80,8|0,0:0|0:0,0:0:0:0:
177,253,13761,5,8,0:0:0:0:
202,292,14055,1,8,0:0:0:0:
245,313,14349,1,8,0:0:0:0:
290,327,14643,1,8,0:0:0:0:
258,105,14937,5,4,0:0:0:0:
77,40,15231,2,0,P|45:104|45:145,1,80,8|0,0:0|0:0,0:0:0:0:
45,207,15525,1,0,0:0:0:0:
45,207,15820,1,8,0:0:0:0:
124,260,15967,6,0,P|165:272|209:276,1,80
288,234,16261,2,0,P|327:238|365:249,1,80,0|8,0:0|0:0,0:0:0:0:
442,307,16555,1,0,0:0:0:0:
419,116,16702,1,0,0:0:0:0:
419,116,16996,1,8,0:0:0:0:
419,116,17290,5,0,0:0:0:0:
243,38,17584,2,0,P|181:55|146:70,1,80,8|0,0:0|0:0,0:0:0:0:
136,151,17878,2,0,P|198:134|233:119,1,80
310,73,18172,1,8,0:0:0:0:
422,83,18320,1,0,0:0:0:0:
361,177,18467,6,0,P|333:233|318:256,1,80,8|0,0:0|0:0,0:0:0:0:
190,300,18761,1,8,0:0:0:0:
190,300,19055,2,0,P|218:244|233:221,1,80,8|0,0:0|0:0,0:0:0:0:
362,178,19349,1,8,0:0:0:0:
362,178,19643,5,0,0:0:0:0:
303,102,19790,2,0,P|265:88|225:88,1,80,0|8,0:0|0:0,0:0:0:0:
161,159,20084,2,0,P|198:172|238:172,2,80,0|0|0,0:0|0:0|0:0,0:0:0:0:
68,183,20525,1,8,0:0:0:0:
67,278,20672,6,0,P|135:318|214:323,1,160
310,310,21114,1,8,0:0:0:0:
384,249,21261,1,0,0:0:0:0:
415,157,21408,2,0,P|424:119|421:79,1,80
327,100,21702,2,0,P|317:138|320:178,1,80,8|0,0:0|0:0,0:0:0:0:
384,250,21996,5,0,0:0:0:0:
193,226,22290,1,8,0:0:0:0:
139,146,22437,1,0,0:0:0:0:
169,55,22584,1,0,0:0:0:0:
360,40,22878,1,8,0:0:0:0:
414,120,23025,1,0,0:0:0:0:
392,213,23172,2,0,P|354:281|282:313,1,160,0|8,0:0|0:0,0:0:0:0:
70,267,23761,2,0,P|108:198|180:166,1,160,0|8,0:0|0:0,0:0:0:0:
196,361,24349,5,8,0:0:0:0:
211,315,24643,1,8,0:0:0:0:
234,272,24937,1,8,0:0:0:0:
262,232,25231,6,0,B|321:172|368:201|372:248|320:277|283:249|293:194|380:152,1,240.000009155274,8|4,0:0|0:0,0:0:0:0:
436,100,25672,1,0,0:0:0:0:
424,208,25820,1,8,0:0:0:0:
253,97,25967,1,0,0:0:0:0:
253,97,26261,1,0,0:0:0:0:
94,100,26408,2,0,P|77:136|78:176,1,80,8|0,0:0|0:0,0:0:0:0:
164,343,26702,5,0,0:0:0:0:
282,323,26849,1,0,0:0:0:0:
189,245,26997,2,0,P|112:258|70:323,1,160,8|0,0:0|0:0,0:0:0:0:
190,245,27584,1,8,0:0:0:0:
347,196,27878,5,0,0:0:0:0:
450,257,28025,1,0,0:0:0:0:
349,320,28172,1,8,0:0:0:0:
198,73,28467,1,0,0:0:0:0:
198,73,28540,1,0,0:0:0:0:
198,73,28614,1,0,0:0:0:0:
126,136,28761,2,0,P|96:174|87:218,1,80,8|0,0:0|0:0,0:0:0:0:
119,294,29055,5,8,0:0:0:0:
155,325,29349,1,8,0:0:0:0:
202,331,29643,1,8,0:0:0:0:
248,319,29937,1,8,0:0:0:0:
403,206,30231,6,0,P|386:169|358:141,1,80,4|0,0:0|0:0,0:0:0:0:
213,144,30525,1,8,0:0:0:0:
287,204,30672,1,0,0:0:0:0:
291,107,30820,2,0,P|274:70|246:42,1,80
150,50,31114,1,8,0:0:0:0:
90,125,31261,6,0,P|65:199|89:274,1,160
164,335,31702,1,8,0:0:0:0:
309,209,31849,1,0,0:0:0:0:
228,157,31996,2,0,P|215:194|216:234,1,80
309,209,32290,2,0,P|321:171|320:131,1,80,8|0,0:0|0:0,0:0:0:0:
256,60,32584,5,4,0:0:0:0:
133,134,32731,1,0,0:0:0:0:
256,324,33172,5,4,0:0:0:0:
379,250,33319,1,0,0:0:0:0:
164,88,33761,5,4,0:0:0:0:
355,92,34055,1,4,0:0:0:0:
256,253,34349,1,4,0:0:0:0:
77,210,34643,1,8,0:0:0:0:
77,210,34717,1,8,0:0:0:0:
77,210,34790,1,8,0:0:0:0:
77,210,34864,1,8,0:0:0:0:
77,210,34937,6,0,P|91:286|155:330,1,160,4|8,0:0|0:0,0:0:0:0:
192,220,35378,1,0,0:0:0:0:
292,130,35525,2,0,P|331:126|372:146,1,80,0|0,0:0|0:0,0:0:0:0:
396,277,35820,2,0,P|356:280|312:260,1,80,8|0,0:0|0:0,0:0:0:0:
192,220,36114,6,0,P|120:174|91:97,2,160,0|8|0,0:0|0:0|0:0,0:0:0:0:
328,189,36849,1,0,0:0:0:0:
311,51,36996,1,8,0:0:0:0:
212,44,37143,1,0,0:0:0:0:
206,144,37290,6,0,P|279:123|310:36,1,160,0|8,0:0|0:0,0:0:0:0:
212,44,37731,1,0,0:0:0:0:
196,235,37878,2,0,P|219:267|250:291,1,80
386,244,38172,2,0,P|363:212|332:188,1,80,8|0,0:0|0:0,0:0:0:0:
185,146,38467,5,8,0:0:0:0:
138,154,38761,1,8,0:0:0:0:
100,184,39055,1,8,0:0:0:0:
87,230,39349,1,8,0:0:0:0:
246,336,39643,6,0,P|295:325|322:309,1,80,8|0,0:0|0:0,0:0:0:0:
373,230,39937,1,8,0:0:0:0:
373,230,40084,1,0,0:0:0:0:
401,138,40231,2,0,P|444:172|460:204,1,80,8|0,0:0|0:0,0:0:0:0:
272,250,40525,2,0,P|229:216|213:184,1,80,8|0,0:0|0:0,0:0:0:0:
181,104,40820,6,0,P|258:107|309:166,2,160,8|8|8,0:0|0:0|0:0,0:0:0:0:
83,268,41555,1,0,0:0:0:0:
173,236,41702,1,8,0:0:0:0:
88,63,41996,5,4,0:0:0:0:
265,135,42143,1,0,0:0:0:0:
84,198,42290,1,8,0:0:0:0:
190,38,42437,1,0,0:0:0:0:
194,229,42584,2,0,P|138:293|62:310,1,160,4|8,0:0|0:0,0:0:0:0:
162,143,43025,1,0,0:0:0:0:
326,42,43172,6,0,P|370:106|369:185,1,160,4|8,0:0|0:0,0:0:0:0:
292,256,43614,1,0,0:0:0:0:
225,176,43761,2,0,P|298:151|368:184,1,160,4|8,0:0|0:0,0:0:0:0:
254,34,44349,5,0,0:0:0:0:
113,284,44937,1,0,0:0:0:0:
400,284,45525,5,8,0:0:0:0:
254,34,46114,1,8,0:0:0:0:
256,192,46702,5,12,0:0:0:0:
256,192,46775,12,0,48761,0:0:0:0:
152,94,49055,6,0,P|128:138|128:204,1,80,4|8,0:0|0:0,0:0:0:0:
219,273,49349,1,8,0:0:0:0:
362,285,49496,2,0,P|386:241|386:175,1,80,4|8,0:0|0:0,0:0:0:0:
295,106,49790,1,8,0:0:0:0:
224,301,49937,1,4,0:0:0:0:
283,206,50084,1,8,0:0:0:0:
106,132,50231,6,0,L|64:116,2,40,0|0|0,0:0|0:0|0:0,0:0:0:0:
196,166,50525,2,0,L|236:150,2,40,8|0|0,0:0|0:0|0:0,0:0:0:0:
132,238,50820,1,0,0:0:0:0:
132,238,50893,1,0,0:0:0:0:
132,238,50967,1,0,0:0:0:0:
132,238,51040,1,0,0:0:0:0:
132,238,51114,1,8,0:0:0:0:
145,265,51187,1,8,0:0:0:0:
165,287,51261,1,8,0:0:0:0:
193,297,51334,1,8,0:0:0:0:
223,300,51408,5,4,0:0:0:0:
340,101,51702,2,0,P|353:146|348:193,1,95.9999970703126,8|0,0:0|0:0,0:0:0:0:
221,205,51996,2,0,P|208:160|213:113,1,95.9999970703126
295,30,52290,1,8,0:0:0:0:
422,147,52437,1,0,0:0:0:0:
288,140,52584,5,0,0:0:0:0:
440,58,52731,1,0,0:0:0:0:
373,217,52878,1,8,0:0:0:0:
201,204,53025,2,0,P|187:111|246:37,1,191.999994140625
374,113,53467,1,8,0:0:0:0:
451,266,53614,1,0,0:0:0:0:
271,319,53761,5,0,0:0:0:0:
271,319,54055,2,0,P|225:327|181:309,1,95.9999970703126,8|0,0:0|0:0,0:0:0:0:
248,215,54349,2,0,P|294:206|338:224,1,95.9999970703126
375,333,54643,1,8,0:0:0:0:
248,216,54790,1,0,0:0:0:0:
413,165,54937,5,0,0:0:0:0:
320,233,55084,1,0,0:0:0:0:
434,245,55231,1,8,0:0:0:0:
410,132,55378,1,0,0:0:0:0:
297,110,55525,2,0,P|251:100|203:96,1,95.9999970703126,8|0,0:0|0:0,0:0:0:0:
153,201,55820,2,0,P|199:211|247:215,1,95.9999970703126,8|0,0:0|0:0,0:0:0:0:
401,44,56114,5,12,0:0:0:0:
401,44,56408,1,8,0:0:0:0:
446,210,56555,1,0,0:0:0:0:
349,147,56702,1,0,0:0:0:0:
459,113,56849,1,0,0:0:0:0:
347,245,56996,2,0,P|302:232|268:198,1,95.9999970703126,8|0,0:0|0:0,0:0:0:0:
253,84,57290,5,4,0:0:0:0:
349,147,57437,1,0,0:0:0:0:
243,193,57584,1,8,0:0:0:0:
401,43,57731,1,4,0:0:0:0:
401,43,58025,1,0,0:0:0:0:
347,245,58172,1,8,0:0:0:0:
151,94,58467,6,0,P|128:135|122:182,1,95.9999970703126,12|0,0:0|0:0,0:0:0:0:
219,273,58761,1,8,0:0:0:0:
362,284,58908,2,0,P|385:243|390:195,1,95.9999970703126,0|8,0:0|0:0,0:0:0:0:
295,106,59202,1,0,0:0:0:0:
223,300,59349,1,8,0:0:0:0:
390,195,59496,1,0,0:0:0:0:
152,94,59643,5,12,0:0:0:0:
382,95,59937,1,12,0:0:0:0:
254,286,60231,1,12,0:0:0:0:
254,286,60378,1,12,0:0:0:0:
258,168,60525,1,8,0:0:0:0:
258,168,60599,1,8,0:0:0:0:
258,168,60672,1,8,0:0:0:0:
258,168,60746,1,8,0:0:0:0:
257,167,60820,6,0,P|211:177|172:204,1,95.9999970703126,4|0,0:0|0:0,0:0:0:0:
69,153,61114,2,0,P|115:143|154:116,1,95.9999970703126,8|0,0:0|0:0,0:0:0:0:
255,60,61408,1,0,0:0:0:0:
391,165,61555,1,0,0:0:0:0:
236,241,61702,1,8,0:0:0:0:
332,98,61849,1,0,0:0:0:0:
361,268,61996,5,0,0:0:0:0:
189,180,62143,1,0,0:0:0:0:
257,345,62290,1,8,0:0:0:0:
309,185,62437,2,0,P|354:137|371:83,1,95.9999970703126
294,19,62731,2,0,P|249:67|232:121,1,95.9999970703126,0|8,0:0|0:0,0:0:0:0:
309,185,63025,1,0,0:0:0:0:
398,257,63172,6,0,P|321:298|226:260,1,191.999994140625,0|8,0:0|0:0,0:0:0:0:
83,227,63614,1,0,0:0:0:0:
83,227,63908,2,0,P|73:167|94:121,1,95.9999970703126,0|8,0:0|0:0,0:0:0:0:
182,74,64202,2,0,P|192:134|171:180,1,95.9999970703126
84,135,64496,5,0,0:0:0:0:
275,119,64643,1,8,0:0:0:0:
170,280,64790,1,0,0:0:0:0:
182,74,64937,5,8,0:0:0:0:
82,227,65084,1,0,0:0:0:0:
289,257,65231,1,8,0:0:0:0:
276,118,65378,1,0,0:0:0:0:
197,201,65525,5,12,0:0:0:0:
197,201,65820,2,0,P|188:155|191:107,1,95.9999970703126,8|0,0:0|0:0,0:0:0:0:
299,142,66114,2,0,P|308:188|304:236,1,95.9999970703126
139,284,66408,1,8,0:0:0:0:
77,186,66555,1,0,0:0:0:0:
107,74,66702,5,4,0:0:0:0:
107,74,66996,1,8,0:0:0:0:
279,59,67143,1,4,0:0:0:0:
87,64,67437,1,0,0:0:0:0:
299,69,67584,1,12,0:0:0:0:
144,250,67878,5,4,0:0:0:0:
432,58,68320,1,12,0:0:0:0:
227,336,68761,1,4,0:0:0:0:
296,44,69202,5,12,0:0:0:0:
404,317,69643,1,12,0:0:0:0:
254,192,69937,1,12,0:0:0:0:
254,192,70231,5,12,0:0:0:0:
256,192,70305,12,4,71408,0:0:0:0:
256,194,71996,5,8,0:0:0:0:
118,81,72584,5,4,0:0:0:0:
118,81,73025,1,0,0:0:0:0:
291,81,73172,1,8,0:0:0:0:
255,290,73761,5,8,0:0:0:0:
181,71,73908,1,0,0:0:0:0:
370,202,74055,1,8,0:0:0:0:
139,202,74202,1,0,0:0:0:0:
326,71,74349,1,8,0:0:0:0:
257,166,74643,1,8,0:0:0:0:
257,166,74717,1,8,0:0:0:0:
257,166,74790,1,8,0:0:0:0:
257,166,74864,1,8,0:0:0:0:
257,166,74937,5,4,0:0:0:0:
394,303,75378,1,0,0:0:0:0:
221,303,75525,1,8,0:0:0:0:
256,55,76114,5,8,0:0:0:0:
330,274,76261,1,0,0:0:0:0:
141,143,76408,1,8,0:0:0:0:
372,143,76555,1,0,0:0:0:0:
183,274,76702,2,0,L|129:291,3,47.9999985351563,8|0|0|0,0:0|0:0|0:0|0:0,0:0:0:0:
181,250,76996,2,0,L|207:244,6,23.9999992675781,8|0|0|0|0|0|0,0:0|0:0|0:0|0:0|0:0|0:0|0:0,0:0:0:0:
180,232,77290,5,4,0:0:0:0:
256,56,77584,1,0,0:0:0:0:
352,56,77731,2,0,P|432:80|464:160,1,160
412,280,78172,1,8,0:0:0:0:
248,179,78320,1,0,0:0:0:0:
360,156,78467,6,0,P|352:240|276:292,1,160,0|8,0:0|0:0,0:0:0:0:
201,289,78908,1,0,0:0:0:0:
201,289,79202,1,0,0:0:0:0:
171,99,79349,1,8,0:0:0:0:
55,131,79496,1,0,0:0:0:0:
157,194,79643,6,0,P|239:164|264:79,1,160,0|8,0:0|0:0,0:0:0:0:
352,56,80084,1,0,0:0:0:0:
352,56,80378,1,0,0:0:0:0:
313,244,80525,1,8,0:0:0:0:
273,130,80672,1,0,0:0:0:0:
384,179,80820,6,0,P|408:252|371:320,1,160,0|8,0:0|0:0,0:0:0:0:
180,299,81261,1,0,0:0:0:0:
82,134,81555,1,0,0:0:0:0:
159,77,81702,1,8,0:0:0:0:
183,77,81775,1,8,0:0:0:0:
206,77,81849,1,8,0:0:0:0:
230,77,81922,1,8,0:0:0:0:
254,77,81996,6,0,P|305:77|348:90,1,80,4|0,0:0|0:0,0:0:0:0:
366,173,82290,2,0,P|315:173|272:160,1,80,8|0,0:0|0:0,0:0:0:0:
287,166,82731,1,0,0:0:0:0:
253,283,82878,1,8,0:0:0:0:
372,308,83025,1,0,0:0:0:0:
308,203,83173,6,0,P|232:188|169:234,1,160,0|8,0:0|0:0,0:0:0:0:
169,234,83614,1,0,0:0:0:0:
331,337,83908,2,0,P|370:338|407:324,1,80,0|8,0:0|0:0,0:0:0:0:
354,244,84202,1,0,0:0:0:0:
292,170,84349,6,0,P|259:147|222:132,1,80,8|0,0:0|0:0,0:0:0:0:
190,222,84643,2,0,P|222:244|260:259,1,80,8|0,0:0|0:0,0:0:0:0:
354,244,84937,2,0,P|376:211|391:174,1,80,8|0,0:0|0:0,0:0:0:0:
329,99,85232,2,0,P|306:131|291:168,1,80,8|0,0:0|0:0,0:0:0:0:
260,259,85525,6,0,P|222:324|201:335,1,80,8|0,0:0|0:0,0:0:0:0:
164,246,85820,2,0,P|99:208|88:187,1,80,8|0,0:0|0:0,0:0:0:0:
175,149,86114,2,0,P|213:84|234:73,1,80,8|0,0:0|0:0,0:0:0:0:
270,161,86408,2,0,P|335:199|346:220,1,80,8|0,0:0|0:0,0:0:0:0:
260,260,86702,5,8,0:0:0:0:
260,260,86849,1,0,0:0:0:0:
158,157,86996,1,8,0:0:0:0:
158,157,87143,1,0,0:0:0:0:
260,54,87290,1,8,0:0:0:0:
260,54,87437,1,0,0:0:0:0:
360,157,87584,1,8,0:0:0:0:
360,157,87731,1,0,0:0:0:0:
218,162,87879,5,8,0:0:0:0:
195,303,88025,1,0,0:0:0:0:
325,242,88172,1,8,0:0:0:0:
205,161,88320,5,0,0:0:0:0:
207,305,88467,1,8,0:0:0:0:
330,231,88614,1,0,0:0:0:0:
199,171,88761,5,8,0:0:0:0:
216,314,88908,1,0,0:0:0:0:
325,220,89055,1,12,0:0:0:0:
256,192,89128,12,4,91555,0:0:0:0:
