osu file format v9

[General]
AudioFilename: True truly Love short.mp3
AudioLeadIn: 0
PreviewTime: 51330
Countdown: 0
SampleSet: Normal
StackLeniency: 0.7
Mode: 0
LetterboxInBreaks: 1

[Editor]
DistanceSpacing: 1
BeatDivisor: 2
GridSize: 8

[Metadata]
Title:True Truly Love
Artist:Horie Yui
Creator:Thite
Version:Easy
Source:
Tags:ABBA Divina Online

[Difficulty]
HPDrainRate:1
CircleSize:3
OverallDifficulty:1
ApproachRate:2
SliderMultiplier:0.799999999999999
SliderTickRate:1

[Events]
//Background and Video events
0,0,"756167a0.jpg"
//Break Periods
2,79813,87465
//Storyboard Layer 0 (Background)
//Storyboard Layer 1 (Fail)
//Storyboard Layer 2 (Pass)
//Storyboard Layer 3 (Foreground)
//Storyboard Sound Samples
//Background Colour Transformations
3,100,163,162,255

[TimingPoints]
790,294.117647058824,4,1,0,65,1,0
51378,-100,4,1,0,65,0,1
74319,-100,4,1,0,65,0,0
116084,-100,4,1,0,65,0,1
139025,-100,4,1,0,65,0,0

[Colours]
Combo1 : 255,255,128
Combo2 : 128,255,255
Combo3 : 255,128,255

[HitObjects]
104,192,5495,2,0,B|176:232|208:320,1,160,4|8
368,320,6672,2,0,B|296:280|264:192,1,160,0|8
256,40,7848,5,0
312,192,8437,1,8
160,160,9025,2,0,B|48:272,1,160,0|8
160,328,10201,6,0,B|240:328|320:352,1,160,0|8
344,192,11378,2,0,B|264:192|184:168,1,160,0|8
256,192,12554,12,4,14319
64,192,14907,6,0,B|144:232|176:304,2,160,4|8|4
144,48,16672,1,8
304,80,17260,2,0,B|264:160|192:192,2,160,0|8|0
416,192,19025,1,8
360,344,19613,6,0,B|280:312|200:352,1,160,0|8
64,272,20790,2,0,B|96:192|56:112,1,160,0|8
200,48,21966,2,2,B|256:72|304:80,2,79.9999999999999
256,192,23142,12,4,24907
424,112,25495,6,0,B|392:192|440:272,1,160,0|8
304,352,26672,2,0,B|336:272|288:192,1,160,0|8
216,56,27848,5,0
136,192,28437,1,8
256,296,29025,1,0
416,296,29613,1,8
416,296,30201,6,0,B|456:232|440:136,1,160,0|8
320,32,31378,2,0,B|280:96|296:192,1,160,0|8
336,344,32554,5,0
392,192,33142,1,8
296,72,33731,2,0,B|240:128|256:224,1,160,0|8
120,184,34907,6,0,B|112:312|256:360,1,240,0|8
336,360,36084,1,0
432,232,36672,1,8
280,192,37260,6,0,B|408:200|456:56,1,240,0|8
384,16,38437,1,0
224,16,39025,1,8
88,104,39613,6,0,B|56:240|120:336,1,240,0|8
200,352,40790,1,0
232,192,41378,1,8
80,144,41966,6,0,B|168:144|224:80,1,160,0|8
376,48,43142,2,0,B|376:136|440:192,1,160,0|8
352,328,44319,1,8
256,200,44907,1,0
136,304,45495,1,8
256,200,46084,1,8
256,192,46672,12,4,48437
328,192,49025,6,0,B|416:208|448:296,2,160,0|8|0
176,152,50790,1,8
24,192,51378,6,0,B|80:256|80:344,1,160,4|8
240,312,52554,2,0,B|304:368|392:368,1,160,0|8
448,216,53731,1,8
344,96,54319,1,0
200,168,54907,1,8
256,312,55495,6,0,B|256:224|320:168,1,160,0|12
416,40,56672,2,0,B|352:56|304:48,2,79.9999999999999,8|0|8
472,192,57848,1,8
384,328,58437,6,0,B|296:328|224:360,1,160,0|8
88,280,59613,2,0,B|88:192|56:120,1,160,0|8
184,24,60790,5,4
256,168,61378,1,8
256,320,61966,2,8,B|216:336|152:368,2,79.9999999999999
352,192,63142,2,0,B|384:288|456:336,2,160,8|8|8
256,64,64907,6,0,B|352:88|448:80,1,160,0|8
352,232,66084,2,0,B|256:256|160:248,1,160,0|8
40,192,67260,1,0
144,72,67848,6,0,B|224:88|296:72,2,120,0|8|0
120,192,69172,1,8
240,200,69613,2,0,B|272:240|312:288,2,79.9999999999999,0|8|0
256,40,70790,1,0
312,192,71378,1,8
256,344,71966,6,0,B|160:360|96:312,1,160,0|8
40,168,73142,1,0
144,48,73731,2,0,B|208:56|256:56,2,79.9999999999999,0|8|0
256,160,74907,6,0,B|272:272|200:304,2,160,4|8|4
184,16,76672,1,0
88,144,77260,1,8
120,304,77848,1,8
272,360,78437,2,0,B|456:328|448:128,1,320,0|4
72,192,89025,5,0
200,96,89613,1,0
256,248,90201,6,0,B|304:320|384:336,1,160,4|8
456,192,91378,2,0,B|408:120|328:104,1,160,0|8
192,192,92554,2,0,B|112:216|32:208,2,160,0|8|0
256,48,94319,1,8
168,184,94907,6,0,B|144:280|168:352,1,160,4|8
328,352,96084,2,0,B|352:256|328:184,1,160,0|8
256,56,97260,5,0
176,192,97848,1,8
88,64,98437,1,8
176,192,99025,1,8
32,216,99613,6,0,B|48:352|192:368,1,240,0|8
256,328,100790,1,0
328,184,101378,1,8
432,320,101966,6,0,B|504:224|464:88,1,240,0|8
400,24,103142,2,0,B|352:16|304:16,1,79.9999999999999
304,96,103731,2,8,B|256:88|208:88,1,79.9999999999999
144,72,104319,6,0,B|40:152|104:296,1,240,0|8
152,352,105495,1,0
256,232,106084,1,8
256,72,106672,6,0,B|296:152|368:184,1,160,0|8
296,328,107848,2,0,B|256:248|184:216,1,160,0|8
24,192,109025,1,0
152,96,109613,1,8
144,256,110201,1,0
256,144,110790,1,8
256,192,111378,12,4,113142
136,176,113731,6,0,B|176:272|256:272,2,160,0|8|0
120,16,115495,1,8
256,48,116084,6,0,B|256:160|288:232,1,160,4|8
416,120,117260,2,0,B|416:232|384:304,1,160,0|8
256,360,118437,1,8
96,328,119025,1,0
16,192,119613,1,8
96,56,120201,6,0,B|176:72|256:32,1,160,0|8
256,192,121378,2,0,B|256:256|240:304,2,79.9999999999999,0|8|0
256,32,122554,1,8
392,120,123142,6,0,B|416:224|464:288,1,160,0|8
312,344,124319,2,0,B|208:316|129:328,1,160,0|8
248,200,125495,6,0,B|344:216|400:152,2,160
256,40,127260,1,0
96,48,127848,1,8
24,192,128437,1,0
72,344,129025,1,8
128,192,129613,6,0,B|128:280|192:344,1,160,0|12
256,192,130790,2,0,B|256:104|192:40,2,160,0|8|0
256,352,132554,6,0,B|336:336|400:352,2,120,0|8|0
184,256,133878,1,8
288,192,134319,2,0,B|336:208|384:208,2,79.9999999999999,0|8|0
192,264,135348,1,0
264,168,135790,1,8
304,56,136231,1,8
400,80,136672,6,0,B|416:168|472:224,1,160,0|8
368,344,137848,1,0
256,232,138437,2,0,B|216:200|160:192,2,79.9999999999999,0|8|0
256,72,139613,5,4
