osu file format v12

[General]
AudioFilename: Horie Yui - Sweet & Sweet CHERRY(TV Size).mp3
AudioLeadIn: 2000
PreviewTime: 55540
Countdown: 0
SampleSet: Soft
StackLeniency: 0.7
Mode: 0
LetterboxInBreaks: 0
WidescreenStoryboard: 1

[Editor]
Bookmarks: 90248
DistanceSpacing: 1
BeatDivisor: 8
GridSize: 4

[Metadata]
Title:Sweet & Sweet CHERRY (TV Size)
TitleUnicode:Sweet & Sweet CHERRY (TV Size)
Artist:Horie Yui
ArtistUnicode:堀江由衣
Creator:cRyo[iceeicee]
Version:Insane
Source:Golden Time
Tags:nopan
BeatmapID:375721
BeatmapSetID:152734

[Difficulty]
HPDrainRate:6
CircleSize:4
OverallDifficulty:7
ApproachRate:9
SliderMultiplier:2.2
SliderTickRate:2

[Events]
//Background and Video events
0,0,"bg.jpg",0,0
//Break Periods
//Storyboard Layer 0 (Background)
//Storyboard Layer 1 (Fail)
//Storyboard Layer 2 (Pass)
//Storyboard Layer 3 (Foreground)
//Storyboard Sound Samples
//Background Colour Transformations
3,100,0,0,0

[TimingPoints]
-1485,576.036866359447,4,2,1,15,1,0
821,-200,4,2,1,20,0,0
1397,-200,4,2,1,15,0,0
1827,-200,4,2,1,25,0,0
2547,-200,4,2,1,20,0,0
3987,-200,4,2,1,25,0,0
4087,-200,4,2,1,30,0,0
4419,-200,4,2,1,20,0,0
5427,-200,4,1,1,15,0,0
5715,-200,4,1,1,10,0,0
6579,-100,4,2,11,35,0,0
7155,-100,4,2,1,25,0,0
7443,-100,4,1,11,10,0,0
7729,-200,4,2,2,55,0,0
7875,-200,4,2,2,25,0,0
8017,-133.333333333333,4,1,11,45,0,0
8306,-100,4,2,2,55,0,0
8451,-100,4,2,11,55,0,0
8594,-80,4,2,11,45,0,0
8667,-80,4,2,2,5,0,0
8883,-80,4,3,11,80,0,0
9387,-200,4,2,4,55,0,0
10035,-74.0740740740741,4,2,1,55,0,0
10107,-74.0740740740741,4,2,1,55,0,0
10899,-74.0740740740741,4,2,11,65,0,0
10999,-74.0740740740741,4,2,1,55,0,0
12339,-74.0740740740741,4,2,11,65,0,0
12439,-74.0740740740741,4,2,1,55,0,0
13203,-74.0740740740741,4,2,11,65,0,0
13303,-74.0740740740741,4,2,1,35,0,0
13491,-74.0740740740741,4,2,11,65,0,0
13591,-74.0740740740741,4,2,1,55,0,0
14629,-133.333333333333,4,2,1,55,0,0
15490,-80,4,2,11,65,0,0
15796,-66.6666666666667,4,2,11,55,0,0
15868,-66.6666666666667,4,2,1,55,0,0
16084,-66.6666666666667,4,2,11,60,0,0
16638,-66.6666666666667,4,2,3,55,0,0
16738,-66.6666666666667,4,2,1,5,0,0
16876,-66.6666666666667,4,2,1,55,0,0
17213,-100,4,2,11,65,0,0
17934,-100,4,2,11,55,0,0
18676,-100,4,2,11,75,0,0
18944,-100,4,2,11,75,0,0
19232,-83.3333333333333,4,2,3,55,0,0
21104,-133.333333333333,4,2,3,55,0,0
21556,-133.333333333333,4,1,3,35,0,0
21656,-133.333333333333,4,2,3,55,0,0
22400,-83.3333333333333,4,2,11,25,0,0
22688,-83.3333333333333,4,2,1,55,0,0
23552,-71.4285714285714,4,2,3,55,0,0
23652,-100,4,2,3,55,0,0
24704,-83.3333333333333,4,2,1,55,0,0
25713,-83.3333333333333,4,2,3,55,0,0
26164,-83.3333333333333,4,1,3,35,0,0
26264,-83.3333333333333,4,2,3,55,0,0
27297,-58.8235294117647,4,2,1,55,0,0
27873,-100,4,2,11,85,0,0
28108,-100,4,2,2,55,0,0
28180,-100,4,2,3,75,0,0
28449,-83.3333333333333,4,2,3,55,0,0
30321,-133.333333333333,4,2,3,55,0,0
30773,-133.333333333333,4,1,11,35,0,0
30873,-133.333333333333,4,2,3,55,0,0
31565,-83.3333333333333,4,1,10,25,0,0
31925,-83.3333333333333,4,2,2,45,0,0
32213,-83.3333333333333,4,2,11,45,0,0
32717,-83.3333333333333,4,2,1,45,0,0
34930,-71.4285714285714,4,2,3,55,0,0
35794,-80,4,2,3,55,0,0
36370,-133.333333333333,4,2,1,55,0,0
36677,-133.333333333333,4,2,1,25,0,0
36749,-133.333333333333,4,2,1,5,0,0
36821,-133.333333333333,4,1,10,55,0,0
37090,-100,4,2,10,55,0,0
37301,-100,4,2,11,55,0,0
37397,-100,4,2,11,25,0,0
37685,-100,4,2,3,55,0,0
38819,-100,4,2,4,45,0,0
38919,-100,4,2,3,55,0,0
39395,-100,4,2,4,45,0,0
39495,-100,4,2,3,55,0,0
40835,-100,4,1,10,45,0,0
41123,-100,4,2,1,55,0,0
41411,-58.8235294117647,4,2,1,55,0,0
41799,-100,4,2,1,55,0,0
41987,-125,4,2,3,45,0,0
42131,-100,4,2,3,55,0,0
43157,-100,4,2,11,55,0,0
43949,-100,4,2,3,55,0,0
44453,-100,4,2,3,5,0,0
44553,-100,4,2,3,55,0,0
45732,-62.5,4,2,1,55,0,0
45894,-62.5,4,2,11,55,0,0
45994,-62.5,4,2,1,55,0,0
46182,-62.5,4,2,11,55,0,0
46282,-62.5,4,2,1,55,0,0
46470,-62.5,4,2,11,55,0,0
46596,-100,4,2,10,35,0,0
46884,-100,4,2,3,55,0,0
47622,-100,4,2,11,5,0,0
47766,-100,4,2,11,55,0,0
48054,-76.9230769230769,4,1,11,55,0,0
48900,-100,4,2,3,55,0,0
49206,-100,4,2,3,40,0,0
49306,-100,4,2,3,55,0,0
50070,-100,4,1,10,45,0,0
50358,-100,4,1,11,35,0,0
50502,-100,4,2,11,55,0,0
50646,-100,4,2,11,55,0,0
51493,-133.333333333333,4,2,10,45,0,0
51593,-100,4,2,3,55,0,0
52374,-100,4,2,10,45,0,0
52474,-100,4,2,3,55,0,0
53814,-100,4,2,3,45,0,0
55813,-133.333333333333,4,2,3,55,0,0
55974,-133.333333333333,4,2,3,5,0,0
56118,-66.6666666666667,4,2,3,55,0,1
57558,-66.6666666666667,4,2,11,65,0,1
57658,-66.6666666666667,4,2,3,40,0,1
57990,-66.6666666666667,4,2,11,65,0,1
58350,-66.6666666666667,4,2,3,55,0,1
62023,-66.6666666666667,4,2,11,65,0,1
62383,-66.6666666666667,4,2,3,55,0,1
62599,-66.6666666666667,4,2,11,65,0,1
62815,-66.6666666666667,4,2,3,5,0,1
62959,-66.6666666666667,4,2,3,55,0,1
63463,-66.6666666666667,4,2,3,45,0,1
63879,-83.3333333333333,4,2,11,65,0,1
63967,-83.3333333333333,4,2,3,5,0,1
64167,-50,4,2,11,95,0,1
64267,-66.6666666666667,4,2,3,5,0,1
64399,-66.6666666666667,4,2,11,65,0,1
64687,-66.6666666666667,4,2,3,55,0,1
66919,-66.6666666666667,4,2,3,45,0,1
67207,-66.6666666666667,4,2,11,65,0,1
67567,-66.6666666666667,4,2,3,55,0,1
69928,-66.6666666666667,4,2,3,55,0,1
71095,-66.6666666666667,4,2,11,55,0,1
71887,-66.6666666666667,4,2,3,55,0,1
73960,-125,4,2,2,55,0,0
74335,-125,4,2,0,55,0,0
75127,-125,4,2,0,45,0,0
76856,-125,4,2,0,50,0,0
77720,-125,4,2,0,55,0,0
78008,-125,4,2,0,60,0,0
78584,-125,4,2,0,50,0,0
79160,-125,4,2,10,60,0,0
79260,-125,4,2,0,50,0,0
79736,-125,4,2,0,40,0,0
80312,-125,4,2,0,60,0,0
80600,-125,4,2,0,50,0,0
80888,-125,4,2,0,45,0,0
81176,-125,4,2,0,40,0,0
81464,-125,4,2,11,5,0,0

[Colours]
Combo1 : 255,255,255
Combo2 : 255,102,102
Combo3 : 205,155,255
Combo4 : 187,0,94
Combo5 : 255,157,111

[HitObjects]
160,72,243,53,0,0:0:0:0:
84,96,387,1,0,0:0:0:0:
144,152,531,1,0,0:0:0:0:
256,272,819,5,2,0:0:0:0:
352,72,1395,53,0,0:0:0:0:
428,96,1539,1,0,0:0:0:0:
368,152,1683,1,0,0:0:0:0:
256,272,1971,5,2,0:0:0:0:
68,232,2259,1,2,0:0:0:0:
188,84,2547,54,0,P|208:104|224:136,1,55,0|0,0:0|0:0,0:0:0:0:
256,272,3123,2,0,P|228:272|202:265,1,55,2|0,0:0|0:0,0:0:0:0:
68,232,3699,5,2,0:0:0:0:
220,344,3987,1,2,0:0:0:0:
68,312,4275,1,2,0:0:0:0:
256,272,4563,1,0,0:0:0:0:
68,232,4851,53,2,0:0:0:0:
136,188,4995,1,0,0:0:0:0:
64,152,5139,1,2,0:0:0:0:
256,60,5427,53,4,1:0:0:0:
408,200,5715,1,0,0:0:0:0:
419,202,5859,1,0,0:0:0:0:
368,320,6147,1,0,0:0:0:0:
356,324,6291,1,0,0:0:0:0:
216,343,6579,38,0,B|168:312|176:255|176:255|140:272|100:248|100:248|96:224|100:188,1,220,8|2,2:1|0:0,0:0:0:0:
92,96,7443,1,0,0:0:0:0:
108,100,7587,1,0,0:0:0:0:
196,48,7731,54,0,L|228:56,1,27.5,2|0,0:0|0:0,0:0:0:0:
220,124,8019,22,0,L|260:134,1,41.2500015735627,2|0,2:1|2:0,0:0:0:0:
244,200,8307,6,0,L|311:216,1,55,2|2,0:0|2:2,0:0:0:0:
268,276,8595,38,0,L|357:298,1,68.75,2|0,2:1|0:0,0:0:0:0:
484,324,8883,1,2,2:3:0:0:
484,324,9459,53,2,2:2:0:0:
376,300,9603,1,2,0:0:0:0:
268,276,9747,1,2,0:0:0:0:
268,276,10035,6,0,L|256:104,1,148.500000566483,4|2,1:0|0:0,0:0:0:0:
252,48,10467,1,2,0:0:0:0:
352,128,10611,2,0,P|392:124|436:104,1,74.2500002832413,8|0,2:2|0:0,0:0:0:0:
164,200,10899,1,4,2:3:0:0:
164,200,11187,5,0,3:0:0:0:
268,276,11331,1,0,3:0:0:0:
136,204,11475,1,0,3:0:0:0:
240,80,11619,1,0,3:0:0:0:
108,208,11763,2,0,P|66:206|24:184,1,74.2500002832413,8|0,2:2|0:0,0:0:0:0:
124,312,12051,22,0,P|161:302|212:288,1,74.2500002832413,2|0,0:0|0:0,0:0:0:0:
444,288,12339,2,0,P|394:339|324:328,1,148.500000566483,4|2,2:3|0:0,0:0:0:0:
196,292,12771,1,2,0:0:0:0:
320,176,12915,2,0,P|362:167|404:160,1,74.2500002832413,8|0,2:2|0:0,0:0:0:0:
240,80,13203,2,0,P|204:87|167:93,1,74.2500002832413,4|0,2:3|0:0,0:0:0:0:
40,236,13491,2,0,P|128:232|184:196,1,148.500000566483,4|0,2:3|0:0,0:0:0:0:
240,80,13923,53,2,0:0:0:0:
240,80,13995,1,2,0:0:0:0:
240,80,14067,1,8,0:0:0:0:
92,156,14212,1,2,0:0:0:0:
276,256,14356,1,2,0:0:0:0:
276,256,14644,22,0,L|399:244,1,123.750004720688,4|0,1:1|0:0,0:0:0:0:
108,352,15220,2,0,L|190:344,1,82.5000031471254,8|4,3:2|2:3,0:0:0:0:
92,156,15796,38,0,L|256:144,1,165.000006294251,4|4,1:0|0:3,0:0:0:0:
296,140,16156,1,4,0:3:0:0:
296,140,16228,1,4,0:3:0:0:
144,240,16372,1,4,0:3:0:0:
128,64,16516,1,4,0:3:0:0:
378,133,16660,2,0,L|296:140,1,82.5000031471254,4|0,0:0|0:3,0:0:0:0:
92,156,16948,5,4,1:0:0:0:
232,64,17236,1,2,2:0:0:0:
256,52,17380,1,2,2:0:0:0:
272,232,17668,1,2,0:0:0:0:
248,220,17812,1,2,0:0:0:0:
8,200,18100,6,0,B|28:228|60:224|60:224|84:276|84:276|148:268|144:192,1,220,8|8,2:1|2:3,0:0:0:0:
148,180,18964,21,2,0:2:0:0:
240,172,19108,1,2,0:2:0:0:
328,164,19252,2,0,P|363:160|416:156,1,65.9999979858399,4|0,1:0|0:0,0:0:0:0:
472,104,19540,2,0,P|484:70|484:24,1,65.9999979858399,2|2,0:0|0:0,0:0:0:0:
440,276,19828,1,8,0:2:0:0:
424,284,20116,6,0,P|392:288|348:276,1,65.9999979858399,4|4,2:3|0:3,0:0:0:0:
192,364,20404,2,0,P|272:364|324:328,1,131.99999597168,0|4,1:3|0:3,0:0:0:0:
184,264,20836,2,0,P|152:262|112:260,1,65.9999979858399,0|8,1:0|0:2,0:0:0:0:
100,176,21124,22,0,L|48:172,1,41.2500015735627,2|0,0:0|0:0,0:0:0:0:
184,116,21412,2,0,L|132:112,1,41.2500015735627,2|0,0:0|0:0,0:0:0:0:
268,56,21700,2,0,L|216:52,1,41.2500015735627,2|0,0:0|0:0,0:0:0:0:
100,176,21988,21,2,0:0:0:0:
184,264,22132,1,8,0:0:0:0:
100,176,22276,1,2,0:0:0:0:
44,292,22420,2,2,P|33:313|16:340,2,43.9999986572266,4|4|4,2:0|0:0|0:0,0:0:0:0:
154,346,22708,2,0,P|222:342|270:290,1,131.99999597168,0|0,1:0|2:3,0:0:0:0:
320,200,23140,1,2,0:0:0:0:
496,312,23284,1,8,0:0:0:0:
496,312,23572,6,2,P|500:272|488:228,1,76.9999976501466
436,112,23860,2,0,B|388:104|356:124|356:124|316:112|316:112|296:128|268:128,1,165,0|0,1:2|0:0,0:0:0:0:
100,220,24436,1,8,2:2:0:0:
100,220,24724,6,2,P|65:218|28:212,1,65.9999979858399,0|0,1:3|2:3,0:0:0:0:
128,324,25012,2,0,P|204:328|256:288,1,131.99999597168,0|4,1:3|2:3,0:0:0:0:
310,198,25444,1,0,1:3:0:0:
440,288,25588,1,8,0:0:0:0:
460,152,25732,22,0,P|466:117|472:80,1,65.9999979858399,2|0,0:0|0:0,0:0:0:0:
296,92,26020,2,0,P|330:96|361:102,1,65.9999979858399,2|0,0:0|0:0,0:0:0:0:
299,263,26308,2,0,P|305:230|310:198,1,65.9999979858399,2|0,0:0|0:0,0:0:0:0:
200,72,26596,2,0,P|132:71|84:142,1,131.99999597168,2|0,0:0|0:0,0:0:0:0:
20,232,27028,2,0,P|52:228|88:220,1,65.9999979858399,0|0,1:0|0:0,0:0:0:0:
200,272,27316,22,0,B|252:252|300:264|300:264|276:336,1,140.250002675057,2|0,1:2|0:0,0:0:0:0:
152,352,27604,2,0,B|100:372|52:360|52:360|76:288,1,140.250002675057,2|0,1:2|0:0,0:0:0:0:
248,192,27892,22,0,P|292:183|342:173,1,82.5,4|0,0:3|0:0,0:0:0:0:
56,88,28180,1,2,0:0:0:0:
56,88,28468,6,0,P|100:79|150:69,1,65.9999979858399,4|0,1:0|0:0,0:0:0:0:
248,192,28756,2,0,P|215:185|183:178,1,65.9999979858399,2|2,2:0|0:0,0:0:0:0:
388,224,29044,1,8,0:0:0:0:
388,224,29332,5,4,0:3:0:0:
248,192,29476,1,4,0:3:0:0:
388,224,29620,2,0,P|460:196|464:136,1,131.99999597168,0|4,1:0|0:3,0:0:0:0:
352,24,30053,2,0,P|345:56|340:88,1,65.9999979858399,0|8,1:0|0:2,0:0:0:0:
312,236,30341,38,0,P|299:252|282:262,1,41.2500015735627,2|0,0:0|0:0,0:0:0:0:
176,224,30629,2,0,P|167:205|168:184,1,41.2500015735627,2|2,0:0|1:0,0:0:0:0:
256,116,30917,2,0,P|276:119|293:130,1,41.2500015735627,2|0,0:0|0:0,0:0:0:0:
388,224,31205,5,2,0:0:0:0:
248,192,31349,1,8,0:0:0:0:
432,156,31493,1,2,0:0:0:0:
344,320,31637,2,0,L|300:336,2,43.9999986572266,4|4|4,0:2|0:2|0:2,0:0:0:0:
450,274,31925,2,0,P|465:211|431:155,1,131.99999597168,0|8,1:0|2:3,0:0:0:0:
332,164,32357,5,8,0:3:0:0:
388,224,32501,1,8,0:3:0:0:
432,156,32645,1,8,0:3:0:0:
280,100,32789,5,2,0:0:0:0:
472,136,32933,1,2,0:0:0:0:
308,244,33077,2,0,P|270:242|228:232,1,65.9999979858399,4|0,1:1|0:0,0:0:0:0:
144,172,33365,2,0,P|146:140|150:106,1,65.9999979858399,2|2,2:2|0:0,0:0:0:0:
128,320,33653,1,8,0:2:0:0:
128,320,33941,6,0,P|95:324|62:326,1,65.9999979858399,4|4,2:3|0:3,0:0:0:0:
242,250,34229,2,0,P|275:246|308:244,1,65.9999979858399,0|0,1:2|0:0,0:0:0:0:
128,320,34517,1,4,2:3:0:0:
144,172,34661,2,0,P|146:139|150:106,1,65.9999979858399,0|8,1:2|0:2,0:0:0:0:
328,244,34949,22,0,P|368:244|404:228,1,76.9999976501466,2|0,0:0|0:0,0:0:0:0:
384,68,35237,2,0,P|364:100|359:138,1,76.9999976501466,2|0,0:0|0:0,0:0:0:0:
506,194,35525,2,0,P|487:160|456:137,1,76.9999976501466,2|0,0:0|0:0,0:0:0:0:
304,56,35813,54,2,B|276:52|260:32|260:32|266:80|240:120,1,137.5
208,212,36245,1,0,0:0:0:0:
132,296,36389,2,0,P|82:287|52:256,1,82.5000031471254,2|0,0:0|0:0,0:0:0:0:
72,172,36821,5,2,1:2:0:0:
84,164,36917,5,2,1:2:0:0:
96,156,37013,21,2,1:2:0:0:
112,148,37109,6,0,L|197:138,1,73.3333333333333,2|0,1:2|0:0,0:0:0:0:
228,132,37397,5,4,0:0:0:0:
252,104,37493,21,4,0:0:0:0:
272,76,37589,5,4,0:0:0:0:
296,48,37685,38,0,P|355:56|380:100,2,110,4|2|8,1:0|0:0|0:2,0:0:0:0:
356,224,38549,2,0,P|385:222|412:216,1,55,2|0,0:0|0:0,0:0:0:0:
229,330,38837,21,8,0:2:0:0:
216,248,38981,1,2,0:0:0:0:
202,165,39125,2,0,P|198:131|193:109,1,55,2|0,0:0|0:0,0:0:0:0:
51,275,39413,21,8,0:2:0:0:
133,262,39557,1,2,0:0:0:0:
216,248,39701,2,0,P|242:244|271:239,1,55,2|0,0:0|0:0,0:0:0:0:
502,173,39989,5,0,1:0:0:0:
356,224,40133,1,0,0:0:0:0:
447,97,40277,1,2,0:0:0:0:
447,252,40421,1,0,0:0:0:0:
356,126,40565,1,8,0:0:0:0:
356,126,40853,6,0,L|308:114,1,27.5,2|2,0:2|0:2,0:0:0:0:
232,162,40997,2,0,L|184:150,1,27.5,2|2,0:2|0:2,0:0:0:0:
108,198,41141,1,0,1:0:0:0:
100,190,41429,5,2,0:0:0:0:
224,154,41573,1,2,0:2:0:0:
348,118,41717,2,0,P|396:103|452:86,1,93.500001783371,8|0,1:2|0:0,0:0:0:0:
200,72,42005,6,0,L|140:62,1,44,4|0,0:0|0:0,0:0:0:0:
424,176,42293,1,4,1:0:0:0:
424,176,42869,1,8,0:0:0:0:
424,176,43157,37,4,0:3:0:0:
328,232,43301,1,4,0:3:0:0:
224,154,43445,2,0,B|232:90,1,55,2|0,0:0|0:0,0:0:0:0:
328,232,43733,1,4,0:3:0:0:
232,288,43877,1,4,0:3:0:0:
136,184,44021,21,2,0:0:0:0:
128,176,44165,1,2,0:0:0:0:
120,168,44309,2,0,B|128:104,1,55,2|0,0:0|0:0,0:0:0:0:
136,344,44597,1,4,1:0:0:0:
328,232,44885,5,2,0:0:0:0:
420,292,45029,1,2,0:0:0:0:
424,180,45173,2,0,L|416:120,1,55,8|0,0:0|0:0,0:0:0:0:
312,236,45462,1,0,1:0:0:0:
436,288,45606,1,0,2:0:0:0:
492,144,45750,6,0,P|500:100|481:57,1,88,2|0,1:2|0:0,0:0:0:0:
240,200,46038,2,0,P|232:244|251:287,1,88,2|0,1:2|0:0,0:0:0:0:
504,324,46326,2,0,P|512:280|493:237,1,88,2|0,1:2|0:0,0:0:0:0:
420,104,46614,22,4,L|415:78,1,27.5,4|4,1:2|1:2,0:0:0:0:
344,140,46758,2,4,L|338:112,1,27.5,4|4,1:2|1:2,0:0:0:0:
272,56,46902,21,4,1:0:0:0:
173,75,47046,1,2,0:0:0:0:
75,94,47190,1,2,2:0:0:0:
75,94,47478,6,0,P|83:137|89:175,1,82.5,8|0,2:2|0:0,0:0:0:0:
105,254,47766,1,4,0:3:0:0:
4,224,47910,1,4,0:3:0:0:
76,344,48054,2,0,P|145:338|194:288,1,142.99999345398,4|4,2:3|2:3,0:0:0:0:
256,208,48486,2,0,B|284:180|312:176|312:176|348:208|387:207,1,142.99999345398,4|0,2:3|2:3,0:0:0:0:
448,144,48918,2,0,P|455:117|460:90,1,55,2|0,0:0|0:0,0:0:0:0:
412,332,49206,5,4,1:1:0:0:
256,208,49494,1,2,0:0:0:0:
448,144,49782,1,8,0:0:0:0:
284,76,50070,21,2,1:2:0:0:
272,80,50142,1,2,1:2:0:0:
260,84,50214,1,2,1:2:0:0:
248,88,50286,1,2,1:2:0:0:
236,92,50358,2,0,B|204:96|180:108|180:108|140:92,1,82.5,4|0,1:2|0:0,0:0:0:0:
74,90,50646,5,4,0:3:0:0:
32,168,50790,1,4,0:3:0:0:
64,252,50934,1,4,0:3:0:0:
148,280,51078,1,4,0:3:0:0:
228,244,51222,1,4,0:3:0:0:
260,164,51366,1,4,0:3:0:0:
484,144,51510,54,0,B|458:161|437:157|437:157|402:217|336:196,1,165.000006294251,4|8,0:0|2:2,0:0:0:0:
228,244,52374,22,0,L|260:248|292:252,1,55,4|2,2:2|0:0,0:0:0:0:
233,333,52662,2,0,P|180:323|148:280,1,110,0|0,1:3|0:0,0:0:0:0:
128,200,53094,1,2,0:0:0:0:
128,200,53238,2,0,L|12:212,1,110,8|0,1:2|0:0,0:0:0:0:
18,211,53814,53,0,1:0:0:0:
128,200,54246,1,0,1:0:0:0:
124,184,54390,1,0,1:0:0:0:
228,284,54822,37,0,1:0:0:0:
236,268,54966,1,0,1:0:0:0:
340,248,55110,1,0,1:0:0:0:
384,160,55254,1,0,1:0:0:0:
76,108,55542,5,0,1:0:0:0:
172,80,55686,1,0,1:0:0:0:
268,52,55830,2,0,L|261:130,1,61.875002360344,0|0,1:0|0:0,0:0:0:0:
384,160,56118,6,0,P|488:148|428:40,1,247.500009441376,4|0,1:2|0:0,0:0:0:0:
268,52,56694,2,0,L|259:156,1,82.5000031471254,8|0,1:2|0:0,0:0:0:0:
156,236,56982,2,0,P|119:234|80:204,1,82.5000031471254,2|0,2:2|0:0,0:0:0:0:
260,348,57270,2,0,P|288:316|288:252,1,82.5000031471254,4|0,0:0|0:0,0:0:0:0:
176,156,57558,5,4,0:3:0:0:
344,224,57702,1,0,1:3:0:0:
344,224,57774,1,0,1:3:0:0:
344,224,57846,1,8,1:2:0:0:
156,236,57990,1,4,2:3:0:0:
336,308,58134,2,0,P|380:296|421:286,1,82.5000031471254,4|0,2:3|0:3,0:0:0:0:
136,312,58422,5,4,0:0:0:0:
264,256,58566,1,2,0:0:0:0:
96,176,58710,1,0,0:0:0:0:
248,248,58854,1,2,0:0:0:0:
116,320,58998,2,0,P|75:315|34:309,1,82.5000031471254,8|0,1:2|0:0,0:0:0:0:
176,156,59286,6,0,B|216:160|256:128|256:128|266:181,1,123.750004720688,2|0,0:0|0:0,0:0:0:0:
344,224,59574,2,0,L|333:163|322:102,1,123.750004720688,2|0,0:0|0:0,0:0:0:0:
196,80,59862,2,0,B|156:84|116:52|116:52|120:80|106:105,1,123.750004720688,2|0,0:0|0:0,0:0:0:0:
44,64,60150,21,8,1:2:0:0:
176,156,60294,1,0,0:0:0:0:
40,272,60438,2,0,P|44:229|49:178,1,82.5000031471254,2|0,0:0|0:0,0:0:0:0:
160,312,60726,2,0,P|236:328|288:260,1,165.000006294251,4|0,0:0|0:0,0:0:0:0:
288,260,61303,5,8,1:2:0:0:
396,124,61447,1,0,0:0:0:0:
480,240,61591,2,0,P|440:240|388:224,1,82.5000031471254,2|0,0:0|0:0,0:0:0:0:
240,148,61879,2,0,P|280:142|321:136,1,82.5000031471254,4|4,0:2|0:3,0:0:0:0:
208,36,62167,5,4,0:3:0:0:
132,116,62311,2,0,P|137:156|143:197,1,82.5000031471254,4|8,0:3|1:2,0:0:0:0:
160,312,62599,1,4,0:3:0:0:
160,312,62743,2,0,P|119:318|78:323,1,82.5000031471254,4|0,0:3|0:3,0:0:0:0:
200,224,63031,6,0,P|284:216|388:184,1,165.000006294251,4|0,0:2|0:0,0:0:0:0:
420,80,63463,1,0,1:0:0:0:
420,80,63535,1,0,1:0:0:0:
420,80,63607,1,8,1:2:0:0:
312,64,63751,1,2,0:0:0:0:
380,188,63895,6,0,L|444:176,1,65.9999979858399,4|0,0:3|0:0,0:0:0:0:
304,296,64183,38,0,L|412:276,1,110,4|0,0:3|0:0,0:0:0:0:
200,224,64471,2,0,P|196:178|192:120,1,82.5000031471254,4|4,2:3|2:3,0:0:0:0:
84,168,64759,5,8,1:2:0:0:
300,152,64903,1,2,0:0:0:0:
84,168,65047,2,0,P|80:126|77:85,1,82.5000031471254,4|0,0:0|0:0,0:0:0:0:
380,188,65335,1,4,1:0:0:0:
380,188,65911,22,0,P|429:185|468:151,1,82.5000031471254,8|0,1:2|0:0,0:0:0:0:
304,24,66199,2,0,P|288:60|293:124,1,82.5000031471254,2|0,0:0|0:0,0:0:0:0:
217,248,66487,2,0,P|151:269|61:220,1,165.000006294251,4|0,0:0|0:0,0:0:0:0:
148,68,66919,5,0,1:0:0:0:
148,68,66991,1,0,1:0:0:0:
148,68,67063,1,8,1:2:0:0:
208,148,67207,1,4,0:3:0:0:
48,136,67351,2,0,P|55:88|60:44,1,82.5000031471254,4|4,0:3|0:3,0:0:0:0:
272,96,67639,6,0,P|336:96|396:84,1,123.750004720688,2|0,0:0|0:0,0:0:0:0:
394,84,67927,2,0,P|400:126|408:180,1,82.5000031471254,2|0,0:0|0:0,0:0:0:0:
424,296,68215,2,0,P|465:290|512:284,1,82.5000031471254,8|0,1:2|0:0,0:0:0:0:
308,248,68503,2,0,P|267:254|220:260,1,82.5000031471254,2|0,1:2|0:0,0:0:0:0:
48,136,68791,6,0,P|111:144|148:220,1,123.750004720688,2|0,1:2|0:0,0:0:0:0:
152,196,69079,2,0,P|193:190|240:184,1,82.5000031471254,2|0,2:2|0:0,0:0:0:0:
380,152,69367,1,2,0:0:0:0:
380,152,69439,1,2,0:0:0:0:
380,152,69511,1,2,0:0:0:0:
380,152,69583,1,2,0:0:0:0:
380,152,69655,2,0,B|364:104|368:60|368:60|320:104,1,123.750004720688,2|0,0:0|0:0,0:0:0:0:
272,100,69943,22,0,B|212:60|156:76|156:76|168:44|160:24,1,165.000006294251,4|0,1:0|0:0,0:0:0:0:
162,34,70375,1,0,0:0:0:0:
42,261,70519,2,0,B|102:221|158:237|158:237|146:205|152:196,1,165.000006294251,4|0,1:0|0:0,0:0:0:0:
152,196,71095,5,4,1:0:0:0:
272,100,71239,1,4,0:3:0:0:
128,44,71383,1,4,0:3:0:0:
186,201,71527,1,4,1:0:0:0:
264,64,71671,1,4,0:3:0:0:
105,71,71815,1,4,0:3:0:0:
223,209,71959,21,2,2:0:0:0:
260,196,72031,1,2,2:0:0:0:
296,204,72103,1,2,2:0:0:0:
332,188,72175,1,2,2:0:0:0:
368,192,72247,2,0,P|376:172|408:148,3,41.2500015735627
476,232,72535,2,0,P|484:252|492:292,3,41.2500015735627
384,292,72823,2,0,P|368:284|344:280,3,41.2500015735627
285,327,73111,5,2,2:0:0:0:
260,356,73183,1,2,2:0:0:0:
222,367,73255,1,2,2:0:0:0:
187,358,73327,1,2,2:0:0:0:
158,338,73399,1,2,2:0:0:0:
142,303,73471,1,2,2:0:0:0:
148,268,73543,1,2,2:0:0:0:
168,234,73615,1,2,2:0:0:0:
196,212,73687,2,0,B|176:168|184:128|184:128|168:148|128:160,1,123.750004720688,0|0,1:0|0:0,0:0:0:0:
80,176,73975,21,4,1:3:0:0:
224,288,74119,1,4,2:3:0:0:
52,356,74263,1,4,2:3:0:0:
52,356,74551,1,2,0:0:0:0:
52,356,75127,21,2,0:0:0:0:
66,266,75271,1,0,0:0:0:0:
80,176,75415,1,0,0:0:0:0:
224,288,75703,5,2,0:0:0:0:
312,128,75991,1,2,0:0:0:0:
108,180,76279,21,2,0:0:0:0:
220,260,76567,1,0,0:0:0:0:
324,100,76856,21,2,0:0:0:0:
80,176,77144,1,0,2:0:0:0:
224,288,77432,53,2,0:0:0:0:
336,68,77720,1,2,0:0:0:0:
48,168,78008,1,2,2:0:0:0:
228,316,78296,1,0,2:0:0:0:
468,240,78584,5,2,0:0:0:0:
400,184,78728,1,0,2:0:0:0:
384,268,78872,1,2,2:0:0:0:
384,268,79160,5,2,2:2:0:0:
44,240,79736,53,2,0:0:0:0:
112,184,79880,1,0,2:0:0:0:
128,268,80024,1,2,2:0:0:0:
44,240,80168,1,0,0:0:0:0:
112,184,80312,5,2,0:0:0:0:
256,256,80600,1,2,0:0:0:0:
400,184,80888,1,2,0:0:0:0:
256,256,81176,1,2,0:0:0:0:
256,192,81464,12,0,83192,0:0:0:0:
