osu file format v12

[General]
AudioFilename: gted time.mp3
AudioLeadIn: 0
PreviewTime: 18959
Countdown: 0
SampleSet: Soft
StackLeniency: 0.7
Mode: 0
LetterboxInBreaks: 1
WidescreenStoryboard: 1

[Editor]
DistanceSpacing: 1.2
BeatDivisor: 4
GridSize: 4

[Metadata]
Title:Sweet & Sweet CHERRY (TV Size)
TitleUnicode:Sweet & Sweet CHERRY (TV Size)
Artist:Horie Yui
ArtistUnicode:堀江由衣
Creator:[ Yuki ]
Version:Normal
Source:Golden Time
Tags:
BeatmapID:335462
BeatmapSetID:133561

[Difficulty]
HPDrainRate:3
CircleSize:3
OverallDifficulty:3
ApproachRate:4
SliderMultiplier:1.4
SliderTickRate:1

[Events]
//Background and Video events
0,0,"BG.jpg",0,0
//Break Periods
//Storyboard Layer 0 (Background)
//Storyboard Layer 1 (Fail)
//Storyboard Layer 2 (Pass)
//Storyboard Layer 3 (Foreground)
//Storyboard Sound Samples
//Background Colour Transformations
3,100,163,162,255

[TimingPoints]
821,576.923076923077,4,2,1,80,1,0
6590,-100,4,2,2,80,0,0
7167,-100,4,2,1,80,0,0
8897,-100,4,2,2,80,0,0
9474,-100,4,2,1,80,0,0
10051,574.162679425837,4,2,1,80,1,0
16940,576.923076923077,4,2,1,80,1,0
19247,576.09217474796,4,2,1,80,1,0
56116,-100,4,2,1,80,0,1
72247,576.368876080692,4,2,1,80,1,1
74552,-100,4,2,1,80,0,0
79163,577.478344562079,4,2,1,80,1,0
80317,582.52427184466,4,2,1,80,1,0
81613,715.990453460621,4,2,1,80,1,0
82328,724.63768115942,4,2,1,80,1,0
83052,750,4,2,1,80,1,0
83239,-100,4,2,1,40,0,0
84552,-100,4,2,1,30,0,0
86052,-100,4,2,1,20,0,0
87552,-100,4,2,1,10,0,0
88302,-100,4,2,1,5,0,0

[Colours]
Combo1 : 255,128,128
Combo2 : 255,255,128
Combo3 : 255,128,255

[HitObjects]
48,264,244,6,0,L|48:336,2,70,0|0|2,0:0|0:0|0:0,0:0:0:0:
112,108,1397,2,0,L|112:36,2,70,0|0|2,0:0|0:0|0:0,0:0:0:0:
48,264,2551,2,0,P|112:280|184:264,1,140,2|2,0:0|0:0,0:0:0:0:
252,216,3417,5,2,0:0:0:0:
320,168,3705,2,0,L|392:168,2,70,0|0|2,0:0|0:0|0:0,0:0:0:0:
172,88,4859,2,0,L|100:88,2,70,0|0|8,0:0|0:0|0:0,0:0:0:0:
320,168,6013,6,0,L|392:168,2,70,0|8|8,0:0|0:0|0:0,0:0:0:0:
172,88,7167,1,0,0:0:0:0:
320,168,7744,2,0,L|320:240,1,70,8|0,0:0|0:0,0:0:0:0:
240,264,8321,2,0,L|240:336,2,70,0|8|8,0:0|0:0|0:0,0:0:0:0:
240,96,9474,2,0,L|240:24,2,70,0|0|4,0:0|0:0|0:0,0:0:0:0:
168,140,10338,6,0,L|168:212,1,70,0|8,0:0|0:0,0:0:0:0:
116,276,10912,1,0,0:0:0:0:
184,324,11199,2,0,P|248:348|312:324,1,140,2|8,0:0|0:0,0:0:0:0:
376,268,12060,2,0,P|312:244|248:268,1,140
184,324,12921,2,0,L|112:324,1,70,8|0,0:0|0:0,0:0:0:0:
52,384,13495,2,0,P|27:318|52:255,1,140,2|8,0:0|0:0,0:0:0:0:
84,176,14357,1,0,0:0:0:0:
140,112,14644,6,0,L|280:112,2,140,4|8|2,0:0|0:0|0:0,0:0:0:0:
160,192,16079,2,0,L|232:192,2,70,0|8|0,0:0|0:0|0:0,0:0:0:0:
256,192,16940,12,4,18093,0:0:0:0:
92,296,18670,6,0,P|128:294|157:278,1,70,8|0,0:0|0:0,0:0:0:0:
196,204,19247,2,0,P|260:180|324:204,1,140,4|8,0:0|0:0,0:0:0:0:
368,276,20111,1,0,0:0:0:0:
320,344,20399,2,0,P|256:368|192:344,1,140,2|8,0:0|0:0,0:0:0:0:
44,268,21551,2,0,L|44:128,1,140,0|8,0:0|0:0,0:0:0:0:
102,68,22415,1,0,0:0:0:0:
168,120,22703,2,0,P|232:144|296:120,1,140,2|8,0:0|0:0,0:0:0:0:
440,32,23855,6,0,P|464:96|440:160,1,140,4|8,0:0|0:0,0:0:0:0:
356,168,24719,1,0,0:0:0:0:
356,168,25007,2,0,L|216:168,1,140,2|8,0:0|0:0,0:0:0:0:
132,168,25872,1,0,0:0:0:0:
132,168,26160,2,0,P|108:104|132:40,1,140,0|8,0:0|0:0,0:0:0:0:
216,44,27024,1,0,0:0:0:0:
300,44,27312,2,0,L|372:44,2,70,2|8|0,0:0|0:0|0:0,0:0:0:0:
216,188,28464,6,0,L|356:188,1,140,4|8,0:0|0:0,0:0:0:0:
416,248,29328,1,0,0:0:0:0:
356,308,29616,2,0,L|216:308,1,140,2|8,0:0|0:0,0:0:0:0:
56,256,30768,2,0,P|84:193|146:165,1,140,0|8,0:0|0:0,0:0:0:0:
212,220,31632,1,0,0:0:0:0:
212,220,31920,2,0,L|352:220,1,140,2|8,0:0|0:0,0:0:0:0:
432,72,33073,6,0,L|292:72,1,140,4|8,0:0|0:0,0:0:0:0:
208,72,33937,1,0,0:0:0:0:
124,76,34225,2,0,P|100:140|124:204,1,140,2|8,0:0|0:0,0:0:0:0:
268,292,35377,2,0,P|292:227|267:163,1,140,0|8,0:0|0:0,0:0:0:0:
124,204,36529,2,0,P|100:140|124:76,2,140,0|8|4,0:0|0:0|0:0,0:0:0:0:
180,140,37969,6,0,L|320:140,1,140
364,212,38834,2,0,L|436:212,1,70,2|0,0:0|0:0,0:0:0:0:
488,276,39410,1,8,0:0:0:0:
320,300,39986,2,0,P|256:324|192:300,1,140,0|8,0:0|0:0,0:0:0:0:
256,244,40850,1,0,0:0:0:0:
256,244,41138,2,0,P|320:220|384:244,1,140,2|8,0:0|0:0,0:0:0:0:
428,316,42002,1,0,0:0:0:0:
472,244,42290,6,0,L|472:104,1,140,4|8,0:0|0:0,0:0:0:0:
472,20,43154,1,0,0:0:0:0:
400,64,43442,2,0,L|328:64,1,70,2|0,0:0|0:0,0:0:0:0:
248,64,44018,1,8,0:0:0:0:
92,128,44595,6,0,P|120:190|182:218,1,140,0|8,0:0|0:0,0:0:0:0:
256,176,45459,1,0,0:0:0:0:
256,176,45747,2,0,L|328:176,2,70,8|0|8,0:0|0:0|0:0,0:0:0:0:
184,220,46611,1,0,0:0:0:0:
184,220,46899,6,0,P|160:284|184:348,1,140,4|8,0:0|0:0,0:0:0:0:
240,284,47763,1,0,0:0:0:0:
240,284,48051,2,0,L|312:284,1,70
392,268,48627,1,8,0:0:0:0:
440,200,48915,1,0,0:0:0:0:
380,140,49203,2,0,P|312:128|240:140,2,140,0|8|0,0:0|0:0|0:0,0:0:0:0:
440,200,50644,2,0,L|440:272,1,70,0|8,0:0|0:0,0:0:0:0:
280,324,51508,6,0,P|251:261|189:233,1,140,4|8,0:0|0:0,0:0:0:0:
176,64,52660,2,0,P|204:126|266:154,1,140,2|8,0:0|0:0,0:0:0:0:
424,212,53812,2,0,L|424:282,1,70
340,280,54388,2,0,L|340:210,2,70,8|0|8,0:0|0:0|0:0,0:0:0:0:
192,356,55540,2,0,L|264:356,2,70,0|0|4,0:0|0:0|0:0,0:0:0:0:
100,216,56692,6,0,L|100:288,2,70,8|0|2,0:0|0:0|0:0,0:0:0:0:
264,180,57845,2,0,L|264:108,1,70,8|0,0:0|0:0,0:0:0:0:
200,56,58421,2,0,P|264:32|328:56,1,140,0|8,0:0|0:0,0:0:0:0:
400,100,59285,1,0,0:0:0:0:
335,153,59573,2,0,L|335:225,1,70,2|0,0:0|0:0,0:0:0:0:
264,268,60149,2,0,L|264:340,2,70,8|0|4,0:0|0:0|0:0,0:0:0:0:
136,160,61301,6,0,L|136:88,2,70,8|0|2,0:0|0:0|0:0,0:0:0:0:
264,268,62453,2,0,L|336:268,1,70,8|0,0:0|0:0,0:0:0:0:
420,268,63030,2,0,P|444:204|420:140,2,140,0|8|2,0:0|0:0|0:0,0:0:0:0:
334,268,64470,2,0,L|264:268,2,70
420,268,65334,5,4,0:0:0:0:
300,148,65910,2,0,L|228:148,2,70,8|0|2,0:0|0:0|0:0,0:0:0:0:
420,268,67062,2,0,L|348:268,1,70,8|0,0:0|0:0,0:0:0:0:
284,320,67638,2,0,L|212:320,1,70
148,268,68214,2,0,L|76:268,2,70,8|0|2,0:0|0:0|0:0,0:0:0:0:
216,220,69078,2,0,L|286:220,1,70,0|8,0:0|0:0,0:0:0:0:
420,116,69943,6,0,P|448:53|516:36,2,140,4|8|8,0:0|0:0|0:0,0:0:0:0:
504,116,71383,2,0,L|504:256,1,140
444,316,72247,1,2,0:0:0:0:
444,316,73399,2,0,L|372:316,1,70
308,264,73975,6,0,L|236:264,2,70,0|0|4,0:0|0:0|0:0,0:0:0:0:
440,160,75128,2,0,L|512:160,2,70,0|0|2,0:0|0:0|0:0,0:0:0:0:
288,88,76280,2,0,P|224:64|160:88,1,140
88,136,77146,1,0,0:0:0:0:
160,180,77434,2,0,L|160:252,2,70,0|0|2,0:0|0:0|0:0,0:0:0:0:
308,256,78587,6,0,L|308:328,2,70,0|0|2,0:0|0:0|0:0,0:0:0:0:
160,180,79740,2,0,L|160:252,2,70,0|0|2,0:0|0:0|0:0,0:0:0:0:
220,120,80608,2,0,L|220:48,2,70
256,192,81613,12,0,83052,0:0:0:0:
256,192,83239,12,0,88302,0:0:0:0:
