osu file format v12

[General]
AudioFilename: gted time.mp3
AudioLeadIn: 0
PreviewTime: 18959
Countdown: 0
SampleSet: Soft
StackLeniency: 0.7
Mode: 0
LetterboxInBreaks: 1
WidescreenStoryboard: 1

[Editor]
DistanceSpacing: 1.2
BeatDivisor: 4
GridSize: 4

[Metadata]
Title:Sweet & Sweet CHERRY (TV Size)
TitleUnicode:Sweet & Sweet CHERRY (TV Size)
Artist:Horie Yui
ArtistUnicode:堀江由衣
Creator:[ Yuki ]
Version:Hard
Source:Golden Time
Tags:
BeatmapID:335335
BeatmapSetID:133561

[Difficulty]
HPDrainRate:6
CircleSize:4
OverallDifficulty:6
ApproachRate:7
SliderMultiplier:1.6
SliderTickRate:1

[Events]
//Background and Video events
0,0,"BG.jpg",0,0
//Break Periods
//Storyboard Layer 0 (Background)
//Storyboard Layer 1 (Fail)
//Storyboard Layer 2 (Pass)
//Storyboard Layer 3 (Foreground)
//Storyboard Sound Samples
//Background Colour Transformations
3,100,163,162,255

[TimingPoints]
821,576.923076923077,4,2,1,80,1,0
6590,-100,4,2,2,80,0,0
7167,-100,4,2,1,80,0,0
8897,-100,4,2,2,80,0,0
9474,-100,4,2,1,80,0,0
10051,574.162679425837,4,2,1,80,1,0
16940,576.923076923077,4,2,1,80,1,0
19247,576.09217474796,4,2,1,80,1,0
56116,-100,4,2,1,80,0,1
72247,576.368876080692,4,2,1,80,1,1
74552,-100,4,2,1,80,0,0
79163,577.478344562079,4,2,1,80,1,0
80317,582.52427184466,4,2,1,80,1,0
81613,715.990453460621,4,2,1,80,1,0
82328,724.63768115942,4,2,1,80,1,0
83052,750,4,2,1,80,1,0
83239,-100,4,2,1,40,0,0
84552,-100,4,2,1,30,0,0
86052,-100,4,2,1,20,0,0
87552,-100,4,2,1,10,0,0
88302,-100,4,2,1,5,0,0

[Colours]
Combo1 : 255,128,128
Combo2 : 255,255,128
Combo3 : 255,128,255

[HitObjects]
352,72,244,6,0,L|392:72,2,40,0|0|0,0:0|0:0|0:0,0:0:0:0:
256,72,821,1,2,0:0:0:0:
108,192,1397,2,0,L|68:192,2,40,0|0|0,0:0|0:0|0:0,0:0:0:0:
196,232,1974,1,2,0:0:0:0:
286,223,2262,1,0,0:0:0:0:
318,138,2550,1,0,0:0:0:0:
256,72,2839,1,2,0:0:0:0:
256,72,3417,5,0,0:0:0:0:
318,138,3705,1,2,0:0:0:0:
286,223,3994,1,0,0:0:0:0:
196,232,4282,1,2,0:0:0:0:
40,344,4859,2,0,L|0:344,2,40,0|0|0,0:0|0:0|0:0,0:0:0:0:
136,344,5436,5,2,0:0:0:0:
256,192,6013,2,0,L|296:192,2,40,0|8|8,0:0|0:0|0:0,0:0:0:0:
160,192,6590,1,8,0:0:0:0:
352,192,7167,1,0,0:0:0:0:
160,192,7744,1,8,0:0:0:0:
208,108,8032,1,8,0:0:0:0:
304,108,8321,1,0,0:0:0:0:
352,192,8609,1,8,0:0:0:0:
256,192,8897,1,8,0:0:0:0:
380,48,9474,2,0,L|420:48,2,40,0|0|0,0:0|0:0|0:0,0:0:0:0:
304,108,10051,6,0,L|224:108,1,80,4|0,0:0|0:0,0:0:0:0:
136,148,10625,2,0,P|127:107|135:67,1,80,8|0,0:0|0:0,0:0:0:0:
224,108,11199,1,2,0:0:0:0:
224,108,11486,2,0,L|224:188,1,80,0|8,0:0|0:0,0:0:0:0:
252,280,12060,2,0,P|328:252|400:280,1,160
328,344,12921,1,8,0:0:0:0:
328,344,13208,1,0,0:0:0:0:
328,344,13495,2,0,L|328:184,1,160,2|8,0:0|0:0,0:0:0:0:
328,88,14357,1,0,0:0:0:0:
400,152,14644,6,0,P|328:180|252:152,1,160,4|8,0:0|0:0,0:0:0:0:
184,88,15505,1,0,0:0:0:0:
116,156,15792,2,0,P|100:216|116:272,2,120,2|2|4,0:0|0:0|0:0,0:0:0:0:
256,192,16940,12,4,18093,0:0:0:0:
256,132,18670,6,0,L|256:212,1,80,8|0,0:0|0:0,0:0:0:0:
184,276,19247,2,0,P|256:304|332:276,1,160,4|8,0:0|0:0,0:0:0:0:
360,184,20111,1,0,0:0:0:0:
360,88,20399,2,0,P|289:119|255:192,1,160,2|8,0:0|0:0,0:0:0:0:
300,276,21263,2,0,P|297:316|279:353,1,80
205,291,21839,2,0,P|207:250|225:213,2,80,0|8|0,0:0|0:0|0:0,0:0:0:0:
300,276,22703,2,0,L|460:276,1,160,2|8,0:0|0:0,0:0:0:0:
428,152,23567,1,0,0:0:0:0:
428,152,23711,1,0,0:0:0:0:
428,152,23855,6,0,L|268:152,1,160,4|8,0:0|0:0,0:0:0:0:
172,152,24719,1,0,0:0:0:0:
236,224,25007,2,0,P|264:152|236:76,2,160,2|8|0,0:0|0:0|0:0,0:0:0:0:
172,152,26448,1,0,0:0:0:0:
236,224,26736,2,0,L|316:224,1,80
384,292,27312,2,0,L|464:292,2,80,2|8|0,0:0|0:0|0:0,0:0:0:0:
192,292,28464,5,4,0:0:0:0:
192,292,29040,2,0,P|183:251|191:211,1,80,8|0,0:0|0:0,0:0:0:0:
208,196,29472,1,0,0:0:0:0:
224,176,29616,2,0,P|252:104|224:28,1,160,2|8,0:0|0:0,0:0:0:0:
160,100,30480,1,0,0:0:0:0:
328,48,30768,2,0,L|406:34,1,80
388,128,31344,2,0,L|466:141,1,80,8|0,0:0|0:0,0:0:0:0:
508,228,31921,2,0,P|509:305|457:367,1,160,2|8,0:0|0:0,0:0:0:0:
420,276,32785,1,0,0:0:0:0:
420,276,32929,1,0,0:0:0:0:
420,276,33073,6,0,P|352:238|324:162,1,160,4|8,0:0|0:0,0:0:0:0:
420,180,33937,1,0,0:0:0:0:
508,228,34225,2,0,P|509:305|457:367,1,160,2|8,0:0|0:0,0:0:0:0:
376,316,35089,1,0,0:0:0:0:
336,228,35377,2,0,L|252:228,1,80
172,324,35953,2,0,L|256:324,1,80,8|0,0:0|0:0,0:0:0:0:
336,228,36529,2,0,P|367:157|440:123,2,160,0|8|4,0:0|0:0|0:0,0:0:0:0:
432,224,37969,6,0,L|432:384,1,160
308,344,38834,2,0,L|308:264,1,80,2|0,0:0|0:0,0:0:0:0:
248,188,39410,2,0,P|180:150|152:74,1,160,8|0,0:0|0:0,0:0:0:0:
248,88,40274,1,0,0:0:0:0:
96,160,40562,2,0,L|23:193,1,80,8|0,0:0|0:0,0:0:0:0:
4,228,40994,1,0,0:0:0:0:
4,228,41138,1,2,0:0:0:0:
72,296,41426,2,0,L|145:263,1,80,0|8,0:0|0:0,0:0:0:0:
192,180,42002,1,0,0:0:0:0:
144,264,42290,6,0,B|196:292|248:260|248:260|304:260,1,160,4|8,0:0|0:0,0:0:0:0:
396,260,43154,1,0,0:0:0:0:
368,168,43442,2,0,L|288:168,1,80,2|0,0:0|0:0,0:0:0:0:
224,96,44018,2,0,P|195:168|224:244,2,160,8|0|8,0:0|0:0|0:0,0:0:0:0:
340,92,45459,2,0,P|349:51|341:11,1,80,0|8,0:0|0:0,0:0:0:0:
256,144,46035,2,0,P|247:185|255:225,1,80,0|8,0:0|0:0,0:0:0:0:
344,188,46611,1,0,0:0:0:0:
432,224,46899,6,0,P|441:183|433:143,1,80,4|0,0:0|0:0,0:0:0:0:
340,92,47475,1,8,0:0:0:0:
344,188,47763,2,0,P|345:266|404:318,1,160
432,224,48627,1,8,0:0:0:0:
272,320,48915,2,0,L|192:320,1,80
128,248,49491,2,0,L|48:248,2,80,0|8|0,0:0|0:0|0:0,0:0:0:0:
204,192,50355,1,0,0:0:0:0:
204,192,50500,1,0,0:0:0:0:
204,192,50644,2,0,L|284:192,2,80,0|8|0,0:0|0:0|0:0,0:0:0:0:
228,100,51508,6,0,B|177:100|177:100|125:132|73:104,1,160,4|8,0:0|0:0,0:0:0:0:
124,20,52372,1,0,0:0:0:0:
124,20,52516,1,0,0:0:0:0:
124,20,52660,2,0,P|152:92|124:168,1,160,2|8,0:0|0:0,0:0:0:0:
216,336,53812,2,0,P|200:278|216:221,1,120
248,196,54388,2,0,P|264:138|248:81,1,120,8|0,0:0|0:0,0:0:0:0:
216,60,54964,2,0,L|181:40,2,40,8|8|8,0:0|0:0|0:0,0:0:0:0:
156,136,55540,2,0,L|116:136,2,40
184,228,56116,5,4,0:0:0:0:
350,323,56692,2,0,L|390:323,2,40,8|0|0,0:0|0:0|0:0,0:0:0:0:
328,228,57269,1,2,0:0:0:0:
256,52,57845,2,0,L|256:12,2,40,8|0|0,0:0|0:0|0:0,0:0:0:0:
216,140,58421,2,0,P|256:148|296:140,1,80
316,128,58853,1,0,0:0:0:0:
336,116,58997,1,8,0:0:0:0:
444,232,59285,1,0,0:0:0:0:
376,300,59573,2,0,L|296:300,1,80,2|0,0:0|0:0,0:0:0:0:
228,232,60149,2,0,L|188:232,2,40,8|0|0,0:0|0:0|0:0,0:0:0:0:
324,232,60725,5,4,0:0:0:0:
144,160,61301,2,0,L|104:160,2,40,8|0|0,0:0|0:0|0:0,0:0:0:0:
216,96,61877,2,0,L|256:96,2,40,2|0|0,0:0|0:0|0:0,0:0:0:0:
144,32,62453,1,8,0:0:0:0:
336,56,63030,2,0,P|344:96|336:136,1,80
304,156,63462,2,0,P|296:196|304:236,1,80
324,268,63894,1,0,0:0:0:0:
392,200,64182,2,0,L|432:200,2,40
416,108,64758,2,0,L|456:108,2,40
336,56,65334,5,4,0:0:0:0:
156,112,65910,2,0,L|116:112,2,40,8|0|0,0:0|0:0|0:0,0:0:0:0:
244,72,66486,2,0,L|264:37,2,40,2|0|0,0:0|0:0|0:0,0:0:0:0:
236,168,67062,2,0,L|256:202,2,40
156,112,67638,2,0,L|156:272,1,160,0|8,0:0|0:0,0:0:0:0:
156,368,68502,1,0,0:0:0:0:
228,304,68790,2,0,P|156:276|80:304,1,160,2|0,0:0|0:0,0:0:0:0:
156,368,69655,1,0,0:0:0:0:
228,304,69943,6,0,L|388:304,1,160,4|8,0:0|0:0,0:0:0:0:
452,232,70807,1,0,0:0:0:0:
380,168,71095,2,0,L|260:168,2,120,8|8|2,0:0|0:0|0:0,0:0:0:0:
452,104,72247,1,2,0:0:0:0:
452,104,73399,1,0,0:0:0:0:
380,168,73687,1,0,0:0:0:0:
308,104,73975,6,0,L|268:104,2,40
380,40,74552,1,2,0:0:0:0:
293,211,75128,2,0,L|253:211,2,40
380,168,75705,1,2,0:0:0:0:
308,104,75992,1,0,0:0:0:0:
380,40,76280,1,0,0:0:0:0:
452,104,76569,1,2,0:0:0:0:
452,104,77146,5,0,0:0:0:0:
380,40,77434,1,2,0:0:0:0:
308,104,77722,1,0,0:0:0:0:
380,168,78010,1,2,0:0:0:0:
212,80,78587,2,0,L|172:80,2,40
308,104,79163,5,2,0:0:0:0:
431,248,79740,1,0,0:0:0:0:
431,248,79884,1,0,0:0:0:0:
431,248,80029,1,0,0:0:0:0:
431,248,80173,1,0,0:0:0:0:
432,248,80317,1,2,0:0:0:0:
256,192,80608,2,0,L|176:192,2,80
256,192,81613,12,0,83052,0:0:0:0:
256,192,83239,12,0,88302,0:0:0:0:
