osu file format v7

[General]
AudioFilename: sugar sweet nightmare.mp3
AudioLeadIn: 2000
PreviewTime: 59590
Countdown: 1
SampleSet: Soft
StackLeniency: 0.7
Mode: 0
LetterboxInBreaks: 1

[Editor]
DistanceSpacing: 1.20000004768372
BeatDivisor: 4
GridSize: 8

[Metadata]
Title:Sugar Sweet Nightmare
Artist:Horie Yui
Creator:kioukiou
Version:Normal
Source:Bakemonogatari
Tags:quintitem

[Difficulty]
HPDrainRate:2
CircleSize:4
OverallDifficulty:4
SliderMultiplier:1.4
SliderTickRate:2

[Events]
//Background and Video events
0,0,"BG.jpg"
//Break Periods
2,12808,23577
2,83651,94420
2,154495,165264
2,189193,199240
//Storyboard Layer 0 (Background)
//Storyboard Layer 1 (Fail)
//Storyboard Layer 2 (Pass)
//Storyboard Layer 3 (Foreground)
Sprite,Foreground,Centre,"StoryBoard\aa.png",320,240 M,0,499,,313,416 F,0,499,680,0,1 F,0,4475,4656,1,0
Sprite,Foreground,Centre,"StoryBoard\ab.png",320,240 M,0,3391,,479,416 F,0,3391,3572,0,1 F,0,4475,4656,1,0
Sprite,Foreground,Centre,"StoryBoard\ac.png",320,240 M,0,4837,,313,416 F,0,4837,5017,0,1 F,0,12427,12608,1,0
Sprite,Foreground,Centre,"StoryBoard\ad.png",320,240 M,0,7909,,496,416 F,0,7909,8090,0,1 F,0,12427,12608,1,0
Sprite,Foreground,Centre,"StoryBoard\title.png",320,240 M,0,14054,15499,429,214,409,214 F,0,14054,15499,0,1 M,0,24174,24355,409,214,0,214 F,0,24174,24355,1,0
Sprite,Foreground,Centre,"StoryBoard\aritst.png",320,240 M,0,16945,18391,389,247,409,247 F,0,16945,18391,0,1 M,0,24174,24355,409,247,800,247 F,0,24174,24355,1,0
Sprite,Foreground,Centre,"StoryBoard\mapperk.png",320,240 M,0,19837,21282,409,300,409,280 F,0,19837,21282,0,1 M,0,24174,24355,409,280,409,600 F,0,24174,24355,1,0
Sprite,Foreground,Centre,"StoryBoard\ba.png",320,240 M,0,24716,,313,416 F,0,24716,24897,0,1 F,0,29776,29957,1,0
Sprite,Foreground,Centre,"StoryBoard\bb.png",320,240 M,0,27608,,455,416 F,0,27608,27788,0,1 F,0,29776,29957,1,0
Sprite,Foreground,Centre,"StoryBoard\bc.png",320,240 M,0,30499,,313,416 F,0,30499,30680,0,1 F,0,34837,35017,1,0
Sprite,Foreground,Centre,"StoryBoard\bd.png",320,240 M,0,32849,,495,416 F,0,32849,33029,0,1 F,0,34837,35017,1,0
Sprite,Foreground,Centre,"StoryBoard\be.png",320,240 M,0,36282,,313,416 F,0,36282,36463,0,1 F,0,41343,41523,1,0
Sprite,Foreground,Centre,"StoryBoard\bf.png",320,240 M,0,39174,,475,416 F,0,39174,39355,0,1 F,0,41343,41523,1,0
Sprite,Foreground,Centre,"StoryBoard\bg.png",320,240 M,0,42066,,313,416 F,0,42066,42246,0,1 F,0,46041,46222,1,0
Sprite,Foreground,Centre,"StoryBoard\bh.png",320,240 M,0,44415,,477,416 F,0,44415,44596,0,1 F,0,46041,46222,1,0
Sprite,Foreground,Centre,"StoryBoard\bi.png",320,240 M,0,46584,,313,416 F,0,46584,46764,0,1 F,0,51825,52005,1,0
Sprite,Foreground,Centre,"StoryBoard\bj.png",320,240 M,0,49475,,477,416 F,0,49475,49656,0,1 F,0,51825,52005,1,0
Sprite,Foreground,Centre,"StoryBoard\bk.png",320,240 M,0,52367,,313,416 F,0,52367,52548,0,1 F,0,58692,58873,1,0
Sprite,Foreground,Centre,"StoryBoard\bl.png",320,240 M,0,55258,,464,416 F,0,55258,55439,0,1 F,0,58692,58873,1,0
Sprite,Foreground,Centre,"StoryBoard\ca.png",320,240 M,0,59776,,313,416 F,0,59776,59957,0,1 F,0,63752,63933,1,0
Sprite,Foreground,Centre,"StoryBoard\cb.png",320,240 M,0,62668,,524,416 F,0,62668,62849,0,1 F,0,63752,63933,1,0
Sprite,Foreground,Centre,"StoryBoard\cc.png",320,240 M,0,64114,,313,416 F,0,64114,64295,0,1 F,0,70981,71162,1,0
Sprite,Foreground,Centre,"StoryBoard\cd.png",320,240 M,0,67186,,502,416 F,0,67186,67367,0,1 F,0,70981,71162,1,0
Sprite,Foreground,Centre,"StoryBoard\aa.png",320,240 M,0,71343,,313,416 F,0,71343,71523,0,1 F,0,75319,75499,1,0
Sprite,Foreground,Centre,"StoryBoard\ab.png",320,240 M,0,74234,,485,416 F,0,74234,74415,0,1 F,0,75319,75499,1,0
Sprite,Foreground,Centre,"StoryBoard\ac.png",320,240 M,0,75680,,313,416 F,0,75680,75861,0,1 F,0,83270,83451,1,0
Sprite,Foreground,Centre,"StoryBoard\ad.png",320,240 M,0,78752,,500,416 F,0,78752,78933,0,1 F,0,83270,83451,1,0
Sprite,Foreground,Centre,"StoryBoard\da.png",320,240 M,0,95560,,313,416 F,0,95560,95740,0,1 F,0,100620,100801,1,0
Sprite,Foreground,Centre,"StoryBoard\db.png",320,240 M,0,98451,,478,416 F,0,98451,98632,0,1 F,0,100620,100801,1,0
Sprite,Foreground,Centre,"StoryBoard\dc.png",320,240 M,0,101343,,313,416 F,0,101343,101523,0,1 F,0,105680,105861,1,0
Sprite,Foreground,Centre,"StoryBoard\dd.png",320,240 M,0,103692,,454,416 F,0,103692,103873,0,1 F,0,105680,105861,1,0
Sprite,Foreground,Centre,"StoryBoard\de.png",320,240 M,0,107126,,313,416 F,0,107126,107307,0,1 F,0,112186,112367,1,0
Sprite,Foreground,Centre,"StoryBoard\df.png",320,240 M,0,110017,,487,416 F,0,110017,110198,0,1 F,0,112186,112367,1,0
Sprite,Foreground,Centre,"StoryBoard\dg.png",320,240 M,0,112909,,313,416 F,0,112909,113090,0,1 F,0,116885,117066,1,0
Sprite,Foreground,Centre,"StoryBoard\dh.png",320,240 M,0,115258,,488,416 F,0,115258,115439,0,1 F,0,116885,117066,1,0
Sprite,Foreground,Centre,"StoryBoard\di.png",320,240 M,0,117246,,313,416 F,0,117246,117427,0,1 F,0,122668,122849,1,0
Sprite,Foreground,Centre,"StoryBoard\dj.png",320,240 M,0,120319,,454,416 F,0,120319,120499,0,1 F,0,122668,122849,1,0
Sprite,Foreground,Centre,"StoryBoard\dk.png",320,240 M,0,123210,,313,416 F,0,123210,123391,0,1 F,0,129535,129716,1,0
Sprite,Foreground,Centre,"StoryBoard\dl.png",320,240 M,0,126102,,430,416 F,0,126102,126282,0,1 F,0,129535,129716,1,0
Sprite,Foreground,Centre,"StoryBoard\ca.png",320,240 M,0,130620,,313,416 F,0,130620,130801,0,1 F,0,134596,134776,1,0
Sprite,Foreground,Centre,"StoryBoard\cb.png",320,240 M,0,133511,,523,416 F,0,133511,133692,0,1 F,0,134596,134776,1,0
Sprite,Foreground,Centre,"StoryBoard\cc.png",320,240 M,0,134957,,313,416 F,0,134957,135138,0,1 F,0,141825,142005,1,0
Sprite,Foreground,Centre,"StoryBoard\cd.png",320,240 M,0,138029,,501,416 F,0,138029,138210,0,1 F,0,141825,142005,1,0
Sprite,Foreground,Centre,"StoryBoard\aa.png",320,240 M,0,142186,,313,416 F,0,142186,142367,0,1 F,0,146162,146343,1,0
Sprite,Foreground,Centre,"StoryBoard\ab.png",320,240 M,0,145078,,483,416 F,0,145078,145258,0,1 F,0,146162,146343,1,0
Sprite,Foreground,Centre,"StoryBoard\ac.png",320,240 M,0,146523,,313,416 F,0,146523,146704,0,1 F,0,154114,154295,1,0
Sprite,Foreground,Centre,"StoryBoard\ad.png",320,240 M,0,149596,,498,416 F,0,149596,149776,0,1 F,0,154114,154295,1,0
Sprite,Foreground,Centre,"StoryBoard\ea.png",320,240 M,0,166584,,313,416 F,0,166584,166764,0,1 F,0,171463,171644,1,0
Sprite,Foreground,Centre,"StoryBoard\eb.png",320,240 M,0,172367,,313,416 F,0,172367,172548,0,1 F,0,180138,180319,1,0
Sprite,Foreground,Centre,"StoryBoard\ec.png",320,240 M,0,175620,,431,416 F,0,175620,175801,0,1 F,0,180138,180319,1,0
Sprite,Foreground,Centre,"StoryBoard\ca.png",320,240 M,0,200017,,313,416 F,0,200017,200198,0,1 F,0,203993,204174,1,0
Sprite,Foreground,Centre,"StoryBoard\cb.png",320,240 M,0,202909,,524,416 F,0,202909,203090,0,1 F,0,203993,204174,1,0
Sprite,Foreground,Centre,"StoryBoard\cc.png",320,240 M,0,204355,,313,416 F,0,204355,204535,0,1 F,0,211222,211403,1,0
Sprite,Foreground,Centre,"StoryBoard\cd.png",320,240 M,0,207427,,500,416 F,0,207427,207608,0,1 F,0,211222,211403,1,0
Sprite,Foreground,Centre,"StoryBoard\aa.png",320,240 M,0,211584,,313,416 F,0,211584,211764,0,1 F,0,215560,215740,1,0
Sprite,Foreground,Centre,"StoryBoard\ab.png",320,240 M,0,214475,,482,416 F,0,214475,214656,0,1 F,0,215560,215740,1,0
Sprite,Foreground,Centre,"StoryBoard\ac.png",320,240 M,0,215921,,313,416 F,0,215921,216102,0,1 F,0,222788,222969,1,0
Sprite,Foreground,Centre,"StoryBoard\ad.png",320,240 M,0,218993,,496,416 F,0,218993,219174,0,1 F,0,222788,222969,1,0
Sprite,Foreground,Centre,"StoryBoard\ca.png",320,240 F,0,223150,223331,0,1 M,0,223150,229475,313,416,383,416 F,0,229295,229475,1,0
Sprite,Foreground,Centre,"StoryBoard\aa.png",320,240 F,0,226041,226222,0,1 M,0,226041,229475,558,366,509,366 F,0,229295,229475,1,0
Sprite,Foreground,Centre,"StoryBoard\ca.png",320,240 F,0,234716,234897,0,1 M,0,234716,241041,313,416,383,416 F,0,240861,241041,1,0
Sprite,Foreground,Centre,"StoryBoard\aa.png",320,240 F,0,237608,237788,0,1 M,0,237608,241041,558,366,509,366 F,0,240861,241041,1,0
Sprite,Foreground,Centre,"StoryBoard\ed.png",320,240 M,0,243933,,313,416 F,0,243933,244114,0,1 F,0,246644,246825,1,0
//Storyboard Sound Samples
//Background Colour Transformations
3,100,163,162,255

[TimingPoints]
1042,722.89156626506,4,2,1,70,1,0
23813,-100,4,2,1,70,0,0
46403,-100,4,2,1,50,0,0
46764,-100,4,2,1,60,0,0
47126,-100,4,2,1,70,0,0
49656,-100,4,2,2,60,0,0
50017,-100,4,2,1,70,0,0
50379,-100,4,2,2,60,0,0
50740,-100,4,2,1,70,0,0
53993,-100,4,2,2,60,0,0
54355,-100,4,2,1,70,0,0
56162,-100,4,2,2,60,0,0
56523,-100,4,2,1,70,0,0
60499,-100,4,2,1,85,0,0
94656,-100,4,2,1,60,0,0
117969,-100,4,2,1,70,0,0
121945,-100,4,2,2,60,0,0
122307,-100,4,2,1,70,0,0
122668,-100,4,2,2,60,0,0
123029,-100,4,2,1,70,0,0
124114,-100,4,2,2,60,0,0
124475,-100,4,2,1,70,0,0
124837,-100,4,2,2,60,0,0
125198,-100,4,2,1,70,0,0
131162,-100,4,2,1,85,0,0
132788,-100,4,2,2,65,0,0
133150,-100,4,2,1,85,0,0
154295,-100,4,2,1,0,0,0
165861,-100,4,2,1,60,0,0
175439,-100,4,2,1,70,0,0
199837,-100,4,2,1,50,0,0
201282,-100,4,2,1,60,0,0
202728,-100,4,2,1,70,0,0
204174,-100,4,2,1,80,0,0
205620,-100,4,2,1,85,0,0
209415,-100,4,2,2,65,0,0
209776,-100,4,2,1,85,0,0
210138,-100,4,2,2,65,0,0
210499,-100,4,2,1,85,0,0
212307,-100,4,2,2,65,0,0
212668,-100,4,2,1,85,0,0
213752,-100,4,2,2,65,0,0
214114,-100,4,2,1,85,0,0
214475,-100,4,2,2,65,0,0
214837,-100,4,2,1,85,0,0
223692,-100,4,2,1,70,0,0
226764,-100,4,2,2,60,0,0
227126,-100,4,2,1,70,0,0
229656,-100,4,2,2,60,0,0
230017,-100,4,2,1,70,0,0
230379,-100,4,2,2,60,0,0
230740,-100,4,2,1,70,0,0
231825,-100,4,2,2,60,0,0
232186,-100,4,2,1,70,0,0
232548,-100,4,2,2,60,0,0
232909,-100,4,2,1,70,0,0
243752,-100,4,2,1,85,0,0

[Colours]
Combo1 : 214,101,171
Combo2 : 255,255,255
Combo3 : 20,99,245
Combo4 : 240,5,5

[HitObjects]
112,80,1042,2,0,B|56:152|128:224,1,140,2|0
400,80,2487,2,0,B|456:152|384:224,1,140,2|0
256,344,3933,6,0,B|256:184,2,140,2|0|2
168,344,5740,1,0
80,344,6102,2,0,B|8:344,2,70,0|0|2
80,256,7186,1,0
168,256,7548,2,0,B|240:256,2,70
168,168,8632,5,0
168,168,8813,1,0
168,88,9174,1,0
168,88,9355,1,0
256,192,9716,12,4,12608
152,128,24897,6,0,B|116:148|116:239|172:263,2,140,8|0|8
360,128,27788,6,0,B|396:148|396:239|340:263,2,140,8|0|8
152,120,30680,6,0,B|152:40,2,70,8|0|0
152,208,31764,1,0
152,296,32126,1,8
152,296,32487,2,0,B|64:296,2,70
240,296,33572,1,8
320,296,33933,1,0
320,296,34295,2,0,B|400:296,2,70,0|0|8
376,96,36463,5,8
336,24,36825,1,0
256,24,37186,1,0
208,96,37548,1,0
256,168,37909,1,8
336,168,38270,1,0
176,280,39355,5,8
136,352,39716,1,0
56,352,40078,1,0
8,280,40439,1,0
56,208,40801,1,8
136,208,41162,1,0
192,56,42246,6,0,B|256:16|344:64,1,140,8|0
328,136,43331,1,0
328,216,43692,2,0,B|328:304,2,70,8|0|0
240,216,44776,1,0
240,128,45138,2,0,B|240:56,2,70,8|0|0
168,168,46222,5,8
96,208,46584,1,8
96,288,46945,1,4
168,328,47307,1,0
168,248,47668,2,0,B|320:248,1,140,8|8
392,248,48752,1,0
392,248,48933,1,0
392,248,49114,1,8
392,168,49475,6,0,B|392:80|488:56,2,140
304,168,51282,1,8
216,168,51644,1,0
128,168,52005,1,8
128,256,52367,5,0
128,256,52548,1,0
128,256,52728,2,0,B|32:256,2,70,8|4|8
216,256,53813,2,0,B|360:256,1,140
360,336,54897,5,8
432,296,55258,1,0
432,208,55620,1,8
360,168,55981,2,0,B|208:168,1,140
216,256,57066,5,8
152,208,57427,1,0
152,128,57788,1,8
216,80,58150,1,0
256,192,58331,12,4,60319
256,280,60680,6,0,B|256:368,2,70,8|0|8
256,192,61764,1,0
256,104,62126,2,0,B|256:16,2,70,8|0|8
184,144,63210,5,0
184,144,63572,2,0,B|112:104|32:152,2,140,8|8|8
184,232,65379,1,0
184,232,65740,2,0,B|256:272|336:224,2,140,8|8|8
120,288,67548,5,0
56,232,67909,1,8
120,176,68270,1,0
120,88,68632,2,0,B|120:8,2,70,8|0|8
192,128,69716,1,0
264,80,70078,5,8
264,80,70258,1,4
264,168,70620,1,0
264,168,70801,1,8
336,128,71162,6,0,B|416:128,2,70,0|0|4
336,216,72246,1,8
336,216,72608,1,0
248,216,72969,2,0,B|168:216,2,70,8|0|8
248,304,74054,1,0
248,304,74415,1,8
328,304,74776,6,0,B|400:304,1,70,0|8
360,224,75499,2,0,B|432:224,1,70,0|8
392,144,76222,2,0,B|312:144,1,70,0|8
352,64,76945,2,0,B|272:64,1,70,0|8
200,40,77668,5,0
128,88,78029,1,8
64,40,78391,1,0
128,88,78752,1,8
128,176,79114,1,8
128,176,79295,1,8
128,176,79475,2,0,B|128:320,1,140,8|8
256,192,80560,12,4,83451
184,160,95740,6,0,B|112:120|40:168,2,140,0|0|8
344,224,98632,6,0,B|416:264|488:216,2,140,8|0|8
256,96,101523,6,0,B|232:56|264:24,2,70,8|0|0
256,184,102608,1,0
256,264,102969,2,0,B|280:304|248:336,2,70,8|0|0
176,288,104054,5,0
104,328,104415,1,8
32,288,104776,1,0
104,248,105138,2,0,B|104:96,1,140,0|8
384,192,107307,5,8
384,192,107668,2,0,B|424:264|376:336,1,140
296,328,108752,1,8
208,328,109114,1,0
128,192,110198,5,8
128,192,110560,2,0,B|88:120|136:48,1,140
216,56,111644,1,8
304,56,112005,1,0
336,168,113090,6,0,B|376:192|408:184,2,70,8|0|0
248,168,114174,1,0
168,168,114535,1,8
168,168,114716,1,0
168,168,114897,1,0
168,88,115258,6,0,B|168:8,1,70
248,88,115981,2,0,B|248:192,1,70,8|0
328,88,116704,2,0,B|328:16,1,70,0|0
408,88,117427,2,0,B|408:176,1,70,8|8
408,240,118150,5,4
336,192,118511,1,8
264,240,118873,1,0
336,280,119234,2,0,B|336:360,2,70,8|0|8
336,192,120319,1,0
336,104,120680,2,0,B|336:32,2,70,8|0|8
248,104,121764,6,0,B|168:56|96:120,2,140
248,192,123572,1,8
248,280,123933,2,0,B|328:328|400:264,2,140,4|0|0
248,192,125740,1,8
160,192,126102,6,0,B|160:112,2,70,0|8|0
120,264,127186,1,8
120,264,127367,1,0
200,264,127728,1,0
200,264,127909,1,8
256,192,128270,12,4,131162
96,120,131523,5,8
56,192,131885,1,0
96,264,132246,1,8
136,192,132608,2,0,B|288:192,1,140
280,104,133692,6,0,B|280:24,2,70,8|0|8
352,152,134776,1,0
352,232,135138,1,8
280,280,135499,2,0,B|280:376,2,70,0|8|0
280,192,136584,5,8
200,192,136945,2,0,B|120:192,2,70,0|8|0
240,120,138029,2,0,B|312:80|384:128,1,140,8|8
432,184,139114,6,0,B|512:184,2,70,0|8|0
344,184,140198,1,8
344,184,140560,1,0
264,184,140921,1,8
264,184,141282,1,0
176,184,141644,2,0,B|96:184,2,70,8|0|8
216,256,142728,5,4
216,256,143090,2,0,B|184:328|88:312,2,140,8|8|8
256,184,144897,1,0
256,184,145258,1,8
256,96,145620,2,0,B|256:8,2,70,0|8|0
168,96,146704,6,0,B|88:96,1,70,8|0
96,184,147427,2,0,B|8:184,1,70,8|0
96,272,148150,2,0,B|176:272,1,70,8|0
168,352,148873,2,0,B|248:352,1,70,8|0
320,352,149596,5,8
320,272,149957,1,8
320,272,150138,1,8
320,272,150319,2,0,B|320:128,1,140,8|8
256,192,151403,12,0,154295
168,192,166584,6,0,B|96:160|16:200,2,140
256,192,168391,1,0
344,192,168752,2,0,B|416:224|496:184,2,140,2|0|0
256,192,170560,1,0
256,272,170921,2,0,B|256:360,2,70,0|0|2
256,104,172367,5,0
184,64,172728,1,0
112,104,173090,1,0
184,144,173451,1,0
184,144,173813,2,0,B|184:304,2,140,0|2|0
256,192,175620,5,0
256,192,175801,2,0,B|312:248,1,70,8|8
240,296,176523,2,0,B|184:352,1,70,8|8
256,192,177246,12,0,180319
248,136,180680,6,0,B|336:136,2,70,8|0|8
184,192,181764,2,0,B|104:192,2,70,0|8|0
256,240,182849,6,0,B|336:264|408:232,2,140,8|8|8
168,240,184656,1,0
80,240,185017,2,0,B|0:240,2,70,8|0|8
80,328,186102,1,0
160,328,186463,2,0,B|256:328,2,70,8|0|8
256,192,187548,12,4,188993
256,40,200560,5,4
96,192,202005,5,4
256,352,203451,5,4
416,192,204897,5,4
96,104,206343,6,0,B|96:16,2,70,4|8|0
96,192,207427,1,8
96,280,207788,2,0,B|96:360,2,70,0|8|0
96,192,208873,1,8
184,192,209234,2,0,B|256:160|328:200,2,140
184,280,211041,5,8
272,280,211403,1,0
360,280,211764,1,8
448,280,212126,6,0,B|504:208|432:136,1,140,4|0
360,152,213210,1,8
272,152,213572,2,0,B|216:80|288:8,2,140
312,224,215379,6,0,B|312:312,2,70,8|0|8
240,264,216463,1,0
168,224,216825,1,8
96,264,217186,1,0
24,224,217548,2,0,B|24:304,2,70,8|0|8
96,176,218632,5,0
96,96,218993,1,8
168,136,219355,1,8
168,136,219535,1,8
168,136,219716,2,0,B|312:136,1,140,8|8
256,192,220801,12,4,223692
432,40,224054,5,8
352,40,224415,1,0
272,40,224776,2,0,B|120:40,1,140,8|8
80,112,225861,5,0
160,112,226222,1,8
240,112,226584,2,0,B|392:112,1,140
432,184,227668,5,8
352,184,228029,1,0
272,184,228391,2,0,B|112:184,1,140,8|8
64,232,229475,6,0,B|8:296|80:376,2,140,4|0|0
152,232,231282,1,8
240,232,231644,2,0,B|296:296|224:376,2,140
152,232,233451,1,8
152,144,233813,2,0,B|152:56,2,70,0|8|0
240,144,234897,6,0,B|312:144,1,70,8|4
312,232,235620,2,0,B|392:232,1,70,8|0
312,312,236343,6,0,B|224:312,1,70,8|0
240,232,237066,2,0,B|168:232,1,70,8|0
168,152,237788,5,8
248,128,238150,1,0
328,152,238511,1,8
328,152,238692,1,0
328,152,238873,1,0
328,232,239234,5,8
248,264,239596,1,0
168,232,239957,1,8
168,232,240138,1,0
168,232,240319,1,0
88,232,240680,6,0,B|32:288,2,70,8|4|8
88,144,241764,1,0
88,56,242126,1,8
160,96,242487,5,8
160,96,242668,1,8
160,96,242849,2,0,B|304:96,1,140,8|8
384,96,243933,5,8
384,96,244114,1,8
384,176,244475,5,8
384,176,244656,1,8
384,256,245017,5,8
384,256,245198,1,8
384,336,245560,5,8
384,336,245740,1,8
304,336,246102,6,0,B|160:336,1,140,0|4
