osu file format v7

[General]
AudioFilename: sugar sweet nightmare.mp3
AudioLeadIn: 2000
PreviewTime: 59590
Countdown: 1
SampleSet: Soft
StackLeniency: 0.7
Mode: 0
LetterboxInBreaks: 1

[Editor]
DistanceSpacing: 0.899999976158142
BeatDivisor: 4
GridSize: 8

[Metadata]
Title:Sugar Sweet Nightmare
Artist:Horie Yui
Creator:kioukiou
Version:Hard
Source:Bakemonogatari
Tags:quintitem

[Difficulty]
HPDrainRate:6
CircleSize:4
OverallDifficulty:7
SliderMultiplier:1.6
SliderTickRate:1

[Events]
//Background and Video events
0,0,"BG.jpg"
//Break Periods
2,12808,23274
2,83290,94117
2,154133,164961
2,189193,199660
//Storyboard Layer 0 (Background)
//Storyboard Layer 1 (Fail)
//Storyboard Layer 2 (Pass)
//Storyboard Layer 3 (Foreground)
Sprite,Foreground,Centre,"StoryBoard\aa.png",320,240 M,0,499,,313,416 F,0,499,680,0,1 F,0,4475,4656,1,0
Sprite,Foreground,Centre,"StoryBoard\ab.png",320,240 M,0,3391,,479,416 F,0,3391,3572,0,1 F,0,4475,4656,1,0
Sprite,Foreground,Centre,"StoryBoard\ac.png",320,240 M,0,4837,,313,416 F,0,4837,5017,0,1 F,0,12427,12608,1,0
Sprite,Foreground,Centre,"StoryBoard\ad.png",320,240 M,0,7909,,496,416 F,0,7909,8090,0,1 F,0,12427,12608,1,0
Sprite,Foreground,Centre,"StoryBoard\title.png",320,240 M,0,14054,15499,429,214,409,214 F,0,14054,15499,0,1 M,0,24174,24355,409,214,0,214 F,0,24174,24355,1,0
Sprite,Foreground,Centre,"StoryBoard\aritst.png",320,240 M,0,16945,18391,389,247,409,247 F,0,16945,18391,0,1 M,0,24174,24355,409,247,800,247 F,0,24174,24355,1,0
Sprite,Foreground,Centre,"StoryBoard\mapperk.png",320,240 M,0,19837,21282,409,300,409,280 F,0,19837,21282,0,1 M,0,24174,24355,409,280,409,600 F,0,24174,24355,1,0
Sprite,Foreground,Centre,"StoryBoard\ba.png",320,240 M,0,24716,,313,416 F,0,24716,24897,0,1 F,0,29776,29957,1,0
Sprite,Foreground,Centre,"StoryBoard\bb.png",320,240 M,0,27608,,455,416 F,0,27608,27788,0,1 F,0,29776,29957,1,0
Sprite,Foreground,Centre,"StoryBoard\bc.png",320,240 M,0,30499,,313,416 F,0,30499,30680,0,1 F,0,34837,35017,1,0
Sprite,Foreground,Centre,"StoryBoard\bd.png",320,240 M,0,32849,,495,416 F,0,32849,33029,0,1 F,0,34837,35017,1,0
Sprite,Foreground,Centre,"StoryBoard\be.png",320,240 M,0,36282,,313,416 F,0,36282,36463,0,1 F,0,41343,41523,1,0
Sprite,Foreground,Centre,"StoryBoard\bf.png",320,240 M,0,39174,,475,416 F,0,39174,39355,0,1 F,0,41343,41523,1,0
Sprite,Foreground,Centre,"StoryBoard\bg.png",320,240 M,0,42066,,313,416 F,0,42066,42246,0,1 F,0,46041,46222,1,0
Sprite,Foreground,Centre,"StoryBoard\bh.png",320,240 M,0,44415,,477,416 F,0,44415,44596,0,1 F,0,46041,46222,1,0
Sprite,Foreground,Centre,"StoryBoard\bi.png",320,240 M,0,46584,,313,416 F,0,46584,46764,0,1 F,0,51825,52005,1,0
Sprite,Foreground,Centre,"StoryBoard\bj.png",320,240 M,0,49475,,477,416 F,0,49475,49656,0,1 F,0,51825,52005,1,0
Sprite,Foreground,Centre,"StoryBoard\bk.png",320,240 M,0,52367,,313,416 F,0,52367,52548,0,1 F,0,58692,58873,1,0
Sprite,Foreground,Centre,"StoryBoard\bl.png",320,240 M,0,55258,,464,416 F,0,55258,55439,0,1 F,0,58692,58873,1,0
Sprite,Foreground,Centre,"StoryBoard\ca.png",320,240 M,0,59776,,313,416 F,0,59776,59957,0,1 F,0,63752,63933,1,0
Sprite,Foreground,Centre,"StoryBoard\cb.png",320,240 M,0,62668,,524,416 F,0,62668,62849,0,1 F,0,63752,63933,1,0
Sprite,Foreground,Centre,"StoryBoard\cc.png",320,240 M,0,64114,,313,416 F,0,64114,64295,0,1 F,0,70981,71162,1,0
Sprite,Foreground,Centre,"StoryBoard\cd.png",320,240 M,0,67186,,502,416 F,0,67186,67367,0,1 F,0,70981,71162,1,0
Sprite,Foreground,Centre,"StoryBoard\aa.png",320,240 M,0,71343,,313,416 F,0,71343,71523,0,1 F,0,75319,75499,1,0
Sprite,Foreground,Centre,"StoryBoard\ab.png",320,240 M,0,74234,,485,416 F,0,74234,74415,0,1 F,0,75319,75499,1,0
Sprite,Foreground,Centre,"StoryBoard\ac.png",320,240 M,0,75680,,313,416 F,0,75680,75861,0,1 F,0,83270,83451,1,0
Sprite,Foreground,Centre,"StoryBoard\ad.png",320,240 M,0,78752,,500,416 F,0,78752,78933,0,1 F,0,83270,83451,1,0
Sprite,Foreground,Centre,"StoryBoard\da.png",320,240 M,0,95560,,313,416 F,0,95560,95740,0,1 F,0,100620,100801,1,0
Sprite,Foreground,Centre,"StoryBoard\db.png",320,240 M,0,98451,,478,416 F,0,98451,98632,0,1 F,0,100620,100801,1,0
Sprite,Foreground,Centre,"StoryBoard\dc.png",320,240 M,0,101343,,313,416 F,0,101343,101523,0,1 F,0,105680,105861,1,0
Sprite,Foreground,Centre,"StoryBoard\dd.png",320,240 M,0,103692,,454,416 F,0,103692,103873,0,1 F,0,105680,105861,1,0
Sprite,Foreground,Centre,"StoryBoard\de.png",320,240 M,0,107126,,313,416 F,0,107126,107307,0,1 F,0,112186,112367,1,0
Sprite,Foreground,Centre,"StoryBoard\df.png",320,240 M,0,110017,,487,416 F,0,110017,110198,0,1 F,0,112186,112367,1,0
Sprite,Foreground,Centre,"StoryBoard\dg.png",320,240 M,0,112909,,313,416 F,0,112909,113090,0,1 F,0,116885,117066,1,0
Sprite,Foreground,Centre,"StoryBoard\dh.png",320,240 M,0,115258,,488,416 F,0,115258,115439,0,1 F,0,116885,117066,1,0
Sprite,Foreground,Centre,"StoryBoard\di.png",320,240 M,0,117246,,313,416 F,0,117246,117427,0,1 F,0,122668,122849,1,0
Sprite,Foreground,Centre,"StoryBoard\dj.png",320,240 M,0,120319,,454,416 F,0,120319,120499,0,1 F,0,122668,122849,1,0
Sprite,Foreground,Centre,"StoryBoard\dk.png",320,240 M,0,123210,,313,416 F,0,123210,123391,0,1 F,0,129535,129716,1,0
Sprite,Foreground,Centre,"StoryBoard\dl.png",320,240 M,0,126102,,430,416 F,0,126102,126282,0,1 F,0,129535,129716,1,0
Sprite,Foreground,Centre,"StoryBoard\ca.png",320,240 M,0,130620,,313,416 F,0,130620,130801,0,1 F,0,134596,134776,1,0
Sprite,Foreground,Centre,"StoryBoard\cb.png",320,240 M,0,133511,,523,416 F,0,133511,133692,0,1 F,0,134596,134776,1,0
Sprite,Foreground,Centre,"StoryBoard\cc.png",320,240 M,0,134957,,313,416 F,0,134957,135138,0,1 F,0,141825,142005,1,0
Sprite,Foreground,Centre,"StoryBoard\cd.png",320,240 M,0,138029,,501,416 F,0,138029,138210,0,1 F,0,141825,142005,1,0
Sprite,Foreground,Centre,"StoryBoard\aa.png",320,240 M,0,142186,,313,416 F,0,142186,142367,0,1 F,0,146162,146343,1,0
Sprite,Foreground,Centre,"StoryBoard\ab.png",320,240 M,0,145078,,483,416 F,0,145078,145258,0,1 F,0,146162,146343,1,0
Sprite,Foreground,Centre,"StoryBoard\ac.png",320,240 M,0,146523,,313,416 F,0,146523,146704,0,1 F,0,154114,154295,1,0
Sprite,Foreground,Centre,"StoryBoard\ad.png",320,240 M,0,149596,,498,416 F,0,149596,149776,0,1 F,0,154114,154295,1,0
Sprite,Foreground,Centre,"StoryBoard\ea.png",320,240 M,0,166584,,313,416 F,0,166584,166764,0,1 F,0,171463,171644,1,0
Sprite,Foreground,Centre,"StoryBoard\eb.png",320,240 M,0,172367,,313,416 F,0,172367,172548,0,1 F,0,180138,180319,1,0
Sprite,Foreground,Centre,"StoryBoard\ec.png",320,240 M,0,175620,,431,416 F,0,175620,175801,0,1 F,0,180138,180319,1,0
Sprite,Foreground,Centre,"StoryBoard\ca.png",320,240 M,0,200017,,313,416 F,0,200017,200198,0,1 F,0,203993,204174,1,0
Sprite,Foreground,Centre,"StoryBoard\cb.png",320,240 M,0,202909,,524,416 F,0,202909,203090,0,1 F,0,203993,204174,1,0
Sprite,Foreground,Centre,"StoryBoard\cc.png",320,240 M,0,204355,,313,416 F,0,204355,204535,0,1 F,0,211222,211403,1,0
Sprite,Foreground,Centre,"StoryBoard\cd.png",320,240 M,0,207427,,500,416 F,0,207427,207608,0,1 F,0,211222,211403,1,0
Sprite,Foreground,Centre,"StoryBoard\aa.png",320,240 M,0,211584,,313,416 F,0,211584,211764,0,1 F,0,215560,215740,1,0
Sprite,Foreground,Centre,"StoryBoard\ab.png",320,240 M,0,214475,,482,416 F,0,214475,214656,0,1 F,0,215560,215740,1,0
Sprite,Foreground,Centre,"StoryBoard\ac.png",320,240 M,0,215921,,313,416 F,0,215921,216102,0,1 F,0,222788,222969,1,0
Sprite,Foreground,Centre,"StoryBoard\ad.png",320,240 M,0,218993,,496,416 F,0,218993,219174,0,1 F,0,222788,222969,1,0
Sprite,Foreground,Centre,"StoryBoard\ca.png",320,240 F,0,223150,223331,0,1 M,0,223150,229475,313,416,383,416 F,0,229295,229475,1,0
Sprite,Foreground,Centre,"StoryBoard\aa.png",320,240 F,0,226041,226222,0,1 M,0,226041,229475,558,366,509,366 F,0,229295,229475,1,0
Sprite,Foreground,Centre,"StoryBoard\ca.png",320,240 F,0,234716,234897,0,1 M,0,234716,241041,313,416,383,416 F,0,240861,241041,1,0
Sprite,Foreground,Centre,"StoryBoard\aa.png",320,240 F,0,237608,237788,0,1 M,0,237608,241041,558,366,509,366 F,0,240861,241041,1,0
Sprite,Foreground,Centre,"StoryBoard\ed.png",320,240 M,0,243933,,313,416 F,0,243933,244114,0,1 F,0,246644,246825,1,0
//Storyboard Sound Samples
Sample,29234,0,"soft-hitclap.wav",50
Sample,32126,0,"soft-hitclap.wav",50
//Background Colour Transformations
3,100,163,162,255

[TimingPoints]
1042,361.44578313253,4,2,1,70,1,0
23813,-100,4,2,1,70,0,0
46403,-100,4,2,1,50,0,0
46764,-100,4,2,1,60,0,0
47126,-100,4,2,1,70,0,0
60499,-100,4,2,1,85,0,0
94656,-100,4,2,1,70,0,0
117337,-100,4,2,1,50,0,0
117517,-100,4,2,1,60,0,0
118060,-100,4,2,1,70,0,0
131072,-100,4,2,1,85,0,0
164415,-200,4,2,1,60,0,0
175258,-200,4,2,1,70,0,0
180319,-100,4,2,1,70,0,0
199837,-100,4,2,1,50,0,0
201282,-100,4,2,1,60,0,0
202728,-100,4,2,1,70,0,0
204174,-100,4,2,1,80,0,0
205620,-100,4,2,1,85,0,0
222788,-100,4,2,1,70,0,0
243572,-100,4,2,1,85,0,0
246282,-100,4,2,1,65,0,0

[Colours]
Combo1 : 214,101,171
Combo2 : 255,255,255
Combo3 : 20,99,245
Combo4 : 240,5,5

[HitObjects]
64,88,499,1,0
24,152,680,1,0
64,216,861,2,0,B|64:328,2,80,0|0|0
96,152,1403,1,0
168,152,1584,2,0,B|352:152,1,160,2|0
328,80,2126,1,0
392,112,2307,1,0
392,184,2487,1,0
328,224,2668,2,0,B|328:320,2,80,0|0|2
184,224,3391,5,0
112,240,3572,1,0
40,224,3752,1,0
40,80,4114,1,0
112,64,4295,1,0
184,80,4475,1,2
288,152,4837,5,0
352,184,5017,1,0
416,152,5198,1,0
352,112,5379,2,0,B|352:24,2,80,0|0|0
352,184,5921,2,0,B|352:352,1,160,2|0
280,320,6463,1,0
208,336,6644,1,0
136,320,6825,2,0,B|48:320,2,80
136,248,7367,2,0,B|136:80,1,160,2|0
208,88,7909,5,0
280,88,8090,1,0
352,88,8270,2,0,B|432:48|512:96,2,160
352,160,9174,1,0
352,232,9355,1,0
256,192,9716,12,4,12608
256,192,24174,5,8
256,192,24355,1,8
112,192,24716,5,0
112,192,24897,2,0,B|96:232|56:256,2,80,8|0|0
184,176,25439,1,0
256,192,25620,2,0,B|272:232|312:256,2,80,0|0|0
184,176,26162,1,0
184,104,26343,2,0,B|184:16,2,80,8|0|0
328,104,27066,5,8
328,104,27246,1,8
328,248,27608,5,0
296,312,27788,1,8
224,312,27969,1,0
184,248,28150,1,0
256,248,28331,2,0,B|256:72,1,160,0|0
184,88,28873,1,0
112,88,29054,2,0,B|112:272,1,160
40,248,29596,1,0
184,248,29957,5,8
184,248,30138,1,8
328,248,30499,6,0,B|328:352,2,80,0|8|0
328,176,31041,1,0
392,208,31222,2,0,B|456:128|384:56,1,160,0|0
328,104,31764,1,0
264,64,31945,2,0,B|200:144|272:216,1,160
88,336,32849,6,0,B|-8:336,2,80
160,336,33391,1,0
232,336,33572,2,0,B|400:336,1,160,8|0
416,264,34114,1,0
392,192,34295,2,0,B|304:192,2,80
416,120,34837,1,0
392,48,35017,2,0,B|216:48,1,160,8|0
256,192,35740,5,8
256,192,35921,1,8
256,336,36282,5,0
328,336,36463,2,0,B|416:336,2,80,8|0|0
256,264,37005,1,0
184,264,37186,2,0,B|96:264,2,80
256,192,37728,1,0
328,192,37909,2,0,B|424:192,2,80,8|0|0
256,64,38632,5,8
256,64,38813,1,8
128,136,39174,5,0
88,200,39355,2,0,B|0:200,2,80,8|0|0
128,264,39897,1,0
160,200,40078,1,0
200,136,40258,2,0,B|280:88|368:144,1,160
352,208,40801,1,8
352,280,40981,2,0,B|352:368,2,80
280,280,41523,5,8
280,280,41704,1,8
136,280,42066,5,0
72,248,42246,1,8
72,176,42427,1,0
136,136,42608,1,0
200,176,42788,1,0
200,176,43150,1,0
232,240,43331,1,0
304,240,43511,1,0
344,176,43692,1,8
304,112,43873,1,0
208,360,44415,6,0,B|144:296,1,80
304,360,44776,2,0,B|368:296,1,80
256,296,45138,1,8
312,248,45319,1,0
256,200,45499,1,0
200,152,45680,1,0
256,104,45861,2,0,B|256:16,2,80,0|0|8
32,192,46584,5,8
256,352,46945,1,4
480,192,47307,1,0
256,32,47668,1,2
192,96,47849,6,0,B|160:136|200:192,1,80
320,96,48210,2,0,B|352:136|312:192,1,80,0|2
256,224,48572,2,0,B|256:312,2,80
256,136,49114,1,2
480,192,49475,5,0
256,32,49837,1,2
32,192,50198,1,0
256,352,50560,1,2
208,280,50740,6,0,B|208:192,1,80
304,280,51102,2,0,B|304:192,1,80,0|2
384,168,51463,2,0,B|320:88,1,80
128,168,51825,2,0,B|192:88,1,80,0|2
256,96,52186,5,0
256,96,52276,1,0
256,96,52367,2,0,B|256:8,2,80,0|0|2
176,256,53090,1,4
216,328,53270,1,0
296,328,53451,1,2
336,256,53632,1,0
256,256,53813,2,0,B|256:80,1,160,0|2
176,96,54355,1,0
216,24,54535,1,0
296,24,54716,1,0
336,96,54897,2,0,B|336:272,2,160,2|0|2
256,96,55801,5,0
176,96,55981,2,0,B|112:72|80:72,2,80,0|0|2
216,168,56523,1,0
296,168,56704,2,0,B|360:144|392:144,2,80,0|0|2
256,240,57246,1,0
176,240,57427,2,0,B|112:216|80:216,2,80,0|0|2
256,192,57969,12,4,60319
112,104,60680,5,8
64,192,60861,1,0
104,280,61042,2,0,B|104:376,2,80,0|0|8
144,192,61584,2,0,B|320:192,1,160
304,288,62126,1,8
392,240,62307,1,0
392,144,62487,1,0
304,96,62668,6,0,B|272:48|224:48,2,80,0|8|0
304,192,63210,1,0
304,288,63391,2,0,B|336:336|384:336,2,80,0|8|0
112,288,64114,5,0
112,288,64204,1,0
112,288,64295,2,0,B|24:288,2,80,8|0|0
176,216,64837,1,0
120,144,65017,1,8
176,64,65198,2,0,B|256:24|352:72,1,160
384,144,65740,1,8
336,216,65921,2,0,B|336:304,2,80
256,160,66463,6,0,B|160:160,1,80,8|0
96,216,66825,1,0
96,216,67005,1,0
176,272,67186,2,8,B|288:272,1,80,8|0
336,216,67548,1,0
336,216,67728,1,0
408,280,67909,6,0,B|448:240|448:176|400:128,2,160,8|0|8
336,216,68813,1,0
264,144,68993,2,0,B|224:184|224:248|272:296,2,160,0|8|0
264,48,69897,1,0
168,72,70078,1,8
72,48,70258,1,4
168,216,70620,5,8
168,216,70801,1,8
360,216,71162,1,0
360,216,71343,1,0
264,168,71523,6,8,B|264:64,2,80,8|0|4
264,264,72066,1,0
184,312,72246,2,0,B|104:336|24:312,2,160,8|0|8
264,360,73150,1,0
344,312,73331,2,0,B|424:336|504:312,2,160,0|8|0
264,264,74234,5,0
264,168,74415,1,8
264,72,74596,1,0
264,72,74776,2,0,B|296:48|352:56,2,80,0|0|8
176,112,75319,2,0,B|88:80|8:112,1,160
24,200,75861,1,8
24,288,76042,6,0,B|24:376,1,80
104,248,76403,2,0,B|104:344,1,80,0|8
184,288,76764,2,0,B|184:392,1,80
264,248,77126,2,0,B|264:344,1,80,0|8
344,288,77487,2,0,B|344:376,1,80
472,192,78029,5,8
400,128,78210,1,0
400,128,78301,1,0
400,128,78391,2,0,B|400:40,2,80,0|0|8
328,192,78933,1,0
256,256,79114,1,8
184,192,79295,1,8
256,128,79475,1,8
256,40,80560,5,8
256,40,80740,1,8
256,352,81102,5,8
256,352,81282,1,8
32,192,81644,5,8
32,192,81825,1,8
480,192,82186,5,8
480,192,82367,1,8
256,192,82728,5,8
256,192,83090,1,8
256,192,95017,5,8
256,192,95198,1,8
128,192,95560,5,0
88,256,95740,1,0
128,320,95921,1,0
160,256,96102,2,0,B|-8:256,2,160
232,256,97005,1,0
304,256,97186,2,0,B|408:256,2,80,8|0|0
232,136,97909,5,8
232,136,98090,1,8
104,72,98451,6,0,B|80:32|32:32,2,80,0|8|0
104,144,98993,1,0
72,208,99174,1,0
104,272,99355,1,0
144,208,99535,2,0,B|312:208,1,160
304,280,100078,1,8
368,248,100258,1,0
368,176,100439,1,0
304,136,100620,6,0,B|304:40,2,80,0|8|8
304,280,101343,6,0,B|304:368,2,80,0|8|0
240,248,101885,1,0
176,280,102066,1,0
112,248,102246,1,0
48,280,102427,2,0,B|48:368,2,80
48,208,102969,2,0,B|48:32,1,160,8|0
192,48,103692,5,0
264,48,103873,1,0
336,48,104054,2,0,B|384:24|424:24,2,80,0|0|8
296,112,104596,1,0
256,176,104776,2,0,B|192:256|272:344,1,160
327,322,105319,1,0
327,322,105499,2,0,B|151:322,2,160,0|8|0
471,322,106584,5,8
471,322,106764,1,8
400,192,107126,6,0,B|488:192,2,80,0|8|0
328,192,107668,1,0
288,128,107849,2,0,B|248:88|208:88,2,80
256,192,108391,1,0
296,256,108572,2,0,B|336:296|376:296,2,80,0|8|0
256,192,109114,1,0
96,192,109475,5,8
96,192,109656,1,8
176,312,110017,5,0
176,240,110198,1,8
176,168,110379,1,0
112,128,110560,2,0,B|88:80|32:80,2,80
176,96,111102,1,0
240,128,111282,2,0,B|264:80|320:80,2,80,0|0|8
240,200,111825,2,0,B|240:368,1,160
312,360,112367,5,8
312,360,112548,1,8
168,360,112909,6,0,B|56:360,2,80,0|8|0
240,360,113451,1,0
208,296,113632,2,0,B|176:256|216:216,1,80
280,224,113993,2,0,B|313:256|281:296,1,80
128,296,114355,6,0,B|96:256|136:216,1,80,0|8
360,224,114716,2,0,B|393:256|361:296,1,80
256,104,115258,5,0
256,104,115439,2,0,B|256:16,2,80
208,160,115981,2,0,B|160:240|216:320,1,160,8|0
282,310,116523,1,0
282,310,116704,2,0,B|116:311,2,160,0|8|8
354,310,117608,5,0
354,310,117788,2,0,B|439:310,2,80,8|0|4
354,165,118511,1,2
312,104,118692,1,0
240,104,118873,1,0
200,168,119054,1,0
240,232,119234,1,2
240,232,119596,1,0
280,296,119776,1,0
240,360,119957,1,2
168,360,120138,1,0
128,296,120319,6,0,B|88:264|88:176|136:152,1,160,0|2
203,154,120861,1,0
203,154,121041,2,0,B|35:154,2,160,0|2|0
203,81,121945,1,0
267,113,122126,1,2
267,185,122307,1,0
203,225,122487,2,0,B|203:326,2,80,0|0|2
448,40,123210,6,0,B|448:136,1,80
448,344,123572,2,0,B|448:248,1,80,2|0
448,192,123933,5,4
384,152,124114,1,0
320,192,124295,1,2
256,232,124475,1,0
192,192,124656,1,0
128,152,124837,1,0
64,192,125017,2,0,B|-24:192,2,80,2|0|0
128,232,125560,1,0
128,232,125650,1,0
128,232,125740,2,0,B|128:336,2,80,2|0|0
128,88,126463,6,0,B|128:0,2,80,2|0|0
200,72,127005,1,0
272,88,127186,1,2
344,72,127367,1,0
416,88,127548,2,0,B|416:-8,2,80,0|0|2
256,352,128270,5,0
32,192,128632,1,2
256,32,128993,1,0
480,192,129355,1,2
296,152,129716,5,8
296,160,129807,1,8
296,168,129897,1,8
296,176,129987,1,8
296,184,130078,1,8
216,232,130258,5,8
216,224,130349,1,8
216,216,130439,1,8
216,208,130529,1,8
216,200,130620,1,8
216,104,130801,6,0,B|232:64|280:56,2,80,0|0|4
136,160,131343,1,0
96,248,131523,2,0,B|48:328|-24:360,2,160,8|0|8
160,320,132427,1,0
256,296,132608,1,0
352,320,132788,1,0
416,248,132969,2,0,B|464:328|536:360,2,160,8|0|8
352,176,133873,5,0
352,80,134054,2,0,B|384:40|424:48,2,80,0|0|8
264,40,134596,1,0
264,128,134776,2,0,B|168:128,2,80,0|0|8
264,224,135319,2,0,B|264:320,1,80
176,200,135680,2,0,B|176:288,1,80,0|8
88,224,136041,2,0,B|88:312,1,80
0,200,136403,2,0,B|0:304,2,80,0|8|0
56,120,136945,5,0
56,120,137307,1,8
96,32,137487,1,0
192,32,137668,1,0
240,120,137849,1,0
192,200,138029,1,8
192,200,138391,5,0
144,280,138572,1,0
192,368,138752,1,8
288,368,138933,1,0
240,280,139114,2,0,B|328:328|400:240,2,160,0|8|0
304,208,140017,1,0
360,128,140198,2,0,B|272:80|200:168,2,160,8|0|8
440,80,141102,1,4
440,80,141463,1,0
448,176,141644,1,8
448,176,142005,1,0
448,272,142186,5,0
448,272,142276,1,0
448,272,142367,2,0,B|504:352,2,80,8|0|4
368,328,142909,1,0
272,328,143090,2,0,B|192:376|112:320,1,160,8|0
200,248,143632,1,0
144,168,143813,2,0,B|112:120|120:80,2,80,8|0|0
200,88,144355,1,0
256,168,144535,2,0,B|288:120|280:80,2,80,8|0|0
352,176,145078,5,0
352,272,145258,2,0,B|392:248|432:256,2,80,8|0|0
256,296,145801,1,0
160,272,145981,1,8
64,296,146162,1,0
352,112,146523,2,0,B|392:136|432:128,2,80,0|8|0
256,88,147066,1,0
160,112,147246,1,0
64,88,147427,1,8
64,192,147608,6,0,B|-32:192,2,80
144,248,148150,2,0,B|224:296|312:240,2,160,8|0|8
216,184,149054,1,0
216,88,149234,2,0,B|216:0,2,80,0|0|8
216,280,149957,2,0,B|216:376,2,80,8|8|8
480,192,151403,5,8
480,192,151584,1,8
32,192,151945,5,8
32,192,152126,1,8
256,32,152487,5,8
256,32,152668,1,8
256,352,153029,5,8
256,352,153210,1,8
256,192,153572,5,8
256,192,153933,1,8
256,192,165861,5,2
136,48,166584,5,0
136,120,166764,1,0
136,192,166945,2,0,B|72:264|144:344,2,160,0|0|0
256,264,168752,5,2
384,336,169114,5,0
384,264,169295,1,0
384,192,169475,2,0,B|448:120|376:40,2,160
256,192,171282,5,0
256,192,171463,1,0
256,192,171644,1,2
88,344,172367,5,0
88,272,172548,1,0
88,200,172728,2,0,B|88:104,2,80
160,200,173632,1,0
232,200,173813,2,0,B|232:288,2,80,0|0|2
480,192,175620,5,0
480,192,175801,1,8
256,32,176162,1,8
32,192,176523,1,8
256,360,176885,1,8
256,192,177246,12,0,180319
96,120,180680,5,8
96,192,180861,1,0
96,264,181042,2,0,B|96:360,2,80,0|0|8
160,232,181584,2,0,B|248:192|320:240,1,160
313,307,182126,1,8
312,160,182487,1,0
376,120,182668,1,0
376,120,182758,1,0
376,120,182849,2,0,B|376:32,2,80,8|0|0
440,160,183391,1,0
376,192,183572,2,0,B|376:360,1,160,8|0
232,320,184295,5,8
160,304,184475,1,0
88,320,184656,1,0
160,192,185017,1,8
160,192,185198,1,0
88,64,185560,1,0
160,80,185740,1,8
232,64,185921,1,0
232,136,186102,6,0,B|232:240,1,80
304,240,186463,2,0,B|304:144,1,80,8|0
376,136,186825,2,0,B|376:232,1,80
448,240,187186,2,0,B|448:152,1,80,8|0
256,192,187548,12,4,188993
256,32,200560,5,4
256,112,202005,5,4
256,192,203451,5,4
256,272,204897,5,4
256,352,206343,5,4
176,296,206523,2,0,B|136:256|200:200,2,80,0|8|0
256,240,207066,1,0
336,192,207246,2,0,B|376:232|312:288,2,80,0|8|0
288,112,207788,6,0,B|224:56|128:56,1,160,0|8
184,144,208331,1,0
224,232,208511,2,0,B|128:232|72:160,1,160,0|8
184,144,209054,1,0
272,176,209234,2,0,B|432:240,1,160,0|8
368,320,209776,1,0
464,320,209957,1,0
512,232,210138,1,0
464,144,210319,2,0,B|480:56,1,80,8|4
368,320,210861,1,0
368,320,211042,2,0,B|304:384,2,80,8|0|0
416,240,211584,5,0
344,176,211764,1,8
248,152,211945,1,0
168,96,212126,2,0,B|104:32|16:40,2,160,4|8|0
88,152,213029,5,0
160,216,213210,1,8
256,240,213391,1,0
336,296,213572,2,0,B|400:360|488:352,2,160,0|8|0
384,208,214475,6,0,B|408:168|464:160,2,80,0|8|0
312,144,215017,1,0
128,208,215379,2,0,B|88:231|83:271,2,80,8|0|0
200,144,215921,1,0
256,224,216102,1,8
184,288,216282,6,0,B|152:328|192:368,1,80
328,288,216644,2,0,B|360:328|320:368,1,80,0|8
184,288,217005,2,0,B|152:248|192:208,1,80
328,288,217367,2,0,B|360:248|320:208,1,80,0|8
256,144,217728,1,0
168,104,217909,2,0,B|168:0,2,80,0|0|8
256,56,218451,1,0
336,104,218632,2,0,B|336:8,2,80,0|0|8
160,192,219355,5,8
256,192,219535,1,8
352,192,219716,1,8
256,352,220801,5,8
256,352,220981,1,8
32,192,221343,5,8
32,192,221523,1,8
256,32,221885,5,8
256,32,222066,1,8
480,192,222427,5,8
480,192,222608,1,8
256,192,222969,5,8
256,192,223331,1,8
96,88,223692,5,4
40,168,223873,1,0
96,248,224054,2,0,B|96:352,2,80,8|0|0
152,168,224596,1,0
240,128,224776,1,8
328,168,224957,1,0
328,168,225319,1,0
408,216,225499,1,8
488,168,225680,1,0
408,344,226042,6,0,B|408:256,1,80,0|8
320,40,226403,2,0,B|320:136,1,80
232,344,226764,2,0,B|232:256,1,80,0|8
144,40,227126,2,0,B|144:128,1,80
72,176,227487,5,0
32,264,227668,1,8
72,352,227849,1,0
440,208,228210,5,0
480,120,228391,1,8
440,32,228572,1,0
400,120,228752,2,0,B|224:120,1,160,0|8
176,192,229295,1,0
240,264,229475,2,0,B|416:264,2,160,4|8|0
144,264,230379,1,0
48,264,230560,1,8
96,80,230921,6,0,B|40:160|104:240,2,160,0|8|0
160,152,231825,1,0
232,216,232005,2,0,B|288:136|224:56,2,160,8|0|8
232,312,232909,2,0,B|144:312,2,80,0|0|0
328,312,233451,1,8
424,312,233632,2,0,B|512:312,2,80,4|0|0
328,312,234174,1,8
272,232,234355,1,0
328,152,234535,1,0
392,80,234716,1,0
328,8,234897,1,8
264,80,235078,5,0
168,80,235258,2,0,B|152:32|88:32,2,80,4|0|8
216,168,235801,2,0,B|216:336,1,160
120,328,236343,1,8
24,328,236523,1,0
216,328,236885,1,0
312,328,237066,1,8
408,328,237246,1,0
416,80,237608,6,0,B|440:40|488:40,2,80,0|8|0
320,96,238150,1,0
240,152,238331,1,0
152,184,238511,1,8
80,248,238692,1,0
96,80,239054,6,0,B|72:40|24:40,2,80,0|8|0
192,96,239596,1,0
272,152,239776,1,0
360,184,239957,1,8
432,248,240138,1,0
256,296,240499,6,0,B|256:384,2,80,0|8|0
192,224,241042,2,0,B|144:192|144:104|208:80,1,160,4|8
256,160,241584,1,0
256,160,241764,2,0,B|304:128|304:40|240:16,2,160,0|8|8
352,160,242668,1,8
448,160,242849,1,8
256,352,243933,5,8
256,352,244114,1,8
256,32,244475,5,8
256,32,244656,1,8
32,192,245017,5,8
32,192,245198,1,8
480,192,245560,5,8
480,192,245740,1,8
256,192,246102,5,0
256,192,246463,1,8
