osu file format v10

[General]
AudioFilename: Horie Yui - Sugar Sweet Nightmare (TV Size).mp3
AudioLeadIn: 2000
PreviewTime: 59872
Countdown: 0
SampleSet: Soft
StackLeniency: 0.7
Mode: 0
LetterboxInBreaks: 0

[Editor]
DistanceSpacing: 0.8
BeatDivisor: 4
GridSize: 4

[Metadata]
Title:Sugar Sweet Nightmare (TV Size)
TitleUnicode:Sugar Sweet Nightmare (TV Size)
Artist:Horie Yui
ArtistUnicode:Horie Yui
Creator:Chewin
Version:Normal
Source:Bakemonogatari
Tags:Melophobia kevincela -kevincela- Hanekawa tsubasa neko opening
BeatmapID:181575
BeatmapSetID:60769

[Difficulty]
HPDrainRate:3
CircleSize:3
OverallDifficulty:3
ApproachRate:4
SliderMultiplier:1.2
SliderTickRate:2

[Events]
//Background and Video events
0,0,"Hanekawa.png"
//Break Periods
//Storyboard Layer 0 (Background)
//Storyboard Layer 1 (Fail)
//Storyboard Layer 2 (Pass)
//Storyboard Layer 3 (Foreground)
//Storyboard Sound Samples
//Background Colour Transformations
3,100,163,162,255

[TimingPoints]
-308,361.44578313253,4,2,1,60,1,0
11981,-100,4,2,1,5,0,0
12704,-100,4,2,1,60,0,0
24451,-100,4,2,1,40,0,0
24541,-100,4,2,1,60,0,0
25535,-100,4,1,1,40,0,0
25625,-100,4,2,1,40,0,0
26258,-100,4,1,1,40,0,0
26348,-100,4,2,1,40,0,0
26438,-100,4,2,2,60,0,0
26619,-100,4,2,1,60,0,0
26981,-100,4,1,1,60,0,0
27523,-100,4,2,1,60,0,0
28426,-100,4,1,1,50,0,0
29330,-100,4,2,1,60,0,0
29963,-100,4,1,1,60,0,0
30414,-100,4,2,1,60,0,0
31318,-100,4,1,1,30,0,0
32222,-100,4,2,1,60,0,0
32945,-100,4,1,1,60,0,0
33306,-100,4,2,1,60,0,0
34210,-100,4,1,1,60,0,0
35023,-100,4,2,1,60,0,0
35836,-100,4,2,1,40,0,0
36198,-100,4,2,1,60,0,0
37101,-100,4,1,1,40,0,0
37191,-100,4,2,1,40,0,0
37463,-100,4,1,1,40,0,0
37553,-100,4,2,1,40,0,0
37824,-100,4,1,1,40,0,0
37914,-100,4,2,1,40,0,0
38005,-100,4,2,2,60,0,0
38095,-100,4,2,1,60,0,0
38547,-100,4,1,1,60,0,0
39089,-100,4,2,1,60,0,0
39993,-100,4,1,1,60,0,0
40896,-100,4,2,2,60,0,0
40987,-100,4,2,1,60,0,0
41438,-100,4,1,1,60,0,0
41981,-100,4,2,1,60,0,0
42884,-100,4,1,1,40,0,0
42975,-100,4,2,1,40,0,0
43607,-100,4,1,1,40,0,0
43788,-100,4,2,2,60,0,0
43969,-100,4,2,1,60,0,0
44330,-100,4,1,1,60,0,0
44872,-100,4,2,1,60,0,0
45776,-100,4,1,1,60,0,0
46228,-100,4,2,1,60,0,0
57884,-100,4,2,2,60,0,0
58065,-100,4,2,1,60,0,0
60414,-100,4,2,1,60,0,1
61951,-100,4,2,1,5,0,1
62131,-100,4,2,1,60,0,1
64571,-100,4,2,1,40,0,1
64752,-100,4,2,1,60,0,1
65113,-100,4,2,2,60,0,1
65294,-100,4,2,1,60,0,1
71890,-100,4,2,1,60,0,0
71981,-100,4,2,1,60,0,1
83547,-100,4,2,1,30,0,0

[Colours]
Combo1 : 0,253,107
Combo2 : 28,28,255
Combo3 : 255,0,255
Combo4 : 229,229,229

[HitObjects]
168,108,595,2,0,B|160:64|104:56,2,60,0|0|0,0:0|0:0|0:0,0:0:0
192,156,1137,2,0,B|256:196|324:148,1,120,2|0,0:0|0:0,0:0:0
328,108,1679,1,2,0:0:0
444,212,2041,6,0,B|452:172|492:164,2,60,0|2|0,0:0|0:0|0:0,0:0:0
464,264,2583,2,0,B|448:312|388:332|344:304,1,120,2|0,0:0|0:0,0:0:0
316,292,3125,1,2,0:0:0
164,200,3487,6,0,B|164:244|120:272,2,60,0|2|0,0:0|0:0|0:0,0:0:0
88,164,4029,2,0,B|120:108|180:112|208:128,1,120,2|0,0:0|0:0,0:0:0
240,160,4571,1,2,0:0:0
404,136,4932,6,0,B|392:100|420:60,2,60,0|0|2,0:0|0:0|0:0,0:0:0
476,264,5655,1,0,0:0:0
344,340,6017,2,0,B|256:372|140:336,1,180,2|0,0:0|0:0,0:0:0
120,228,6920,6,0,B|156:168|160:88,1,120,2|0,0:0|0:0,0:0:0
64,40,7643,1,0,0:0:0
80,152,8005,6,0,B|144:124|196:172|196:196,1,120,2|2,0:0|0:0,0:0:0
256,276,8728,1,0,0:0:0
376,224,9089,2,0,B|360:152|408:96,1,120,0|2,0:0|0:0,0:0:0
256,192,9812,12,0,11981,0:0:0
68,284,12704,6,0,B|80:248|64:208,2,60,4|0|8,0:0|0:0|0:0,0:0:0
220,252,13426,2,0,B|272:216|360:240,1,120,0|8,0:0|0:0,0:0:0
464,316,14149,2,0,B|408:356|328:336,1,120,0|8,0:0|0:0,0:0:0
436,224,14872,2,0,B|432:192|456:168,2,60,0|0|8,0:0|0:0|0:0,0:0:0
344,112,15595,6,0,B|376:88|372:40,2,60,0|0|8,0:0|0:0|0:0,0:0:0
208,184,16318,2,0,B|144:156|72:204,1,120,0|8,0:0|0:0,0:0:0
28,300,17041,2,0,B|100:336|164:284,1,120,0|8,0:0|0:0,0:0:0
280,272,17764,1,0,0:0:0
400,344,18125,1,8,0:0:0
432,196,18487,6,0,B|476:148|468:56,1,120,4|8,0:0|0:0,0:0:0
316,96,19210,2,8,B|252:120|184:80,1,120,0|8,0:0|0:0,0:0:0
48,156,19932,2,0,B|120:168|160:232,1,120,0|8,0:0|0:0,0:0:0
284,328,20655,2,0,B|296:288|348:272,1,60,0|0,0:0|0:0,0:0:0
376,288,21017,1,8,0:0:0
432,176,21378,6,0,B|408:148|424:104,2,60,0|0|8,0:0|0:0|0:0,0:0:0
312,140,22101,2,0,B|244:144|180:84,1,120,0|8,0:0|0:0,0:0:0
80,116,22824,2,0,B|48:252,1,120,0|8,0:0|0:0,0:0:0
172,248,23547,6,0,B|244:248|296:312,1,120,12|8,0:0|0:0,0:0:0
392,336,24270,2,0,B|424:320|432:280,1,60,4|4,0:0|0:0,0:0:0
424,156,24812,6,0,B|424:124|456:96,2,60,0|8|0,0:0|0:0|0:0,0:0:0
292,132,25535,2,0,B|220:152|164:92,1,120,0|0,0:0|0:0,0:0:0
56,192,26258,2,0,B|132:200|168:264,1,120,0|0,0:0|0:0,0:0:0
328,308,27161,2,0,B|352:340|404:340,1,60,0|0,0:0|0:0,0:0:0
460,196,27704,6,0,B|456:156|480:120,2,60,0|8|0,0:0|0:0|0:0,0:0:0
320,104,28426,1,0,0:0:0
164,36,28788,1,0,0:0:0
52,144,29149,1,0,0:0:0
76,296,29511,2,0,B|144:276|216:324,1,120,2|0,0:0|0:0,0:0:0
220,256,30053,2,0,B|248:284|292:280,1,60,0|0,0:0|0:0,0:0:0
416,292,30595,6,0,B|412:312|388:344,2,60,0|8|0,0:0|0:0|0:0,0:0:0
428,152,31318,1,0,0:0:0
312,56,31679,1,0,0:0:0
192,144,32041,1,0,0:0:0
60,68,32402,2,0,B|64:120|64:120|48:160|52:208,1,120,0|0,0:0|0:0,0:0:0
96,256,32945,6,0,B|96:288|60:312,2,60,0|0|0,0:0|0:0|0:0,0:0:0
228,304,33667,2,0,B|284:348|368:320,1,120,8|0,0:0|0:0,0:0:0
416,300,34210,1,0,0:0:0
468,156,34571,1,0,0:0:0
336,80,34932,1,0,0:0:0
272,124,35113,6,0,B|216:92|144:128,2,120,2|0|4,0:0|0:0|0:0,0:0:0
336,80,36017,1,4,0:0:0
468,156,36378,6,0,B|480:232,1,60,0|8,0:0|0:0,0:0:0
372,296,36920,2,0,B|336:300|312:328,1,60,0|0,0:0|0:0,0:0:0
200,264,37463,2,0,B|164:320|76:320,2,120,0|0|0,0:0|0:0|0:0,0:0:0
132,120,38728,2,0,B|104:112|88:76,1,60,0|0,0:0|0:0,0:0:0
240,60,39270,6,0,B|276:72|288:108,1,60,0|8,0:0|0:0,0:0:0
420,140,39812,2,0,B|440:164|476:156,1,60,0|0,0:0|0:0,0:0:0
460,296,40354,1,0,0:0:0
320,284,40716,2,0,B|252:276|184:328,1,120,0|2,0:0|0:0,0:0:0
44,168,41619,2,0,B|72:96,1,60
216,68,42161,6,0,B|194:123,2,60,0|8|0,0:0|0:0|0:0,0:0:0
360,128,42884,2,0,B|396:188|480:188,1,120,0|0,0:0|0:0,0:0:0
428,340,43607,2,0,B|388:280|300:284,1,120,0|0,0:0|0:0,0:0:0
116,288,44511,6,0,B|108:324|60:340,2,60,0|0|0,0:0|0:0|0:0,0:0:0
48,160,45234,2,0,B|92:132|144:152|168:196,1,120,8|0,0:0|0:0,0:0:0
228,140,45776,2,0,B|288:188|360:152,1,120,0|0,0:0|0:0,0:0:0
404,112,46318,1,8,0:0:0
448,244,46679,2,0,B|444:280|468:324,2,60,8|8|8,0:0|0:0|0:0,0:0:0
312,288,47402,6,0,B|240:268|172:304,1,120,4|8,0:0|0:0,0:0:0
124,328,47945,2,0,B|96:352|44:340,1,60,0|0,0:0|0:0,0:0:0
68,196,48487,2,0,B|88:164|80:120,2,60,8|0|0,0:0|0:0|0:0,0:0:0
216,156,49210,1,8,0:0:0
340,68,49571,2,0,B|340:140|420:180,2,120,0|8|0,0:0|0:0|0:0,0:0:0
216,156,50655,5,8,0:0:0
68,108,51017,1,0,0:0:0
52,260,51378,1,8,0:0:0
196,312,51740,2,0,B|264:336|332:308,1,120,0|8,0:0|0:0,0:0:0
432,196,52463,1,0,0:0:0
432,196,52824,1,8,0:0:0
384,48,53185,6,0,B|348:72|348:72|300:48|256:76,1,120,4|8,0:0|0:0,0:0:0
200,100,53728,2,0,B|168:116|128:108,1,60,0|0,0:0|0:0,0:0:0
60,216,54270,1,8,0:0:0
156,304,54631,2,0,B|224:280|288:332,1,120,0|8,0:0|0:0,0:0:0
420,320,55354,1,0,0:0:0
472,188,55716,1,8,0:0:0
364,92,56077,6,0,B|300:128|224:112,1,120,0|8,0:0|0:0,0:0:0
184,72,56619,2,0,B|156:48|100:60,1,60,0|0,0:0|0:0,0:0:0
64,180,57161,1,8,0:0:0
128,304,57523,6,0,B|224:268|328:316,1,180,4|0,0:0|0:0,0:0:0
380,336,58246,1,0,0:0:0
480,240,58607,1,10,0:0:0
376,164,58969,6,8,B|340:192|280:180,1,90
192,152,59511,1,8,0:0:0
64,204,59872,2,0,B|40:268,2,60,0|8|0,0:0|0:0|0:0,0:0:0
44,144,60414,5,4,0:0:0
200,64,60776,2,0,B|232:68|256:88|256:88|276:68|316:64,1,120,8|0,0:0|0:0,0:0:0
468,144,61499,1,8,0:0:0
400,280,61860,2,0,B|368:284|339:272|339:272|320:306|290:319,1,120,0|8,0:0|0:0,0:0:0
228,280,62402,1,0,0:0:0
92,272,62764,2,0,B|88:308|52:324,2,60,0|8|0,0:0|0:0|0:0,0:0:0
56,200,63306,6,0,B|116:172|160:216|176:252,1,120,0|8,0:0|0:0,0:0:0
228,280,63848,1,0,0:0:0
372,336,64210,1,0,0:0:0
428,280,64390,1,8,0:0:0
352,256,64571,6,0,B|320:184|328:116,3,120,4|0|0|0,0:0|0:0|0:0|0:0,0:0:0
308,56,65836,2,0,B|268:64|240:96,1,60,8|0,0:0|0:0,0:0:0
172,76,66198,6,0,B|156:96|164:144|212:176|240:168,1,120,4|8,0:0|0:0,0:0:0
76,216,66920,2,0,B|99:209|143:237|156:284|140:312,1,120,0|8,0:0|0:0,0:0:0
284,300,67643,6,0,B|344:264|412:308,1,120,4|8,0:0|0:0,0:0:0
484,176,68366,2,0,B|424:208|364:172,1,120,0|8,0:0|0:0,0:0:0
224,88,69089,6,0,B|256:76|268:32,2,60,4|0|8,0:0|0:0|0:0,0:0:0
148,68,69631,1,0,0:0:0
32,168,69993,2,0,B|56:232,1,60,0|8,0:0|0:0,0:0:0
96,292,70354,6,0,B|160:256|228:300,1,120,4|0,0:0|0:0,0:0:0
276,336,70896,1,8,0:0:0
416,296,71258,2,0,B|420:264|456:224,2,60,0|8|8,0:0|0:0|0:0,0:0:0
388,152,71981,6,0,B|324:176|256:132,1,120,4|8,0:0|0:0,0:0:0
232,72,72523,1,0,0:0:0
84,128,72884,2,0,B|88:168|64:204,1,60,0|8,0:0|0:0,0:0:0
24,252,73246,2,0,B|72:288|132:260|148:220,1,120,0|0,0:0|0:0,0:0:0
204,280,73788,2,0,B|224:248|272:240,1,60,8|0,0:0|0:0,0:0:0
408,276,74330,2,0,B|392:312|420:340,2,60,0|8|0,0:0|0:0|0:0,0:0:0
452,212,74872,6,0,B|480:144|444:72,1,120,0|8,0:0|0:0,0:0:0
404,32,75414,1,0,0:0:0
268,112,75776,2,0,B|240:140|192:128,1,60,0|8,0:0|0:0,0:0:0
152,80,76137,5,4,0:0:0
52,180,76499,1,0,0:0:0
120,300,76860,2,0,B|192:268|256:304,1,120,4|0,0:0|0:0,0:0:0
308,260,77402,2,0,B|328:296|372:312,1,60,8|0,0:0|0:0,0:0:0
428,292,77764,5,4,0:0:0
464,140,78125,1,8,0:0:0
324,72,78487,1,0,0:0:0
168,76,78848,6,0,B|148:108|96:112,1,60,8|0,0:0|0:0,0:0:0
60,164,79210,2,8,B|36:192|52:232,2,60,8|8|8,0:0|0:0|0:0,0:0:0
136,196,79752,2,0,B|180:248|180:248|232:232|276:244|292:276,1,180,2|8,0:0|0:0,0:0:0
256,192,80655,12,4,83547,0:0:0
