osu file format v10

[General]
AudioFilename: Horie Yui - Sugar Sweet Nightmare (TV Size).mp3
AudioLeadIn: 2000
PreviewTime: 59872
Countdown: 0
SampleSet: Soft
StackLeniency: 0.7
Mode: 0
LetterboxInBreaks: 0

[Editor]
DistanceSpacing: 1.1
BeatDivisor: 4
GridSize: 4

[Metadata]
Title:Sugar Sweet Nightmare (TV Size)
TitleUnicode:Sugar Sweet Nightmare (TV Size)
Artist:Horie Yui
ArtistUnicode:Horie Yui
Creator:Chewin
Version:Insane
Source:Bakemonogatari
Tags:Melophobia kevincela -kevincela- Hanekawa tsubasa neko opening
BeatmapID:181574
BeatmapSetID:60769

[Difficulty]
HPDrainRate:7
CircleSize:4
OverallDifficulty:7
ApproachRate:8
SliderMultiplier:1.8
SliderTickRate:2

[Events]
//Background and Video events
0,0,"Hanekawa.png"
//Break Periods
//Storyboard Layer 0 (Background)
//Storyboard Layer 1 (Fail)
//Storyboard Layer 2 (Pass)
//Storyboard Layer 3 (Foreground)
//Storyboard Sound Samples
//Background Colour Transformations
3,100,163,162,255

[TimingPoints]
-308,361.44578313253,4,2,1,60,1,0
595,-133.333333333333,4,2,1,60,0,0
1137,-100,4,2,1,60,0,0
2041,-133.333333333333,4,2,1,60,0,0
2583,-100,4,2,1,60,0,0
12342,-100,4,2,1,5,0,0
12704,-100,4,2,1,60,0,0
24451,-100,4,2,1,40,0,0
24541,-100,4,2,1,60,0,0
24993,-100,4,2,2,60,0,0
25083,-100,4,2,1,60,0,0
25535,-100,4,1,1,40,0,0
25625,-100,4,2,1,40,0,0
25896,-100,4,1,1,40,0,0
25987,-100,4,2,1,40,0,0
26258,-100,4,1,1,40,0,0
26348,-100,4,2,1,40,0,0
27523,-100,4,2,1,60,0,0
28426,-100,4,1,1,50,0,0
28517,-100,4,2,1,50,0,0
28788,-100,4,1,1,50,0,0
28878,-100,4,2,1,50,0,0
29149,-100,4,1,1,50,0,0
29240,-100,4,2,1,50,0,0
29330,-100,4,2,2,60,0,0
29420,-100,4,2,1,60,0,0
29963,-100,4,2,1,60,0,0
30414,-100,4,2,1,60,0,0
31318,-100,4,1,1,30,0,0
31408,-100,4,2,1,30,0,0
32222,-100,4,2,2,60,0,0
32312,-100,4,2,1,60,0,0
35023,-100,4,2,1,60,0,0
35836,-100,4,2,1,40,0,0
36198,-100,4,2,1,60,0,0
37101,-100,4,1,1,40,0,0
37191,-100,4,2,1,40,0,0
37553,-100,4,2,1,40,0,0
37824,-100,4,1,1,40,0,0
37914,-100,4,2,1,40,0,0
38005,-100,4,2,2,60,0,0
38095,-100,4,2,1,60,0,0
39993,-100,4,1,1,60,0,0
40083,-100,4,2,1,60,0,0
40354,-100,4,1,1,60,0,0
40445,-100,4,2,1,60,0,0
40716,-100,4,1,1,60,0,0
40806,-100,4,2,1,60,0,0
40896,-100,4,2,2,60,0,0
40987,-100,4,2,1,60,0,0
41258,-100,4,2,1,60,0,0
41981,-100,4,2,1,60,0,0
42884,-100,4,1,1,40,0,0
42975,-100,4,2,1,40,0,0
43246,-100,4,1,1,40,0,0
43336,-100,4,2,1,40,0,0
43607,-100,4,1,1,40,0,0
43698,-100,4,2,1,40,0,0
43969,-100,4,2,1,60,0,0
45776,-100,4,1,1,60,0,0
45957,-100,4,2,1,60,0,0
46137,-100,4,1,1,60,0,0
46228,-100,4,2,1,60,0,0
60414,-100,4,2,1,60,0,1
61951,-100,4,2,1,5,0,1
62131,-100,4,2,1,60,0,1
64571,-100,4,2,1,40,0,1
64752,-100,4,2,1,60,0,1
65113,-100,4,2,2,60,0,1
65294,-100,4,2,1,60,0,1
71438,-100,4,1,1,60,0,1
71890,-100,4,2,1,60,0,0
71981,-100,4,2,1,60,0,1
83547,-100,4,2,1,30,0,0

[Colours]
Combo1 : 0,253,107
Combo2 : 28,28,255
Combo3 : 255,0,255
Combo4 : 229,229,229

[HitObjects]
88,128,595,6,0,B|96:84|56:48,2,67.5000025749207
32,208,1137,2,0,B|72:252|164:236|176:160,1,180,2|0,0:0|0:0,0:0:0
172,68,1679,1,2,0:0:0
424,256,2041,6,0,B|416:300|456:336,2,67.5000025749207,0|2|0,0:0|0:0|0:0,0:0:0
480,176,2583,2,0,B|440:132|348:148|336:224,1,180,2|0,0:0|0:0,0:0:0
340,316,3125,1,2,0:0:0
140,308,3487,5,0,0:0:0
44,336,3667,1,2,0:0:0
24,240,3848,1,0,0:0:0
112,208,4029,2,0,B|156:144|128:60,1,135,2|0,0:0|0:0,0:0:0
108,36,4390,1,0,0:0:0
60,124,4571,2,0,B|100:172|184:168|208:120,1,135,2|0,0:0|0:0,0:0:0
212,108,4932,1,0,0:0:0
304,144,5113,1,0,0:0:0
344,52,5294,5,2,0:0:0
352,60,5655,1,0,0:0:0
360,68,6017,1,2,0:0:0
368,76,6378,5,0,0:0:0
468,76,6559,1,2,0:0:0
488,172,6740,1,0,0:0:0
384,280,6920,2,0,B|312:272|240:320,1,135,2|0,0:0|0:0,0:0:0
268,264,7282,2,0,B|236:308|148:312,1,90,0|2,0:0|0:0,0:0:0
192,308,8005,5,2,0:0:0
76,148,8366,2,0,B|144:176|216:132|216:52,1,180,2|0,0:0|0:0,0:0:0
298,74,8908,2,0,B|296:132|368:176|436:148,1,180,2|0,0:0|0:0,0:0:0
392,56,9451,1,2,0:0:0
256,192,9812,12,0,12342,0:0:0
376,116,12704,6,0,B|416:92|432:40,2,90,4|0|8,0:0|0:0|0:0,0:0:0
440,192,13246,2,0,B|360:248|332:352,1,180,0|0,0:0|0:0,0:0:0
256,280,13788,1,8,0:0:0
175,335,13969,2,0,B|152:248|72:192,1,180,0|0,0:0|0:0,0:0:0
44,96,14511,5,8,0:0:0
140,112,14691,2,0,B|180:84|180:84|212:32,1,90
256,132,15053,1,0,0:0:0
310,48,15234,2,0,B|332:84|332:84|372:112,1,90,8|0,0:0|0:0,0:0:0
468,96,15595,5,0,0:0:0
472,196,15776,2,0,B|488:240|468:284,1,90,0|8,0:0|0:0,0:0:0
380,328,16137,2,0,B|300:268|196:304,1,180,0|0,0:0|0:0,0:0:0
112,344,16679,1,8,0:0:0
84,248,16860,2,0,B|120:152|48:48,1,180,0|0,0:0|0:0,0:0:0
148,20,17402,5,8,0:0:0
216,92,17583,2,0,B|260:104|260:104|324:84,1,90,0|0,0:0|0:0,0:0:0
364,20,17945,1,0,0:0:0
372,28,18035,1,0,0:0:0
380,36,18125,1,8,0:0:0
388,44,18216,1,0,0:0:0
396,52,18306,1,0,0:0:0
404,60,18396,1,0,0:0:0
412,68,18487,6,0,B|420:112|408:144|384:172|384:172|392:256,1,180,4|8,0:0|0:0,0:0:0
372,340,19029,1,0,0:0:0
300,272,19210,2,0,B|256:256|256:256|192:280,1,90
140,340,19571,1,8,0:0:0
121,240,19752,6,0,B|128:172|128:172|104:144|92:112|100:68,1,180,0|0,0:0|0:0,0:0:0
196,100,20294,1,8,0:0:0
256,20,20475,1,0,0:0:0
316,100,20655,1,0,0:0:0
412,68,20836,2,0,B|424:112|424:112|480:156,1,90,0|8,0:0|0:0,0:0:0
376,192,21198,1,0,0:0:0
458,244,21378,6,0,B|424:272|424:272|412:316,2,90,0|0|8,0:0|0:0|0:0,0:0:0
376,192,21920,2,0,B|320:220|288:196|248:204|220:128,1,180,0|0,0:0|0:0,0:0:0
184,48,22463,1,8,0:0:0
100,100,22643,2,0,B|108:188|52:280,1,180,0|0,0:0|0:0,0:0:0
112,356,23185,1,8,0:0:0
164,272,23366,1,0,0:0:0
248,324,23547,5,8,0:0:0
271,285,23637,1,0,0:0:0
310,264,23727,1,8,0:0:0
354,259,23818,1,8,0:0:0
397,271,23908,1,8,0:0:0
432,308,23999,2,0,B|424:328|444:364,2,45
440,260,24270,6,0,B|464:220|460:164,1,90,4|4,0:0|0:0,0:0:0
316,36,24812,6,0,B|296:96|232:120|148:92,1,180
88,36,25354,1,0,0:0:0
72,132,25535,2,0,B|40:240,1,90
136,344,25896,2,0,B|188:264,1,90
256,196,26258,1,0,0:0:0
324,268,26438,2,0,B|374:344,1,90,8|0,0:0|0:0,0:0:0
465,218,26800,2,0,B|440:132,1,90
256,28,27161,6,0,B|256:124,1,90,8|8,0:0|0:0,0:0:0
46,218,27704,5,0,0:0:0
64,316,27884,1,8,0:0:0
156,276,28065,2,0,B|200:296|264:284,1,90
324,332,28426,2,0,B|380:244|504:280,1,180,0|0,0:0|0:0,0:0:0
424,192,28969,1,0,0:0:0
481,109,29149,2,0,B|380:140|324:52,1,180
244,108,29691,1,0,0:0:0
164,48,29872,1,0,0:0:0
64,144,30053,6,0,B|60:188|20:244,1,90,8|8,0:0|0:0,0:0:0
228,320,30595,6,0,B|264:292|316:284,1,90,0|8,0:0|0:0,0:0:0
396,332,30957,1,0,0:0:0
460,260,31137,1,0,0:0:0
372,212,31318,2,0,B|340:124|384:28,1,180,0|0,0:0|0:0,0:0:0
476,20,31860,1,0,0:0:0
444,116,32041,2,0,B|336:160|284:44,1,180,2|0,0:0|0:0,0:0:0
224,132,32583,1,0,0:0:0
156,60,32764,1,0,0:0:0
88,132,32945,6,0,B|84:184|32:232|36:232,1,90,8|8,0:0|0:0,0:0:0
112,344,33306,2,0,B|124:292|168:256,1,90
256,192,33667,1,8,0:0:0
272,288,33848,1,0,0:0:0
372,300,34029,1,0,0:0:0
372,200,34210,6,0,B|420:184|468:220|492:268|464:324,1,180,8|8,0:0|0:0,0:0:0
372,300,34752,1,0,0:0:0
272,288,34932,1,8,0:0:0
256,192,35113,5,8,0:0:0
214,206,35203,1,0,0:0:0
189,243,35293,1,0,0:0:0
171,285,35384,1,0,0:0:0
142,317,35474,1,0,0:0:0
98,324,35564,1,0,0:0:0
60,302,35655,1,0,0:0:0
43,261,35745,1,0,0:0:0
49,217,35835,5,4,0:0:0
84,124,36017,1,4,0:0:0
84,124,36378,6,0,B|80:72|32:32,2,90,0|8|0,0:0|0:0|0:0,0:0:0
176,84,36920,1,0,0:0:0
212,176,37101,2,0,B|280:192|336:172|388:96,1,180
436,44,37643,1,0,0:0:0
472,136,37824,2,0,B|448:224|496:324,1,180
400,356,38366,1,0,0:0:0
356,268,38547,1,0,0:0:0
240,336,38728,6,0,B|184:320|124:356,1,90,8|8,0:0|0:0,0:0:0
136,132,39270,6,0,B|104:168|44:168,2,90,0|8|0,0:0|0:0|0:0,0:0:0
164,36,39812,1,0,0:0:0
240,100,39993,2,0,B|256:36|346:14|390:51,1,180,0|0,0:0|0:0,0:0:0
336,136,40535,1,0,0:0:0
428,168,40716,2,8,B|412:232|321:253|277:216,1,180,0|0,0:0|0:0,0:0:0
184,196,41258,1,0,0:0:0
100,148,41438,1,0,0:0:0
96,248,41619,6,0,B|70:334,1,90,8|8,0:0|0:0,0:0:0
268,328,42161,6,0,B|320:296|380:328,1,90,0|8,0:0|0:0,0:0:0
452,344,42523,1,0,0:0:0
464,244,42704,1,0,0:0:0
372,212,42884,2,0,B|352:168|360:116,1,90,0|0,0:0|0:0,0:0:0
256,40,43246,2,0,B|220:68|148:64,1,90,0|0,0:0|0:0,0:0:0
80,160,43607,1,0,0:0:0
152,272,43788,2,0,B|176:224|252:212,1,90,8|0,0:0|0:0,0:0:0
296,276,44149,1,0,0:0:0
404,108,44511,6,0,B|448:92|480:36,2,90,8|0|0,0:0|0:0|0:0,0:0:0
452,196,45053,1,0,0:0:0
352,192,45234,2,0,B|284:160|212:188|192:284,1,180,8|0,0:0|0:0,0:0:0
156,336,45776,1,0,0:0:0
84,268,45957,2,0,B|88:216|56:168,1,90,0|0,0:0|0:0,0:0:0
36,88,46318,1,8,0:0:0
145,134,46499,1,0,0:0:0
232,64,46679,6,8,B|228:36|248:12,2,45,8|8|8,0:0|0:0|0:0,0:0:0
324,96,47041,2,8,B|328:124|308:148,2,45
456,48,47402,6,0,B|416:108|452:208,1,135,4|0,0:0|0:0,0:0:0
472,220,47764,1,8,0:0:0
428,308,47945,2,0,B|380:264|296:272|256:316,1,180
180,252,48487,2,0,B|148:296|92:296,1,90,8|0,0:0|0:0,0:0:0
104,196,48848,5,0,0:0:0
104,196,49210,1,8,0:0:0
252,64,49571,2,0,B|304:68|344:36,1,90
404,112,49932,1,8,0:0:0
468,36,50113,1,0,0:0:0
404,112,50294,6,0,B|432:308,1,180,0|8,0:0|0:0,0:0:0
336,260,50836,2,0,B|316:324|256:352|184:336,1,180
128,260,51378,1,8,0:0:0
60,332,51559,1,0,0:0:0
128,260,51740,2,0,B|144:160|84:68,1,180,0|8,0:0|0:0,0:0:0
292,80,52463,5,0,0:0:0
292,80,52643,1,0,0:0:0
372,24,52824,1,8,0:0:0
372,24,53005,1,0,0:0:0
404,116,53185,6,0,B|420:264,1,135,4|0,0:0|0:0,0:0:0
448,288,53547,1,8,0:0:0
336,324,53728,2,0,B|244:288|160:340,1,180
64,328,54270,1,8,0:0:0
28,236,54451,1,0,0:0:0
120,204,54631,2,0,B|212:240|296:188,1,180,0|8,0:0|0:0,0:0:0
460,84,55354,6,0,B|464:36|504:0,2,90,0|0|8,0:0|0:0|0:0,0:0:0
456,184,55896,1,0,0:0:0
376,128,56077,2,0,B|336:168|276:172|212:144,1,135
216,120,56438,1,8,0:0:0
100,44,56619,2,0,B|52:220,1,180
64,316,57161,1,8,0:0:0
152,360,57342,1,0,0:0:0
184,264,57523,6,0,B|272:224|376:272,1,180,4|8,0:0|0:0,0:0:0
420,344,58065,1,0,0:0:0
448,248,58246,2,0,B|472:132,1,90
384,24,58607,2,0,B|360:140,1,90,8|0,0:0|0:0,0:0:0
276,152,58969,5,8,0:0:0
176,40,59149,1,0,0:0:0
176,40,59240,1,8,0:0:0
176,40,59330,1,0,0:0:0
48,116,59511,1,8,0:0:0
152,284,59872,5,0,0:0:0
220,356,60053,1,8,0:0:0
308,312,60234,1,0,0:0:0
472,256,60414,6,0,B|400:196|392:96,1,180,4|8,0:0|0:0,0:0:0
320,32,60957,1,0,0:0:0
256,108,61137,1,0,0:0:0
192,32,61318,1,0,0:0:0
140,116,61499,2,0,B|116:164|64:180,1,90,8|0,0:0|0:0,0:0:0
60,340,61860,6,0,B|104:272|196:264,1,135,4|0,0:0|0:0,0:0:0
220,284,62222,1,8,0:0:0
288,356,62402,1,0,0:0:0
448,236,62764,1,0,0:0:0
476,140,62945,1,8,0:0:0
404,72,63125,1,0,0:0:0
316,120,63306,6,0,B|224:136|144:88,1,135,4|0,0:0|0:0,0:0:0
144,76,63667,1,8,0:0:0
12,152,63848,2,0,B|96:160|148:244,1,135
148,260,64210,1,0,0:0:0
208,340,64390,1,8,0:0:0
296,296,64571,5,4,0:0:0
480,368,64932,1,0,0:0:0
440,176,65294,1,4,0:0:0
288,52,65655,5,0,0:0:0
220,124,65836,1,8,0:0:0
144,60,66017,1,0,0:0:0
116,156,66198,6,0,B|124:240|48:300,1,135,4|0,0:0|0:0,0:0:0
120,264,66559,2,0,B|120:316|160:356,1,90,8|0,0:0|0:0,0:0:0
220,276,66920,1,0,0:0:0
408,344,67282,2,0,B|420:276|476:224,1,135,8|0,0:0|0:0,0:0:0
424,240,67643,6,0,B|468:180|436:84,1,135,4|0,0:0|0:0,0:0:0
428,64,68005,1,8,0:0:0
348,8,68185,1,0,0:0:0
300,96,68366,2,0,B|240:128|136:112,1,135
120,104,68728,1,8,0:0:0
40,48,68908,1,0,0:0:0
120,104,69089,6,0,B|136:204|72:276,1,180,4|8,0:0|0:0,0:0:0
140,348,69631,1,0,0:0:0
204,272,69812,1,0,0:0:0
288,328,69993,2,0,B|340:352|416:332,1,90,0|8,0:0|0:0,0:0:0
456,280,70354,5,4,0:0:0
464,264,70716,1,4,0:0:0
472,248,71077,5,4,0:0:0
476,148,71258,1,4,0:0:0
380,124,71438,1,0,0:0:0
342,148,71528,1,0,0:0:0
298,155,71618,1,0,0:0:0
254,147,71709,1,0,0:0:0
215,126,71799,1,0,0:0:0
187,91,71889,1,0,0:0:0
172,44,71981,6,0,B|108:224,1,180,4|8,0:0|0:0,0:0:0
40,280,72523,1,0,0:0:0
108,352,72704,1,0,0:0:0
192,300,72884,1,0,0:0:0
284,332,73065,2,0,B|316:292|400:304,1,90,8|0,0:0|0:0,0:0:0
476,192,73426,6,0,B|392:192|336:112,1,135,4|0,0:0|0:0,0:0:0
344,88,73788,1,8,0:0:0
256,40,73969,1,0,0:0:0
60,68,74330,2,0,B|72:120|28:180,1,90,0|8,0:0|0:0,0:0:0
48,252,74691,1,0,0:0:0
144,236,74872,6,0,B|176:304|284:316,1,135,4|0,0:0|0:0,0:0:0
300,300,75234,1,8,0:0:0
404,360,75414,2,0,B|456:204,1,135
460,184,75776,1,0,0:0:0
428,88,75957,1,8,0:0:0
340,136,76137,5,4,0:0:0
172,32,76499,1,0,0:0:0
36,172,76860,1,4,0:0:0
148,336,77222,5,0,0:0:0
220,268,77402,1,8,0:0:0
292,336,77583,1,0,0:0:0
448,288,77764,6,0,B|388:228|388:136,1,135,4|0,0:0|0:0,0:0:0
400,120,78125,1,8,0:0:0
332,48,78306,1,0,0:0:0
256,112,78487,1,0,0:0:0
68,64,78848,1,8,0:0:0
48,108,78938,1,8,0:0:0
60,156,79029,1,8,0:0:0
100,184,79119,1,8,0:0:0
148,180,79210,5,12,0:0:0
208,256,79390,1,4,0:0:0
308,240,79571,1,4,0:0:0
256,112,79752,5,0,0:0:0
256,112,80113,1,0,0:0:0
256,112,80294,1,8,0:0:0
456,80,80655,5,4,0:0:0
456,80,80836,1,4,0:0:0
256,316,81198,1,4,0:0:0
256,316,81378,1,4,0:0:0
56,80,81740,1,4,0:0:0
56,80,81921,1,4,0:0:0
256,112,82282,5,4,0:0:0
256,112,82463,1,4,0:0:0
256,112,82824,5,8,0:0:0
148,276,83185,1,8,0:0:0
364,276,83547,1,4,0:0:0
