osu file format v14

[General]
AudioFilename: daisuki.mp3
AudioLeadIn: 0
PreviewTime: 70796
Countdown: 0
SampleSet: Soft
StackLeniency: 0.7
Mode: 0
LetterboxInBreaks: 0
WidescreenStoryboard: 1

[Editor]
Bookmarks: 6055,29503,51572,70882,94331,117779,139848,159158,182606,206055,229503,252951,275020,294331
DistanceSpacing: 1.2
BeatDivisor: 2
GridSize: 4
TimelineZoom: 1

[Metadata]
Title:Promised Love ~Daisuki x 100~
TitleUnicode:Promised Love~ダイスキ×100
Artist:Horie Yui
ArtistUnicode:堀江由衣
Creator:Project Railgun
Version:Normal
Source:DOG DAYS
Tags:ドッグデイズ ending yoshiko hocchan millhiore firianno biscotti project_railgun
BeatmapID:647947
BeatmapSetID:277449

[Difficulty]
HPDrainRate:3.6
CircleSize:3
OverallDifficulty:3.8
ApproachRate:4.8
SliderMultiplier:1.1
SliderTickRate:1

[Events]
//Background and Video events
0,0,"bg-small.jpg",0,0
//Break Periods
2,11426,69659
2,94531,157935
//Storyboard Layer 0 (Background)
//Storyboard Layer 1 (Fail)
//Storyboard Layer 2 (Pass)
//Storyboard Layer 3 (Foreground)
//Storyboard Sound Samples

[TimingPoints]
538,344.827586206897,4,2,7,5,1,0
3296,-100,4,2,7,20,0,0
3986,-100,4,2,7,30,0,0
4675,-100,4,2,7,40,0,0
5365,-100,4,2,7,50,0,0
6055,-100,4,2,7,60,0,1
6141,-100,4,2,7,60,0,0
70882,-100,4,2,7,60,0,1
90193,-100,4,2,7,60,0,0
91572,-100,4,2,7,60,0,1
94244,-100,4,2,7,60,0,0
94331,-100,4,2,7,60,0,1
94417,-100,4,2,7,60,0,0
159158,-100,4,2,7,60,0,1
170106,-100,4,2,7,60,0,0
170193,-100,4,2,7,60,0,1
178469,-100,4,2,7,60,0,0
179848,-100,4,2,7,60,0,1
182520,-100,4,2,7,60,0,0
182606,-100,4,2,7,60,0,1
182693,-100,4,2,7,60,0,0
206055,-100,4,2,7,60,0,1
206141,-100,4,2,7,60,0,0
229503,-100,4,2,7,60,0,1
229589,-100,4,2,7,60,0,0
240538,-100,4,2,7,60,0,1
248813,-100,4,2,7,60,0,0
250193,-100,4,2,7,60,0,1
251744,-100,4,2,7,60,0,0
252951,-100,4,2,7,60,0,1
263900,-100,4,2,7,60,0,0
263986,-100,4,2,7,60,0,1
274934,-100,4,2,7,60,0,0
275020,-100,4,2,7,60,0,1
275106,-100,4,2,7,60,0,0
287434,-100,4,2,7,50,0,0
288813,-100,4,2,7,40,0,0
290193,-100,4,2,7,30,0,0
291572,-100,4,2,7,20,0,0
292951,-100,4,2,7,10,0,0
294331,-100,4,2,7,5,0,0

[Colours]
Combo1 : 224,220,35
Combo2 : 241,46,183
Combo3 : 43,210,34
Combo4 : 168,51,247

[HitObjects]
8,272,3296,6,0,P|111:294|193:226,1,220
384,44,4675,2,0,B|336:148|428:148|370:255,1,220
256,324,5710,1,0,0:0:0:0:
132,276,6055,6,0,P|101:231|96:177,1,110
196,92,6744,2,0,P|244:100|264:92,1,55
308,68,7089,1,0,0:0:0:0:
416,144,7434,2,0,L|412:253,1,110
296,316,8124,2,0,P|303:342|320:363,2,55
180,256,8813,6,0,P|127:243|75:258,1,110
23,136,9503,2,0,P|44:117|70:111,1,55
136,120,9848,1,0,0:0:0:0:
248,188,10193,2,0,P|299:204|351:189,1,110
468,124,10882,2,0,L|475:178,2,55
359,271,70882,6,0,P|413:280|460:253,2,110
256,192,71917,1,0,0:0:0:0:
152,271,72262,2,0,P|98:280|51:253,1,110
32,192,72779,2,0,L|29:82,1,110
80,40,73296,1,0,0:0:0:0:
203,83,73641,6,0,P|255:100|307:83,1,110
308,216,74331,2,0,P|256:199|204:216,1,110
84,272,75020,2,0,B|64:208|64:208|75:166,1,110
120,116,75538,2,0,P|173:113|211:74,1,110
260,28,76055,1,0,0:0:0:0:
380,80,76400,6,0,L|386:189,1,110
496,264,77089,2,0,L|489:154,1,110
380,80,77779,2,0,P|343:120|290:128,1,110
221,128,78296,2,0,P|168:120|132:80,1,110
88,32,78813,1,0,0:0:0:0:
20,144,79158,6,0,B|58:190|43:245|43:245|110:234|144:276,1,220
256,344,80193,1,0,0:0:0:0:
380,304,80538,2,0,L|489:289,1,110
392,200,81227,2,0,L|282:214,1,110
156,248,81917,6,0,P|107:223|84:174,1,110
112,116,82434,2,0,L|228:64,1,110
272,40,82951,1,0,0:0:0:0:
372,124,83296,2,0,B|364:172|364:172|372:200|372:200|368:231,1,110
340,292,83813,2,0,P|294:321|241:313,1,110
176,276,84331,1,0,0:0:0:0:
92,176,84675,6,0,L|77:66,1,110
132,28,85193,2,0,P|163:71|216:81,1,110
272,44,85710,1,0,0:0:0:0:
360,140,86055,2,0,P|380:189|362:240,1,110
308,276,86572,2,0,B|276:280|256:264|256:264|236:280|203:275,1,110
148,240,87089,1,0,0:0:0:0:
140,108,87434,6,0,P|192:94|222:50,1,110
289,50,87951,2,0,P|319:94|372:108,1,110
440,112,88469,1,0,0:0:0:0:
396,236,88813,2,0,L|289:264,1,110
222,264,89331,2,0,L|116:236,1,110
64,196,89848,2,0,P|52:170|49:143,2,55
87,219,91572,6,0,P|138:239|193:235,1,110
248,200,92089,2,0,P|302:195|353:215,1,110
384,272,92606,2,0,L|400:356,1,55
464,216,93124,1,0,0:0:0:0:
404,100,93469,2,0,P|416:68|444:40,1,55
324,132,93986,1,0,0:0:0:0:
200,56,94331,5,0,0:0:0:0:
160,100,159158,6,0,L|50:90,2,110
256,192,160193,1,0,0:0:0:0:
352,100,160538,2,0,L|461:90,1,110
512,136,161055,2,0,P|520:189|497:238,1,110
452,288,161572,1,0,0:0:0:0:
328,336,161917,6,0,L|218:324,1,110
140,220,162606,2,0,L|249:231,1,110
372,176,163296,2,0,P|388:124|377:71,1,110
312,56,163813,2,0,B|256:64|256:64|203:56,1,110
140,36,164331,1,0,0:0:0:0:
36,119,164675,6,0,P|25:173|42:224,1,110
164,272,165365,2,0,P|174:218|157:167,1,110
256,80,166055,2,0,L|366:80,1,110
424,116,166572,2,0,P|406:167|425:217,1,110
472,264,167089,1,0,0:0:0:0:
359,335,167434,6,0,B|256:276|256:384|150:319,1,220
60,220,168469,1,0,0:0:0:0:
116,100,168813,2,0,P|167:83|191:35,1,110
320,35,169503,2,0,P|344:83|396:100,1,110
