osu file format v9

[General]
AudioFilename: Presenter_192.mp3
AudioLeadIn: 2000
PreviewTime: 58510
Countdown: 0
SampleSet: Normal
StackLeniency: 0.7
Mode: 0
LetterboxInBreaks: 1

[Editor]
Bookmarks: 13906
DistanceSpacing: 1.2
BeatDivisor: 4
GridSize: 8

[Metadata]
Title:PRESENTER (TV Size)
Artist:Horie Yui
Creator:ertyukjh010
Version:Insane
Source:DOG DAYS
Tags:Elements Garden Nakaramu Kanata

[Difficulty]
HPDrainRate:7
CircleSize:4
OverallDifficulty:7
ApproachRate:8
SliderMultiplier:1.6
SliderTickRate:2

[Events]
//Background and Video events
0,0,"BG.jpg"
Video,-320,"video.avi"
//Break Periods
//Storyboard Layer 0 (Background)
//Storyboard Layer 1 (Fail)
//Storyboard Layer 2 (Pass)
//Storyboard Layer 3 (Foreground)
//Storyboard Sound Samples
//Background Colour Transformations
3,100,163,162,255

[TimingPoints]
-783,397.350993377483,4,1,0,50,1,0
10342,-100,4,1,0,25,0,0
11137,-100,4,1,0,40,0,0
11931,-100,4,1,0,25,0,0
12726,-100,4,1,0,40,0,0
13521,-100,4,2,0,50,0,0
13918,-100,4,2,0,55,0,0
14315,-100,4,2,0,60,0,0
14713,-100,4,2,0,65,0,0
15110,-100,4,2,0,75,0,0
15507,-100,4,2,0,90,0,0
15905,-100,4,1,0,50,0,0
30806,-100,4,2,0,10,0,0
31203,-100,4,2,2,75,0,0
37759,-100,4,2,0,75,0,0
43719,-100,4,1,0,50,0,0
58819,-100,4,2,2,75,0,0
59613,-100,4,1,0,50,0,1
84051,-100,4,1,0,50,0,0
89813,-100,4,2,0,5,0,0

[Colours]
Combo1 : 239,175,56
Combo2 : 231,156,228
Combo3 : 237,234,95
Combo4 : 147,244,159

[HitObjects]
256,328,409,1,0
256,136,806,2,0,B|144:56|32:136,1,240,4|0
256,136,1601,2,0,B|368:56|480:136,1,240
416,208,2395,2,0,B|400:264|456:296,1,80
344,320,2793,2,0,B|360:264|304:232,1,80
256,312,3190,5,0
128,240,3488,1,0
160,96,3786,1,0
256,104,3985,2,0,B|336:88|416:104,1,160,4|0
368,184,4581,2,0,B|288:200|208:184,1,160
120,144,5177,2,0,B|104:222|120:320,1,160
117,303,5773,1,0
312,328,6170,5,0
344,288,6269,1,0
376,248,6369,1,0
320,72,6766,5,0
256,144,6965,1,0
256,240,7164,2,0,B|192:312|96:280,1,160,4|0
256,240,7760,2,0,B|320:312|416:280,1,160
256,240,8356,2,0,B|192:168|96:200,1,160
24,240,8952,1,0
32,144,9150,1,0
256,64,9548,6,0,B|256:304,1,240,0|4
352,304,10342,6,0,B|432:304,1,80,0|0
480,224,10740,2,0,B|400:224,1,80
344,144,11137,2,0,B|424:144,1,80
472,64,11534,2,0,B|384:64,1,80
296,64,11932,6,0,B|216:64,1,80,4|0
160,144,12329,2,0,B|240:144,1,80
288,224,12726,2,0,B|200:224,1,80
256,304,13124,2,0,B|176:304,1,80
80,320,13521,6,0,B|72:272,3,40
72,232,13918,2,0,B|72:184,3,40,0|0|0|0
80,144,14316,2,0,B|112:96,3,40,0|0|0|0
136,80,14713,2,0,B|184:64,3,40,0|0|0|0
224,64,15111,2,0,B|280:64,3,40,0|0|0|0
312,72,15508,2,0,B|368:80,3,40,0|0|0|0
384,112,15905,6,0,B|384:200,1,80,4|0
128,272,16303,2,0,B|128:184,1,80
192,120,16700,5,4
256,48,16899,1,0
320,120,17097,1,8
384,192,17296,2,0,B|400:232|384:280,1,80
320,336,17693,2,0,B|280:352|232:336,1,80,0|8
264,248,18091,1,0
168,256,18289,5,0
120,272,18389,1,0
72,288,18488,1,0
48,192,18687,1,8
96,176,18786,1,0
144,160,18885,1,0
104,72,19084,2,0,B|160:32|224:64,1,120
217,60,19481,1,8
304,104,19680,1,0
400,80,19879,5,4
448,160,20077,1,0
392,232,20276,1,8
328,304,20475,2,0,B|208:304,1,120
176,272,20872,2,0,B|256:272,1,80,0|8
304,192,21269,1,0
208,192,21468,6,0,B|120:192,2,80,4|0|8
88,104,22064,1,0
88,104,22164,1,0
88,104,22263,1,0
256,64,22462,1,0
424,104,22660,1,8
432,296,23058,5,0
352,352,23256,1,0
256,336,23455,1,8
160,352,23654,1,0
72,312,23852,2,0,B|72:192,1,120
72,192,24250,1,8
120,104,24448,1,0
208,56,24647,1,0
304,56,24846,1,0
384,104,25044,1,8
424,192,25243,1,0
328,216,25442,2,0,B|168:216,1,160,0|8
256,336,26236,5,4
256,240,26435,1,0
256,192,26534,1,0
256,144,26634,1,8
256,48,26832,1,0
176,96,27031,2,0,B|128:96,1,40
336,96,27329,2,0,B|384:96,1,40,0|8
256,48,27627,1,4
256,192,27826,12,0,30806
304,296,31203,2,0,B|304:368|208:368|208:296,1,160
112,320,31799,1,0
40,256,31998,1,0
112,192,32197,1,0
32,136,32395,1,2
188,24,32793,6,0,B|268:24,1,80
360,56,33190,1,2
440,112,33389,1,0
456,208,33587,1,0
400,288,33786,1,2
312,320,33985,2,0,B|240:368|160:328,1,160
160,328,34581,1,2
160,328,34779,1,0
24,192,35177,5,0
112,152,35375,1,2
208,152,35574,1,0
296,184,35773,2,0,B|400:232|456:120|360:64,1,240
360,64,36468,1,0
360,64,36567,1,0
264,64,36766,2,0,B|192:104,1,80,0|2
120,40,37164,2,0,B|32:56,1,80,0|4
24,152,37561,5,0
96,216,37760,1,8
32,288,37958,1,0
32,288,38058,1,0
32,288,38157,2,0,B|96:352|184:320,1,160,0|8
248,248,38753,2,0,B|320:288,1,80
392,344,39150,6,0,B|440:336,1,40
464,304,39349,1,8
440,216,39548,1,0
472,128,39746,1,0
392,80,39945,1,0
296,104,40144,2,0,B|216:104,1,80,8|0
160,184,40541,6,0,B|168:232|144:272,1,80,4|0
352,184,40938,2,0,B|344:232|368:272,1,80,8|0
256,280,41336,1,0
256,184,41534,1,0
256,88,41733,2,0,B|256:8,2,80,8|0|0
256,88,42329,1,0
256,88,42528,1,8
96,192,42925,5,2
128,208,43124,1,2
160,192,43322,1,2
192,176,43521,1,2
224,192,43720,2,0,B|384:192,1,160,4|8
448,264,44316,1,0
368,320,44515,6,0,B|320:344,1,40
240,304,44813,2,0,B|192:288,1,40,0|8
120,336,45111,2,0,B|64:352|48:296,1,80
96,224,45508,1,0
48,136,45707,1,8
112,64,45905,5,0
160,56,46005,1,0
208,72,46104,2,0,B|280:120|384:120,1,160,0|8
448,160,46700,1,0
440,256,46899,6,0,B|376:336|272:280,1,160,0|8
344,208,47495,2,0,B|264:163|200:243,1,160
168,328,48091,5,8
120,344,48190,1,0
72,328,48289,1,0
48,288,48389,1,0
56,240,48488,1,0
88,152,48687,2,0,B|64:72,1,80,0|8
160,88,49084,6,0,B|208:240,1,160
256,328,49680,1,8
352,328,49879,1,0
392,240,50077,2,0,B|424:264,4,40,0|0|0|0|8
408,144,50673,2,0,B|368:72|264:80,1,160
192,136,51269,1,8
112,88,51468,5,0
48,160,51667,2,0,B|24:240|48:328,1,160,4|8
136,344,52263,1,0
216,288,52462,2,0,B|296:288,1,80
296,288,52859,1,8
376,344,53058,1,0
466,318,53256,2,0,B|488:240|464:160,1,160,4|8
464,64,53852,1,0
368,80,54051,5,0
344,120,54150,1,0
296,136,54250,1,0
248,120,54349,1,0
224,80,54448,1,8
168,152,54647,5,0
144,112,54746,1,0
96,96,54846,1,0
48,112,54945,1,0
24,152,55044,1,0
56,240,55243,2,0,B|136:240,1,80,8|4
176,328,55640,6,0,B|256:360|336:328,1,160,0|8
256,272,56236,1,0
256,272,56435,5,4
184,152,56733,1,0
328,152,57031,1,0
333,55,57230,2,0,B|295:40|256:56,1,80
177,55,57627,2,0,B|216:40|256:56,1,80
256,152,58024,1,0
256,248,58223,1,0
256,344,58422,1,0
256,344,58521,1,0
256,344,58620,1,0
168,296,58819,6,0,B|88:296,1,80,2|2
344,296,59216,2,0,B|424:296,1,80
88,200,59614,6,0,B|16:168|16:96|80:40,1,160,4|8
424,200,60210,2,0,B|496:168|496:96|432:40,1,160
368,88,60806,1,8
304,160,61005,5,0
256,144,61104,1,0
208,160,61203,1,0
144,88,61402,1,0
80,160,61601,2,0,B|48:240,1,80,8|0
120,304,61998,1,0
216,280,62197,1,0
216,280,62296,1,0
216,280,62395,2,0,B|296:280,1,80,8|0
392,304,62793,5,0
432,216,62991,2,0,B|480:232,2,40,0|0|8
432,120,63389,2,0,B|472:104,2,40
344,88,63786,1,0
256,56,63985,1,8
168,88,64183,1,0
136,176,64382,5,0
144,224,64481,1,0
168,264,64581,1,0
208,288,64680,1,0
256,304,64779,1,8
304,288,64879,1,0
344,264,64978,1,0
368,224,65077,1,0
376,176,65177,1,0
256,192,65375,2,0,B|256:112,2,80,0|8|0
256,304,65971,6,0,B|176:344|88:296,1,160,0|8
256,304,66567,2,0,B|336:344|424:296,1,160
440,216,67164,1,8
456,168,67263,1,0
440,120,67362,1,0
360,64,67561,6,0,B|280:32|200:72,1,160,0|8
232,160,68157,2,0,B|156:197|76:165,1,160
32,80,68753,1,8
72,56,68852,1,0
120,56,68952,1,0
216,80,69150,6,0,B|336:104,1,120
320,152,69548,2,0,B|240:168,1,80,8|0
256,264,69945,1,0
336,320,70144,1,0
376,296,70243,1,0
424,296,70342,1,8
472,208,70541,1,0
432,120,70740,5,0
424,72,70839,1,0
392,40,70938,1,0
344,24,71038,1,0
296,40,71137,1,8
264,72,71236,1,0
256,120,71336,1,0
256,168,71435,1,0
256,216,71534,5,0
256,264,71634,1,0
248,312,71733,1,0
216,344,71832,1,0
168,360,71932,1,8
120,344,72031,1,0
88,312,72130,1,0
80,264,72230,1,0
80,216,72329,6,0,B|80:56,1,160,4|8
432,168,72925,2,0,B|432:328,1,160
256,192,73521,1,8
256,96,73720,6,0,B|168:48|104:128,1,160,0|0
256,288,74316,2,0,B|344:336|408:256,1,160,8|0
400,265,74912,1,0
464,192,75111,1,8
400,120,75309,1,0
336,192,75508,6,0,B|216:192,1,120
216,192,75905,1,8
120,200,76104,1,0
56,128,76303,1,0
56,128,76402,1,0
56,128,76501,2,0,B|80:48,1,80,0|8
176,64,76899,1,0
176,64,77097,5,4
328,24,77296,1,0
464,104,77495,1,8
448,264,77693,1,0
256,328,78289,5,8
256,328,78687,2,0,B|32:328|32:56|256:56,1,480,4|8
384,192,80276,2,0,B|224:192,1,160,0|8
128,192,80872,1,0
256,336,81269,1,0
256,240,81468,1,8
256,240,81667,1,0
256,144,81866,6,0,B|256:64,2,80,0|0|8
256,240,82462,2,0,B|336:224|416:240,1,160
256,240,83058,2,0,B|176:224|96:240,1,160,8|4
97,239,83654,1,0
256,128,84051,5,0
184,72,84250,2,0,B|256:8|328:72,1,160
368,160,84846,1,0
344,256,85044,1,4
256,304,85243,1,0
168,256,85442,1,8
144,160,85640,1,0
368,256,86038,5,0
344,160,86236,1,8
256,112,86435,1,0
168,160,86634,1,0
144,256,86832,1,0
256,224,87230,5,0
256,224,87428,2,0,B|256:344,2,120
256,224,88223,2,0,B|200:152|128:104,1,160,4|0
256,224,88819,2,0,B|312:152|384:104,1,160,4|0
370,113,89614,1,4
256,192,89813,12,0,92197
