osu file format v14

[General]
AudioFilename: Presenter.mp3
AudioLeadIn: 0
PreviewTime: 58630
Countdown: 0
SampleSet: Soft
StackLeniency: 0.7
Mode: 3
LetterboxInBreaks: 0
SpecialStyle: 0
WidescreenStoryboard: 0

[Editor]
DistanceSpacing: 1.2
BeatDivisor: 4
GridSize: 8
TimelineZoom: 2.1

[Metadata]
Title:PRESENTER (TV Size)
TitleUnicode:PRESENTER (TV Size)
Artist:Horie Yui
ArtistUnicode:堀江由衣
Creator:RuberusuScarlet
Version:Hyper
Source:DOG DAYS
Tags:Elements Garden Nakaramu Kanata yoshilove -LASU-
BeatmapID:704690
BeatmapSetID:316230

[Difficulty]
HPDrainRate:7.5
CircleSize:9
OverallDifficulty:8
ApproachRate:5
SliderMultiplier:1.4
SliderTickRate:1

[Events]
//Background and Video events
Video,0,"video.avi"
0,0,"Millhiore.jpg",0,0
//Break Periods
//Storyboard Layer 0 (Background)
//Storyboard Layer 1 (Fail)
//Storyboard Layer 2 (Pass)
//Storyboard Layer 3 (Foreground)
//Storyboard Sound Samples

[TimingPoints]
816,397.350993377483,4,2,1,30,1,0
27835,-100,4,2,1,15,0,0
37372,-100,4,2,1,30,0,0
59623,-100,4,2,1,30,0,1
83663,-100,4,2,1,30,0,0

[HitObjects]
256,192,816,5,4,0:0:0:0:
85,192,816,1,8,0:0:0:0:
369,192,816,1,0,0:0:0:0:
312,192,1014,1,2,0:0:0:0:
142,192,1213,1,2,0:0:0:0:
426,192,1412,1,2,0:0:0:0:
369,192,1610,1,2,0:0:0:0:
199,192,1908,1,2,0:0:0:0:
85,192,2206,1,2,0:0:0:0:
256,192,2405,1,2,0:0:0:0:
256,192,2703,1,2,0:0:0:0:
483,192,3001,1,2,0:0:0:0:
312,192,3200,1,4,0:0:0:0:
142,192,3200,1,8,0:0:0:0:
28,192,3200,1,0,0:0:0:0:
85,192,3498,1,0,0:0:0:0:
199,192,3498,1,8,0:0:0:0:
369,192,3498,1,4,0:0:0:0:
142,192,3796,1,0,0:0:0:0:
256,192,3796,1,8,0:0:0:0:
426,192,3796,1,4,0:0:0:0:
199,192,3994,1,8,0:0:0:0:
85,192,3994,1,0,0:0:0:0:
483,192,3994,1,4,0:0:0:0:
426,192,4193,1,2,0:0:0:0:
312,192,4292,1,2,0:0:0:0:
142,192,4590,1,2,0:0:0:0:
256,192,4789,1,2,0:0:0:0:
256,192,5087,1,2,0:0:0:0:
426,192,5385,1,2,0:0:0:0:
28,192,5584,1,0,0:0:0:0:
256,192,5782,1,0,0:0:0:0:
483,192,5981,1,0,0:0:0:0:
199,192,6180,1,8,0:0:0:0:
256,192,6279,1,8,0:0:0:0:
312,192,6378,1,8,0:0:0:0:
369,192,6577,1,8,0:0:0:0:
426,192,6776,1,8,0:0:0:0:
85,192,6776,1,0,0:0:0:0:
483,192,6974,1,8,0:0:0:0:
142,192,6974,1,0,0:0:0:0:
256,192,6974,1,4,0:0:0:0:
85,192,7173,1,0,0:0:0:0:
199,192,7173,1,4,0:0:0:0:
369,192,7173,1,8,0:0:0:0:
256,192,7372,1,2,0:0:0:0:
483,192,7570,1,2,0:0:0:0:
369,192,7769,1,2,0:0:0:0:
199,192,7968,1,2,0:0:0:0:
85,192,8266,1,2,0:0:0:0:
142,192,8564,1,8,0:0:0:0:
256,192,8564,1,2,0:0:0:0:
199,192,8763,1,4,0:0:0:0:
426,192,8763,1,2,0:0:0:0:
85,192,8763,1,8,0:0:0:0:
369,192,8961,1,2,0:0:0:0:
256,192,9061,1,2,0:0:0:0:
85,192,9359,1,8,0:0:0:0:
199,192,9359,1,4,0:0:0:0:
426,192,9359,1,2,0:0:0:0:
369,192,9557,1,2,0:0:0:0:
142,192,9756,1,2,0:0:0:0:
256,192,9955,1,2,0:0:0:0:
483,192,10153,1,0,0:0:0:0:
142,192,10153,1,4,0:0:0:0:
28,192,10153,1,8,0:0:0:0:
256,192,10551,1,2,0:0:0:0:
312,192,10749,1,2,0:0:0:0:
426,192,10948,1,2,0:0:0:0:
85,192,10948,1,8,0:0:0:0:
199,192,10948,1,4,0:0:0:0:
369,192,11345,1,2,0:0:0:0:
256,192,11544,1,2,0:0:0:0:
28,192,11743,1,8,0:0:0:0:
142,192,11743,1,4,0:0:0:0:
426,192,11743,1,2,0:0:0:0:
256,192,12140,1,2,0:0:0:0:
199,192,12339,1,2,0:0:0:0:
85,192,12537,1,8,0:0:0:0:
312,192,12537,1,4,0:0:0:0:
426,192,12537,1,2,0:0:0:0:
369,192,12935,1,2,0:0:0:0:
256,192,13133,1,2,0:0:0:0:
85,192,13332,1,2,0:0:0:0:
483,192,13332,1,8,0:0:0:0:
426,192,13332,1,4,0:0:0:0:
142,192,13431,1,2,0:0:0:0:
369,192,13531,1,2,0:0:0:0:
199,192,13630,1,2,0:0:0:0:
312,192,13729,1,2,0:0:0:0:
142,192,13829,1,2,0:0:0:0:
369,192,13928,1,2,0:0:0:0:
85,192,14027,1,2,0:0:0:0:
426,192,14127,1,2,0:0:0:0:
142,192,14226,1,2,0:0:0:0:
483,192,14325,1,2,0:0:0:0:
199,192,14425,1,2,0:0:0:0:
312,192,14524,1,2,0:0:0:0:
426,192,14623,1,2,0:0:0:0:
85,192,14723,1,2,0:0:0:0:
483,192,14822,1,2,0:0:0:0:
142,192,14921,1,2,0:0:0:0:
369,192,15021,1,2,0:0:0:0:
199,192,15120,1,2,0:0:0:0:
312,192,15219,1,2,0:0:0:0:
256,192,15319,1,2,0:0:0:0:
199,192,15418,1,2,0:0:0:0:
369,192,15517,1,2,0:0:0:0:
142,192,15617,1,2,0:0:0:0:
426,192,15716,1,2,0:0:0:0:
85,192,15815,1,2,0:0:0:0:
483,192,15915,1,0,0:0:0:0:
142,192,15915,1,2,0:0:0:0:
199,192,15915,1,8,0:0:0:0:
142,192,16114,1,2,0:0:0:0:
199,192,16114,1,8,0:0:0:0:
483,192,16114,1,0,0:0:0:0:
369,192,16312,1,0,0:0:0:0:
312,192,16312,1,8,0:0:0:0:
28,192,16312,1,2,0:0:0:0:
312,192,16511,1,8,0:0:0:0:
369,192,16511,1,0,0:0:0:0:
28,192,16511,1,2,0:0:0:0:
426,192,16710,1,0,0:0:0:0:
142,192,16710,1,8,0:0:0:0:
256,192,16710,1,4,0:0:0:0:
369,192,16908,1,0,0:0:0:0:
312,192,17107,1,0,0:0:0:0:
85,192,17107,1,8,0:0:0:0:
199,192,17306,1,0,0:0:0:0:
256,192,17504,1,8,0:0:0:0:
312,192,17703,1,0,0:0:0:0:
142,192,17902,1,8,0:0:0:0:
483,192,17902,1,0,0:0:0:0:
85,192,18100,1,0,0:0:0:0:
256,192,18200,1,8,0:0:0:0:
426,192,18299,1,8,0:0:0:0:
312,192,18498,1,0,0:0:0:0:
369,192,18696,1,0,0:0:0:0:
142,192,18696,1,8,0:0:0:0:
256,192,18895,1,0,0:0:0:0:
28,192,19094,1,8,0:0:0:0:
199,192,19292,1,2,0:0:0:0:
142,192,19392,1,2,0:0:0:0:
426,192,19491,1,2,0:0:0:0:
85,192,19491,1,8,0:0:0:0:
369,192,19590,1,2,0:0:0:0:
312,192,19690,1,2,0:0:0:0:
256,192,19789,1,2,0:0:0:0:
199,192,19888,1,0,0:0:0:0:
142,192,19888,1,2,0:0:0:0:
483,192,19888,1,4,0:0:0:0:
85,192,20087,1,2,0:0:0:0:
312,192,20087,1,0,0:0:0:0:
142,192,20286,1,2,0:0:0:0:
369,192,20286,1,0,0:0:0:0:
426,192,20484,1,0,0:0:0:0:
199,192,20484,1,2,0:0:0:0:
483,192,20882,1,0,0:0:0:0:
142,192,20882,1,2,0:0:0:0:
426,192,21080,1,0,0:0:0:0:
85,192,21080,1,2,0:0:0:0:
28,192,21279,1,2,0:0:0:0:
369,192,21279,1,0,0:0:0:0:
142,192,21478,1,2,0:0:0:0:
199,192,21478,1,4,0:0:0:0:
312,192,21478,1,0,0:0:0:0:
85,192,21875,1,8,0:0:0:0:
256,192,21875,1,0,0:0:0:0:
426,192,22074,1,2,0:0:0:0:
369,192,22173,1,2,0:0:0:0:
312,192,22272,1,2,0:0:0:0:
28,192,22272,1,8,0:0:0:0:
142,192,22272,1,4,0:0:0:0:
199,192,22670,1,8,0:0:0:0:
312,192,22670,1,4,0:0:0:0:
483,192,22670,1,0,0:0:0:0:
142,192,22868,1,8,0:0:0:0:
256,192,22868,1,8,3:0:0:0:
199,192,23067,1,4,0:0:0:0:
369,192,23067,1,0,0:0:0:0:
426,192,23067,1,8,0:0:0:0:
312,192,23266,1,0,0:0:0:0:
256,192,23465,1,0,0:0:0:0:
483,192,23465,1,8,0:0:0:0:
199,192,23663,1,0,0:0:0:0:
312,192,23862,1,8,0:0:0:0:
142,192,24061,1,0,0:0:0:0:
426,192,24259,1,8,0:0:0:0:
199,192,24259,1,0,0:0:0:0:
85,192,24458,1,0,0:0:0:0:
312,192,24657,1,8,0:0:0:0:
85,192,24855,1,0,0:0:0:0:
28,192,25054,1,0,0:0:0:0:
369,192,25054,1,8,0:0:0:0:
199,192,25253,1,4,3:0:0:0:
256,192,25352,1,4,3:0:0:0:
312,192,25451,1,4,3:0:0:0:
28,192,25650,1,2,0:0:0:0:
85,192,25749,1,2,0:0:0:0:
142,192,25849,1,2,0:0:0:0:
199,192,25948,1,2,0:0:0:0:
256,192,26047,1,2,0:0:0:0:
312,192,26147,1,2,0:0:0:0:
85,192,26246,1,4,0:0:0:0:
256,192,26246,1,8,0:0:0:0:
369,192,26246,1,0,0:0:0:0:
142,192,26544,1,4,0:0:0:0:
312,192,26544,1,8,0:0:0:0:
426,192,26544,1,0,0:0:0:0:
199,192,26842,1,4,0:0:0:0:
483,192,26842,1,0,0:0:0:0:
369,192,26842,1,8,0:0:0:0:
426,192,27041,1,0,0:0:0:0:
312,192,27041,1,8,0:0:0:0:
142,192,27041,1,4,0:0:0:0:
28,192,27438,1,8,0:0:0:0:
142,192,27438,1,4,0:0:0:0:
369,192,27438,1,0,0:0:0:0:
85,192,27637,1,8,0:0:0:0:
199,192,27637,1,4,0:0:0:0:
426,192,27637,1,0,0:0:0:0:
142,192,28431,1,2,0:0:0:0:
199,192,28630,1,2,0:0:0:0:
256,192,28829,1,2,0:0:0:0:
312,192,29027,1,2,0:0:0:0:
369,192,29226,1,2,0:0:0:0:
28,192,30021,1,2,0:0:0:0:
142,192,30219,1,2,0:0:0:0:
256,192,30418,1,2,0:0:0:0:
369,192,30617,1,2,0:0:0:0:
483,192,30815,1,2,0:0:0:0:
85,192,31014,1,2,0:0:0:0:
256,192,31014,1,2,0:0:0:0:
199,192,31610,1,2,0:0:0:0:
369,192,31610,1,2,0:0:0:0:
142,192,32008,1,2,0:0:0:0:
312,192,32206,1,2,0:0:0:0:
483,192,32405,1,2,0:0:0:0:
426,192,32604,1,2,0:0:0:0:
199,192,32604,1,2,0:0:0:0:
312,192,32802,1,2,0:0:0:0:
256,192,33001,1,2,0:0:0:0:
369,192,33200,1,2,0:0:0:0:
142,192,33200,1,2,0:0:0:0:
483,192,33597,1,2,0:0:0:0:
312,192,33796,1,2,0:0:0:0:
142,192,33994,1,2,0:0:0:0:
199,192,34193,1,2,0:0:0:0:
483,192,34193,1,2,0:0:0:0:
256,192,34392,1,2,0:0:0:0:
369,192,34590,1,2,0:0:0:0:
142,192,34789,1,2,0:0:0:0:
426,192,34789,1,2,0:0:0:0:
28,192,35186,1,2,0:0:0:0:
142,192,35385,1,2,0:0:0:0:
256,192,35584,1,2,0:0:0:0:
85,192,35782,1,2,0:0:0:0:
426,192,35782,1,2,0:0:0:0:
312,192,35981,1,2,0:0:0:0:
142,192,36180,1,2,0:0:0:0:
426,192,36378,1,2,0:0:0:0:
369,192,36478,1,2,0:0:0:0:
312,192,36577,1,2,0:0:0:0:
28,192,36577,1,0,0:0:0:0:
142,192,36776,1,2,0:0:0:0:
369,192,36974,1,2,0:0:0:0:
199,192,37173,1,2,0:0:0:0:
85,192,37372,1,8,0:0:0:0:
312,192,37372,1,4,0:0:0:0:
426,192,37372,1,0,0:0:0:0:
28,192,37769,1,0,0:0:0:0:
142,192,37769,1,8,1:0:0:0:
199,192,37968,1,8,0:0:0:0:
369,192,37968,1,0,0:0:0:0:
142,192,38067,1,8,1:0:0:0:
312,192,38067,1,0,0:0:0:0:
426,192,38365,1,0,0:0:0:0:
199,192,38365,1,2,0:0:0:0:
369,192,38564,1,0,0:0:0:0:
142,192,38564,1,2,0:0:0:0:
85,192,38763,1,2,0:0:0:0:
312,192,38763,1,0,0:0:0:0:
28,192,38961,1,8,0:0:0:0:
256,192,38961,1,0,0:0:0:0:
426,192,38961,1,0,0:0:0:0:
483,192,39359,1,0,0:0:0:0:
369,192,39359,1,8,1:0:0:0:
142,192,39557,1,0,0:0:0:0:
312,192,39557,1,8,0:0:0:0:
199,192,39657,1,0,0:0:0:0:
369,192,39657,1,8,1:0:0:0:
85,192,39955,1,0,0:0:0:0:
312,192,39955,1,2,0:0:0:0:
142,192,40153,1,0,0:0:0:0:
369,192,40153,1,2,0:0:0:0:
426,192,40352,1,2,0:0:0:0:
199,192,40352,1,0,0:0:0:0:
142,192,40551,1,0,0:0:0:0:
483,192,40551,1,4,0:0:0:0:
369,192,40551,1,8,0:0:0:0:
85,192,40749,1,2,0:0:0:0:
199,192,40948,1,2,0:0:0:0:
312,192,41147,1,8,0:0:0:0:
142,192,41147,1,2,0:0:0:0:
426,192,41147,1,4,0:0:0:0:
256,192,41544,1,2,0:0:0:0:
199,192,41743,1,2,0:0:0:0:
142,192,41941,1,2,0:0:0:0:
312,192,41941,1,4,0:0:0:0:
426,192,41941,1,8,0:0:0:0:
426,192,42289,1,2,0:0:0:0:
369,192,42339,1,2,0:0:0:0:
85,192,42339,1,8,0:0:0:0:
312,192,42388,1,2,0:0:0:0:
256,192,42438,1,2,0:0:0:0:
142,192,42537,1,8,0:0:0:0:
483,192,42537,1,2,0:0:0:0:
199,192,42736,1,2,0:0:0:0:
312,192,42935,1,2,0:0:0:0:
28,192,43034,1,2,0:0:0:0:
369,192,43133,1,2,0:0:0:0:
85,192,43233,1,2,0:0:0:0:
426,192,43332,1,2,0:0:0:0:
142,192,43431,1,2,0:0:0:0:
483,192,43531,1,2,0:0:0:0:
199,192,43630,1,2,0:0:0:0:
85,192,44127,1,0,0:0:0:0:
256,192,44127,1,4,0:0:0:0:
426,192,44127,1,8,0:0:0:0:
199,192,44524,1,0,0:0:0:0:
312,192,44524,1,8,0:0:0:0:
85,192,44723,1,0,0:0:0:0:
256,192,44723,1,4,0:0:0:0:
426,192,44723,1,8,0:0:0:0:
142,192,45120,1,0,0:0:0:0:
256,192,45120,1,4,0:0:0:0:
369,192,45120,1,8,0:0:0:0:
426,192,45517,1,2,0:0:0:0:
312,192,45716,1,2,0:0:0:0:
199,192,45915,1,2,0:0:0:0:
85,192,46114,1,2,0:0:0:0:
142,192,46312,1,2,0:0:0:0:
256,192,46511,1,2,0:0:0:0:
85,192,46710,1,2,0:0:0:0:
426,192,46710,1,8,3:0:0:0:
369,192,46809,1,8,3:0:0:0:
312,192,46908,1,8,3:0:0:0:
256,192,47206,1,8,0:0:0:0:
426,192,47306,1,8,0:0:0:0:
142,192,47306,1,4,0:0:0:0:
28,192,47306,1,0,0:0:0:0:
85,192,47902,1,0,0:0:0:0:
256,192,47902,1,4,0:0:0:0:
426,192,47902,1,8,0:0:0:0:
142,192,48100,1,0,0:0:0:0:
312,192,48100,1,8,0:0:0:0:
199,192,48299,1,4,0:0:0:0:
28,192,48299,1,0,0:0:0:0:
369,192,48299,1,8,0:0:0:0:
426,192,48696,1,2,0:0:0:0:
312,192,48895,1,2,0:0:0:0:
199,192,49094,1,2,0:0:0:0:
28,192,49292,1,2,0:0:0:0:
312,192,49292,1,8,0:0:0:0:
369,192,49491,1,8,0:0:0:0:
426,192,49690,1,8,3:0:0:0:
85,192,49690,1,10,0:0:0:0:
369,192,49789,1,8,3:0:0:0:
312,192,49888,1,8,3:0:0:0:
142,192,49888,1,8,0:0:0:0:
256,192,49988,1,8,3:0:0:0:
85,192,50087,1,0,0:0:0:0:
199,192,50087,1,4,0:0:0:0:
483,192,50087,1,8,0:0:0:0:
256,192,50385,1,4,0:0:0:0:
426,192,50385,1,8,0:0:0:0:
142,192,50385,1,0,0:0:0:0:
85,192,50683,1,0,0:0:0:0:
199,192,50683,1,4,0:0:0:0:
483,192,50683,1,8,0:0:0:0:
312,192,51080,1,0,0:0:0:0:
256,192,51279,1,0,0:0:0:0:
426,192,51478,1,0,0:0:0:0:
369,192,51676,1,8,0:0:0:0:
483,192,51676,1,4,0:0:0:0:
85,192,51676,1,0,0:0:0:0:
312,192,51974,1,8,0:0:0:0:
426,192,51974,1,4,0:0:0:0:
142,192,51974,1,0,0:0:0:0:
256,192,52272,1,8,0:0:0:0:
85,192,52272,1,0,0:0:0:0:
369,192,52272,1,4,0:0:0:0:
199,192,52670,1,2,0:0:0:0:
426,192,52868,1,2,0:0:0:0:
369,192,52968,1,2,0:0:0:0:
312,192,53067,1,2,0:0:0:0:
256,192,53166,1,2,0:0:0:0:
85,192,53266,1,0,0:0:0:0:
199,192,53266,1,4,0:0:0:0:
426,192,53266,1,8,0:0:0:0:
312,192,53663,1,0,0:0:0:0:
256,192,54061,1,0,0:0:0:0:
142,192,54061,1,2,0:0:0:0:
199,192,54359,1,2,0:0:0:0:
483,192,54458,1,0,0:0:0:0:
256,192,54657,1,2,0:0:0:0:
28,192,54855,1,0,0:0:0:0:
426,192,54855,1,2,0:0:0:0:
199,192,55054,1,0,0:0:0:0:
369,192,55153,1,2,0:0:0:0:
142,192,55253,1,0,0:0:0:0:
312,192,55451,1,2,0:0:0:0:
256,192,55451,1,0,0:0:0:0:
426,192,55650,1,0,0:0:0:0:
142,192,55849,1,2,0:0:0:0:
199,192,55948,1,2,0:0:0:0:
256,192,56047,1,2,0:0:0:0:
312,192,56147,1,2,0:0:0:0:
369,192,56246,1,2,0:0:0:0:
426,192,56345,1,2,0:0:0:0:
28,192,56445,1,2,0:0:0:0:
142,192,56445,1,4,0:0:0:0:
256,192,56445,1,8,0:0:0:0:
85,192,56743,1,2,0:0:0:0:
199,192,56743,1,4,0:0:0:0:
312,192,56743,1,8,0:0:0:0:
142,192,57041,1,2,0:0:0:0:
256,192,57041,1,4,0:0:0:0:
369,192,57041,1,8,0:0:0:0:
312,192,57438,1,8,0:0:0:0:
426,192,57438,1,0,0:0:0:0:
199,192,57438,1,2,0:0:0:0:
142,192,57637,1,0,0:0:0:0:
256,192,57637,1,2,0:0:0:0:
369,192,57637,1,8,0:0:0:0:
199,192,57835,1,4,0:0:0:0:
85,192,57835,1,0,0:0:0:0:
426,192,57835,1,2,0:0:0:0:
312,192,57835,1,8,0:0:0:0:
369,192,58233,1,8,0:0:0:0:
483,192,58233,1,2,0:0:0:0:
28,192,58233,1,0,0:0:0:0:
142,192,58233,1,4,0:0:0:0:
426,192,58431,1,2,0:0:0:0:
312,192,58431,1,8,0:0:0:0:
199,192,58431,1,4,0:0:0:0:
85,192,58431,1,0,0:0:0:0:
256,192,58431,128,0,59623:0:0:0:0:
142,192,59623,1,0,0:0:0:0:
199,192,59623,1,4,0:0:0:0:
312,192,59623,1,8,0:0:0:0:
369,192,59623,1,8,0:0:0:0:
312,192,59921,1,2,0:0:0:0:
85,192,60021,1,0,0:0:0:0:
256,192,60021,1,8,0:0:0:0:
369,192,60219,1,2,0:0:0:0:
199,192,60418,1,2,0:0:0:0:
312,192,60418,1,8,0:0:0:0:
28,192,60815,1,8,0:0:0:0:
483,192,60815,1,0,0:0:0:0:
256,192,61014,1,4,0:0:0:0:
369,192,61014,1,2,0:0:0:0:
142,192,61213,1,0,0:0:0:0:
426,192,61213,1,8,0:0:0:0:
369,192,61610,1,10,0:0:0:0:
142,192,61710,1,2,0:0:0:0:
312,192,61809,1,2,0:0:0:0:
85,192,61908,1,2,0:0:0:0:
369,192,62008,1,10,0:0:0:0:
142,192,62107,1,2,0:0:0:0:
426,192,62206,1,2,0:0:0:0:
199,192,62306,1,2,0:0:0:0:
369,192,62405,1,10,0:0:0:0:
142,192,62504,1,2,0:0:0:0:
312,192,62604,1,2,0:0:0:0:
85,192,62703,1,2,0:0:0:0:
199,192,62802,1,8,0:0:0:0:
256,192,62802,1,4,0:0:0:0:
426,192,62802,1,2,0:0:0:0:
369,192,63100,1,2,0:0:0:0:
312,192,63200,1,0,0:0:0:0:
142,192,63200,1,8,0:0:0:0:
426,192,63398,1,2,0:0:0:0:
199,192,63597,1,8,0:0:0:0:
369,192,63597,1,2,0:0:0:0:
85,192,63895,1,2,0:0:0:0:
142,192,63994,1,8,0:0:0:0:
256,192,63994,1,0,0:0:0:0:
312,192,64193,1,2,0:0:0:0:
199,192,64392,1,8,0:0:0:0:
369,192,64392,1,4,0:0:0:0:
426,192,64392,1,2,0:0:0:0:
312,192,64789,1,2,0:0:0:0:
142,192,64789,1,8,0:0:0:0:
85,192,64988,1,0,0:0:0:0:
256,192,64988,1,2,0:0:0:0:
369,192,65186,1,8,0:0:0:0:
142,192,65385,1,0,0:0:0:0:
199,192,65584,1,0,0:0:0:0:
312,192,65584,1,8,0:0:0:0:
142,192,65782,1,4,0:0:0:0:
369,192,65782,1,8,0:0:0:0:
256,192,65782,1,0,0:0:0:0:
426,192,65981,1,8,0:0:0:0:
312,192,65981,1,0,0:0:0:0:
85,192,65981,1,4,0:0:0:0:
142,192,66279,1,8,0:0:0:0:
256,192,66378,1,8,0:0:0:0:
369,192,66378,1,0,0:0:0:0:
312,192,66577,1,8,0:0:0:0:
426,192,66577,1,0,0:0:0:0:
85,192,66974,1,0,0:0:0:0:
256,192,66974,1,0,0:0:0:0:
142,192,67173,1,0,0:0:0:0:
312,192,67173,1,0,0:0:0:0:
199,192,67372,1,0,0:0:0:0:
369,192,67372,1,0,0:0:0:0:
85,192,67570,1,0,0:0:0:0:
256,192,67570,1,0,0:0:0:0:
426,192,67570,1,8,0:0:0:0:
369,192,67868,1,8,0:0:0:0:
256,192,67968,1,8,0:0:0:0:
142,192,67968,1,0,0:0:0:0:
85,192,68166,1,0,0:0:0:0:
199,192,68166,1,8,0:0:0:0:
426,192,68564,1,0,0:0:0:0:
256,192,68564,1,0,0:0:0:0:
369,192,68763,1,0,0:0:0:0:
199,192,68763,1,0,0:0:0:0:
142,192,68961,1,0,0:0:0:0:
312,192,68961,1,0,0:0:0:0:
85,192,69160,1,0,0:0:0:0:
256,192,69160,1,8,0:0:0:0:
369,192,69160,1,2,0:0:0:0:
142,192,69458,1,0,0:0:0:0:
312,192,69458,1,8,0:0:0:0:
426,192,69458,1,2,0:0:0:0:
199,192,69756,1,0,0:0:0:0:
369,192,69756,1,8,0:0:0:0:
483,192,69756,1,2,0:0:0:0:
28,192,69955,1,0,0:0:0:0:
142,192,69955,1,8,0:0:0:0:
312,192,69955,1,2,0:0:0:0:
85,192,70253,1,0,0:0:0:0:
199,192,70253,1,8,0:0:0:0:
369,192,70253,1,2,0:0:0:0:
142,192,70551,1,0,0:0:0:0:
256,192,70551,1,8,0:0:0:0:
426,192,70551,1,2,0:0:0:0:
28,192,70749,1,0,0:0:0:0:
199,192,70749,1,8,0:0:0:0:
369,192,70749,1,2,0:0:0:0:
85,192,71047,1,8,0:0:0:0:
426,192,71047,1,0,0:0:0:0:
369,192,71345,1,2,0:0:0:0:
483,192,71345,1,0,0:0:0:0:
142,192,71345,1,8,0:0:0:0:
256,192,71345,1,4,0:0:0:0:
426,192,71743,1,0,0:0:0:0:
199,192,71743,1,2,0:0:0:0:
369,192,71941,1,0,0:0:0:0:
142,192,71941,1,2,0:0:0:0:
312,192,72140,1,0,0:0:0:0:
85,192,72140,1,2,0:0:0:0:
28,192,72339,1,2,0:0:0:0:
256,192,72339,1,4,0:0:0:0:
426,192,72339,1,8,0:0:0:0:
142,192,72637,1,2,0:0:0:0:
199,192,72736,1,0,0:0:0:0:
369,192,72736,1,8,0:0:0:0:
256,192,72935,1,2,0:0:0:0:
312,192,73133,1,8,0:0:0:0:
85,192,73133,1,2,0:0:0:0:
28,192,73531,1,0,0:0:0:0:
256,192,73531,1,8,0:0:0:0:
312,192,73729,1,4,0:0:0:0:
142,192,73729,1,0,0:0:0:0:
426,192,73928,1,8,0:0:0:0:
199,192,74127,1,2,0:0:0:0:
312,192,74226,1,2,0:0:0:0:
142,192,74325,1,10,0:0:0:0:
369,192,74425,1,2,0:0:0:0:
85,192,74524,1,2,0:0:0:0:
426,192,74623,1,2,0:0:0:0:
28,192,74723,1,10,0:0:0:0:
483,192,74822,1,2,0:0:0:0:
85,192,74921,1,2,0:0:0:0:
426,192,75021,1,2,0:0:0:0:
142,192,75120,1,10,0:0:0:0:
369,192,75219,1,2,0:0:0:0:
199,192,75319,1,2,0:0:0:0:
312,192,75418,1,2,0:0:0:0:
28,192,75517,1,4,0:0:0:0:
142,192,75517,1,8,0:0:0:0:
426,192,75517,1,2,0:0:0:0:
369,192,75815,1,2,0:0:0:0:
199,192,75915,1,8,0:0:0:0:
85,192,75915,1,0,0:0:0:0:
312,192,76114,1,2,0:0:0:0:
142,192,76312,1,8,0:0:0:0:
426,192,76312,1,2,0:0:0:0:
312,192,76610,1,2,0:0:0:0:
142,192,76710,1,8,0:0:0:0:
28,192,76710,1,0,0:0:0:0:
369,192,76908,1,2,0:0:0:0:
199,192,77107,1,0,0:0:0:0:
256,192,77107,1,4,0:0:0:0:
312,192,77107,1,8,0:0:0:0:
142,192,77306,1,2,0:0:0:0:
369,192,77306,1,0,0:0:0:0:
483,192,77504,1,0,0:0:0:0:
28,192,77504,1,2,0:0:0:0:
369,192,77703,1,8,0:0:0:0:
142,192,77703,1,2,0:0:0:0:
256,192,77703,1,4,0:0:0:0:
312,192,77902,1,8,0:0:0:0:
199,192,77902,1,2,0:0:0:0:
256,192,78100,1,2,0:0:0:0:
199,192,78299,1,2,0:0:0:0:
312,192,78299,1,8,0:0:0:0:
426,192,78696,1,2,0:0:0:0:
369,192,78696,1,4,0:0:0:0:
199,192,78696,1,8,0:0:0:0:
312,192,78994,1,2,0:0:0:0:
142,192,78994,1,4,0:0:0:0:
85,192,78994,1,8,0:0:0:0:
483,192,79292,1,2,0:0:0:0:
426,192,79292,1,4,0:0:0:0:
199,192,79292,1,8,0:0:0:0:
28,192,79690,1,8,0:0:0:0:
142,192,79888,1,8,0:0:0:0:
369,192,79888,1,2,0:0:0:0:
199,192,79888,1,0,0:0:0:0:
142,192,80087,1,8,0:0:0:0:
369,192,80087,1,2,0:0:0:0:
312,192,80087,1,0,0:0:0:0:
85,192,80286,1,2,0:0:0:0:
256,192,80286,1,4,0:0:0:0:
426,192,80286,1,8,0:0:0:0:
312,192,80584,1,2,0:0:0:0:
199,192,80683,1,2,0:0:0:0:
85,192,80882,1,0,0:0:0:0:
142,192,80882,1,4,0:0:0:0:
369,192,80882,1,8,0:0:0:0:
426,192,80882,1,2,0:0:0:0:
85,192,81279,1,8,0:0:0:0:
426,192,81279,1,2,0:0:0:0:
369,192,81478,1,2,0:0:0:0:
142,192,81478,1,8,0:0:0:0:
199,192,81676,1,8,0:0:0:0:
312,192,81676,1,2,0:0:0:0:
142,192,81875,1,2,0:0:0:0:
256,192,81875,1,4,0:0:0:0:
369,192,81875,1,8,0:0:0:0:
312,192,82074,1,8,0:0:0:0:
369,192,82272,1,8,0:0:0:0:
199,192,82471,1,8,0:0:0:0:
85,192,82670,1,8,0:0:0:0:
199,192,82769,1,8,0:0:0:0:
312,192,82868,1,8,0:0:0:0:
426,192,82968,1,8,0:0:0:0:
142,192,83067,1,2,0:0:0:0:
369,192,83067,1,0,0:0:0:0:
142,192,83266,1,2,0:0:0:0:
369,192,83266,1,0,0:0:0:0:
85,192,83465,1,2,0:0:0:0:
199,192,83465,1,4,0:0:0:0:
312,192,83465,1,8,0:0:0:0:
426,192,83465,1,0,0:0:0:0:
85,192,83663,1,2,0:0:0:0:
199,192,83663,1,4,0:0:0:0:
312,192,83663,1,8,0:0:0:0:
426,192,83663,1,0,0:0:0:0:
199,192,85054,1,2,0:0:0:0:
312,192,85054,1,4,0:0:0:0:
426,192,85054,1,8,0:0:0:0:
85,192,85054,1,0,0:0:0:0:
256,192,85451,1,2,0:0:0:0:
142,192,85650,1,8,0:0:0:0:
369,192,85849,1,2,0:0:0:0:
312,192,86246,1,2,0:0:0:0:
483,192,86643,1,2,0:0:0:0:
85,192,87041,1,8,0:0:0:0:
199,192,87438,1,2,0:0:0:0:
426,192,87438,1,8,0:0:0:0:
369,192,87835,1,8,0:0:0:0:
312,192,88034,1,8,0:0:0:0:
28,192,88233,1,2,0:0:0:0:
142,192,88233,1,4,0:0:0:0:
256,192,88233,1,8,0:0:0:0:
369,192,88630,1,2,0:0:0:0:
483,192,88630,1,8,0:0:0:0:
312,192,88829,1,8,0:0:0:0:
199,192,88829,1,4,0:0:0:0:
85,192,88829,1,2,0:0:0:0:
142,192,89226,1,2,0:0:0:0:
256,192,89226,1,4,0:0:0:0:
369,192,89226,1,8,0:0:0:0:
199,192,89623,1,2,0:0:0:0:
312,192,89623,1,4,0:0:0:0:
426,192,89623,1,8,0:0:0:0:
