osu file format v12

[General]
AudioFilename: Dog Days 2 closing.mp3
AudioLeadIn: 0
PreviewTime: 52903
Countdown: 0
SampleSet: Soft
StackLeniency: 0.7
Mode: 0
LetterboxInBreaks: 0

[Editor]
Bookmarks: 36678,50307,50470
DistanceSpacing: 0.9
BeatDivisor: 4
GridSize: 8

[Metadata]
Title:Natsu no Yakusoku (TV Size)
TitleUnicode:夏の約束 (TV Size)
Artist:Horie Yui
ArtistUnicode:堀江 由衣
Creator:vo1t4ge
Version:Trinity
Source:Dog Days'
Tags:anime ending _Erra_ judydanny
BeatmapID:255794
BeatmapSetID:95184

[Difficulty]
HPDrainRate:7
CircleSize:5
OverallDifficulty:7
ApproachRate:8
SliderMultiplier:1.4
SliderTickRate:1

[Events]
//Background and Video events
Video,0,"Dog Days 2 closing.avi"
0,0,"tumblr_m7jjhh9Mvh1rvm8k7o1_1280.jpg",0,0
//Break Periods
//Storyboard Layer 0 (Background)
//Storyboard Layer 1 (Fail)
//Storyboard Layer 2 (Pass)
//Storyboard Layer 3 (Foreground)
//Storyboard Sound Samples
//Background Colour Transformations
3,100,163,162,255

[TimingPoints]
5556,324.324324324324,4,2,0,100,1,0
15610,-100,4,2,0,100,0,0
15935,-100,4,2,0,100,0,0
16016,-100,4,2,0,100,0,0
21286,-100,4,2,0,60,0,0
21529,-100,4,2,0,100,0,0
21935,-100,4,2,0,60,0,0
22178,-100,4,2,0,100,0,0
22583,-100,4,2,0,60,0,0
22827,-100,4,2,0,100,0,0
23232,-100,4,2,0,60,0,0
23475,-100,4,2,0,100,0,0
31746,-100,4,2,0,50,0,0
31908,-100,4,2,0,100,0,0
32394,-100,4,2,0,60,0,0
32556,-100,4,2,0,100,0,0
33043,-100,4,2,0,60,0,0
33205,-100,4,2,0,100,0,0
33691,-100,4,2,0,60,0,0
33854,-100,4,2,0,100,0,0
50313,-100,4,2,0,100,0,0
52421,-100,4,2,0,100,0,0
53556,-100,4,2,0,100,0,1
59556,-100,4,2,0,100,0,1
60043,-100,4,2,0,100,0,1
63286,-100,4,2,0,100,0,1
63935,-100,4,2,0,100,0,1
68718,-100,4,2,0,60,0,1
68881,-100,4,2,0,100,0,1
69367,-100,4,2,0,60,0,1
69529,-100,4,2,0,100,0,1
70016,-100,4,2,0,60,0,1
70178,-100,4,2,0,100,0,1
70664,-100,4,2,0,60,0,1
70827,-100,4,2,0,100,0,1
71232,-100,4,2,0,60,0,1
71394,-100,4,2,0,60,0,1
72854,-100,4,2,0,100,0,1
76908,-100,4,2,0,100,0,0

[HitObjects]
176,72,5555,1,0,0:0:0:0:
240,72,5880,1,0,0:0:0:0:
264,72,6042,2,0,L|264:216,1,140
264,152,6691,1,0,0:0:0:0:
336,152,7015,1,0,0:0:0:0:
192,152,7339,1,0,0:0:0:0:
96,288,7988,6,0,L|168:288,1,70
240,288,8474,1,0,0:0:0:0:
312,152,8636,2,0,L|312:296,1,140
312,40,9285,2,0,L|384:40,1,70
313,41,9610,2,0,L|313:113,1,70
309,44,9934,2,0,L|229:44,1,70
312,42,10258,1,0,0:0:0:0:
56,184,10745,6,0,P|136:184|184:144,1,140
248,144,11231,1,0,0:0:0:0:
248,208,11393,1,0,0:0:0:0:
312,208,11555,2,0,L|384:208,1,70
384,128,11880,1,0,0:0:0:0:
384,96,11961,1,0,0:0:0:0:
384,64,12042,1,0,0:0:0:0:
320,64,12204,1,0,0:0:0:0:
256,64,12366,1,0,0:0:0:0:
224,64,12447,1,0,0:0:0:0:
192,64,12528,1,0,0:0:0:0:
120,64,12853,5,0,0:0:0:0:
96,128,13177,1,0,0:0:0:0:
88,160,13258,1,0,0:0:0:0:
120,216,13501,1,0,0:0:0:0:
112,248,13583,1,0,0:0:0:0:
160,304,13826,1,0,0:0:0:0:
152,328,13907,1,0,0:0:0:0:
256,192,14150,1,0,0:0:0:0:
184,144,14474,1,0,0:0:0:0:
64,80,14799,6,0,L|136:64,1,70
184,88,15123,6,0,L|256:72,1,70
304,96,15447,6,0,L|376:80,1,70
432,104,15772,5,0,0:0:0:0:
256,192,16259,6,0,L|384:120,1,140
432,96,16746,1,0,0:0:0:0:
440,160,16908,1,0,0:0:0:0:
424,224,17070,1,0,0:0:0:0:
368,256,17232,2,0,P|296:288|280:296,1,70
240,312,17555,1,0,0:0:0:0:
176,320,17719,2,0,L|120:264,1,70
176,232,18042,2,0,P|120:176|48:216,1,140
64,120,18529,6,0,L|208:104,1,140
248,152,19016,1,0,0:0:0:0:
240,216,19178,1,0,0:0:0:0:
192,256,19340,2,0,P|128:264|88:192,1,140
88,136,19827,2,0,P|152:80|224:64,1,140
264,64,20313,1,0,0:0:0:0:
328,64,20475,1,0,0:0:0:0:
408,144,20800,5,0,0:0:0:0:
400,168,20881,1,0,0:0:0:0:
391,190,20962,1,0,0:0:0:0:
368,205,21043,1,0,0:0:0:0:
342,215,21124,2,0,P|262:183|206:231,1,140,0|8,0:0|0:0,0:0:0:0:
192,264,21611,5,0,0:0:0:0:
240,304,21773,2,0,P|257:327|368:287,1,140,0|8,0:0|0:0,0:0:0:0:
392,264,22258,1,0,0:0:0:0:
416,208,22421,2,0,P|376:128|304:96,1,140,0|8,0:0|0:0,0:0:0:0:
272,88,22907,1,0,0:0:0:0:
208,80,23069,2,0,P|120:88|80:128,1,140,0|8,0:0|0:0,0:0:0:0:
96,184,23556,1,0,0:0:0:0:
128,240,23718,1,0,0:0:0:0:
232,312,24043,5,0,0:0:0:0:
264,304,24124,1,0,0:0:0:0:
288,288,24205,1,0,0:0:0:0:
312,264,24286,1,0,0:0:0:0:
328,240,24367,1,0,0:0:0:0:
400,136,24692,1,0,0:0:0:0:
384,112,24773,1,0,0:0:0:0:
360,96,24854,1,0,0:0:0:0:
328,96,24935,1,0,0:0:0:0:
296,112,25016,6,0,P|239:134|215:166,1,70
184,176,25339,2,0,P|134:155|131:125,1,70
232,224,25664,2,0,P|238:227|286:201,1,70
192,288,25989,2,0,P|142:267|139:237,1,70
265,289,26313,1,4,0:0:0:0:
448,184,26637,6,0,P|448:136|376:88,1,140
312,88,27123,1,0,0:0:0:0:
248,104,27285,1,0,0:0:0:0:
216,48,27447,1,0,0:0:0:0:
248,104,27610,1,0,0:0:0:0:
184,112,27772,2,0,P|136:144|152:216,1,140
112,264,28258,1,0,0:0:0:0:
152,312,28421,2,0,P|208:272|288:256,1,140
328,296,28907,6,0,L|410:282,1,70
368,248,29232,1,0,0:0:0:0:
330,214,29394,2,0,L|408:198,1,70
360,160,29717,1,0,0:0:0:0:
377,47,30043,2,0,P|305:47|233:95,1,140
184,88,30529,1,0,0:0:0:0:
88,88,30691,1,0,0:0:0:0:
136,128,30854,1,0,0:0:0:0:
40,104,31178,5,0,0:0:0:0:
40,168,31340,1,0,0:0:0:0:
88,200,31502,2,0,L|160:200|240:200,1,140,0|8,0:0|0:0,0:0:0:0:
224,200,31989,1,0,0:0:0:0:
84,200,32151,2,0,P|148:240|228:296,1,140,0|8,0:0|0:0,0:0:0:0:
201,276,32638,1,0,0:0:0:0:
84,192,32800,2,0,P|124:256|156:320,1,140,0|8,0:0|0:0,0:0:0:0:
152,312,33285,1,0,0:0:0:0:
84,200,33447,2,0,L|84:280|84:344,1,140,0|8,0:0|0:0,0:0:0:0:
84,340,33935,2,0,L|-4:340,1,70,0|4,0:0|0:0,0:0:0:0:
256,192,34259,12,0,35070,0:0:0:0:
256,64,35232,5,0,0:0:0:0:
256,120,35394,2,0,L|328:112,1,70
344,168,35719,1,0,0:0:0:0:
304,208,35881,2,0,P|224:216|184:264,1,140
376,272,36692,5,0,0:0:0:0:
168,128,37015,1,0,0:0:0:0:
96,232,37339,2,0,P|155:215|227:239,1,140
240,296,37826,1,0,0:0:0:0:
296,312,37988,2,0,P|344:264|344:192,1,140
336,136,38475,2,0,P|280:80|216:96,1,140
336,240,39285,6,0,L|336:328,1,70
264,310,39610,2,0,L|264:240,1,70
184,288,39934,1,0,0:0:0:0:
128,232,40097,2,0,L|184:184,2,70
256,208,40583,1,0,0:0:0:0:
304,168,40744,1,0,0:0:0:0:
336,112,40908,1,0,0:0:0:0:
336,48,41070,1,0,0:0:0:0:
272,48,41232,2,0,L|176:48,2,70
192,312,41880,6,0,L|192:224,1,70
320,240,42205,2,0,L|320:320,1,70
256,312,42529,2,0,L|256:152,1,140
256,172,43016,1,0,0:0:0:0:
256,172,43178,2,0,P|328:136|400:152,1,140
384,144,43665,1,0,0:0:0:0:
256,172,43827,2,0,P|184:136|112:152,1,140
80,96,44313,1,0,0:0:0:0:
48,152,44474,1,0,0:0:0:0:
256,192,44637,12,4,45772,0:0:0:0:
312,88,46097,5,0,0:0:0:0:
368,120,46259,1,0,0:0:0:0:
408,168,46421,1,0,0:0:0:0:
408,232,46584,1,0,0:0:0:0:
368,280,46746,1,0,0:0:0:0:
312,304,46908,1,0,0:0:0:0:
256,320,47070,2,0,P|160:304|128:248,1,140
128,216,47556,1,0,0:0:0:0:
128,160,47718,2,0,P|184:120|272:144,1,140
251,128,48205,1,0,0:0:0:0:
336,160,48528,5,0,0:0:0:0:
440,112,48854,1,0,0:0:0:0:
400,240,49178,1,0,0:0:0:0:
472,176,49502,2,0,P|472:264|312:272,1,280
112,220,50637,1,0,0:0:0:0:
197,259,50799,2,0,P|40:248|40:160,2,280
144,296,52259,1,0,0:0:0:0:
80,288,52421,1,0,0:0:0:0:
104,232,52584,5,0,0:0:0:0:
168,232,52746,1,0,0:0:0:0:
256,80,52908,1,0,0:0:0:0:
168,232,53231,1,0,0:0:0:0:
256,80,53556,2,0,L|416:80,1,140,4|0,0:0|0:0,0:0:0:0:
396,80,54043,1,0,0:0:0:0:
396,80,54205,1,0,0:0:0:0:
464,80,54529,6,0,L|456:176,1,70
456,216,54853,1,0,0:0:0:0:
416,272,55016,1,0,0:0:0:0:
376,328,55178,1,0,0:0:0:0:
288,272,55501,5,0,0:0:0:0:
208,280,55664,1,0,0:0:0:0:
144,248,55826,2,0,P|96:192|96:168,1,70
88,136,56150,2,0,P|128:72|200:40,2,140,4|0|0,0:0|0:0|0:0,0:0:0:0:
164,140,56962,1,0,0:0:0:0:
224,96,57124,2,0,L|296:112,1,70
248,160,57447,5,0,0:0:0:0:
224,216,57610,1,0,0:0:0:0:
280,248,57772,1,0,0:0:0:0:
304,192,57934,1,0,0:0:0:0:
304,192,58015,1,0,0:0:0:0:
304,192,58096,2,0,L|376:136,1,70
416,120,58421,2,0,B|472:72|472:72|416:24,1,140
136,136,59070,2,0,B|80:88|80:88|130:44,1,140
120,256,59718,2,0,B|64:304|64:304|114:347,1,140
400,248,60367,2,0,B|456:296|456:296|400:344,1,140
256,136,61016,6,0,B|256:192|256:280|256:280,2,140
176,144,61826,1,0,0:0:0:0:
328,256,61988,1,0,0:0:0:0:
328,144,62151,1,0,0:0:0:0:
176,256,62313,1,0,0:0:0:0:
224,192,62475,2,0,L|304:192,1,70
256,256,62800,2,0,L|256:88,1,140
160,216,63448,5,0,0:0:0:0:
256,80,63610,1,0,0:0:0:0:
344,216,63772,1,0,0:0:0:0:
256,192,63934,6,0,P|320:152|384:136,1,140,0|4,0:0|0:0,0:0:0:0:
456,136,64421,1,0,0:0:0:0:
432,72,64583,1,0,0:0:0:0:
376,40,64746,1,0,0:0:0:0:
360,104,64908,2,0,L|288:56|288:56,2,70
312,216,65555,1,0,0:0:0:0:
360,336,65881,1,0,0:0:0:0:
88,296,66205,5,0,0:0:0:0:
120,240,66367,1,0,0:0:0:0:
160,288,66529,2,0,L|200:224,1,70
216,304,66854,2,0,L|296:296,1,70
328,336,67178,2,0,P|400:280|368:240,1,140
387,254,67664,2,0,P|360:184|424:144,1,140
400,145,68151,1,0,0:0:0:0:
216,80,68475,6,0,L|216:152|216:224,1,140,0|8,0:0|0:0,0:0:0:0:
152,224,68962,1,0,0:0:0:0:
88,224,69124,2,0,L|88:152|88:72,1,140,0|8,0:0|0:0,0:0:0:0:
152,88,69611,1,0,0:0:0:0:
216,224,69773,2,0,L|216:164|216:84,1,140,0|8,0:0|0:0,0:0:0:0:
152,88,70258,1,0,0:0:0:0:
88,88,70420,2,0,L|88:168|88:232,1,140,0|8,0:0|0:0,0:0:0:0:
152,232,70907,1,0,0:0:0:0:
216,224,71069,1,0,0:0:0:0:
280,232,71232,1,0,0:0:0:0:
232,272,71394,2,0,P|372:310|420:182,2,280,8|8|8,0:0|0:0|0:0,0:0:0:0:
336,224,73016,1,4,0:0:0:0:
352,96,73339,5,0,0:0:0:0:
320,40,73501,1,0,0:0:0:0:
264,80,73664,2,0,L|216:136,1,70
176,184,73988,2,0,L|128:240,1,70
112,304,74313,2,0,P|192:344|248:328,1,140
192,280,74800,1,0,0:0:0:0:
248,240,74962,6,0,P|328:272|384:248,1,140
472,192,75611,1,0,0:0:0:0:
336,80,75934,1,0,0:0:0:0:
152,80,76258,1,0,0:0:0:0:
40,192,76583,1,0,0:0:0:0:
256,192,76908,12,0,79178,0:0:0:0:
256,48,79501,5,0,0:0:0:0:
232,72,79583,1,0,0:0:0:0:
208,96,79664,1,0,0:0:0:0:
160,144,79826,1,0,0:0:0:0:
112,192,79988,1,0,0:0:0:0:
160,248,80150,1,0,0:0:0:0:
224,248,80313,1,0,0:0:0:0:
288,248,80475,1,0,0:0:0:0:
256,312,80637,1,0,0:0:0:0:
320,312,80800,6,0,P|408:280|408:224,1,140
288,232,81285,1,0,0:0:0:0:
288,232,81448,2,0,P|312:160|376:168,1,140
366,160,81934,1,0,0:0:0:0:
352,224,82096,2,0,P|424:208|424:128,1,140
436,150,82583,1,0,0:0:0:0:
288,72,83070,6,0,P|256:48|232:64,1,70
248,120,83394,2,0,P|216:136|200:88,1,70
136,128,83719,2,0,P|96:104|64:112,2,70
88,176,84204,2,0,P|72:216|104:232,1,70
128,280,84528,1,0,0:0:0:0:
192,288,84692,2,0,P|248:344|320:312,1,140
336,280,85177,1,0,0:0:0:0:
304,224,85339,2,0,P|360:168|312:120,1,140
272,152,85827,1,0,0:0:0:0:
256,88,85989,6,0,P|192:48|144:80,1,140
136,144,86474,1,0,0:0:0:0:
136,208,86638,2,0,P|136:272|216:312,1,140
232,264,87123,2,0,P|216:200|296:168,1,140
416,56,87772,2,0,P|389:131|428:150,1,140
80,328,88421,2,0,P|53:252|109:236,1,140
232,152,89070,2,0,L|296:152,6,35
168,152,89719,1,0,0:0:0:0:
256,192,89880,12,0,92474,0:0:0:0:
