osu file format v12

[General]
AudioFilename: Dog Days 2 closing.mp3
AudioLeadIn: 0
PreviewTime: 52903
Countdown: 0
SampleSet: Soft
StackLeniency: 0.7
Mode: 0
LetterboxInBreaks: 0

[Editor]
DistanceSpacing: 1
BeatDivisor: 4
GridSize: 8

[Metadata]
Title:Natsu no Yakusoku (TV Size)
TitleUnicode:夏の約束 (TV Size)
Artist:Horie Yui
ArtistUnicode:堀江 由衣
Creator:vo1t4ge
Version:Easy
Source:Dog Days'
Tags:anime ending _Erra_ judydanny
BeatmapID:261732
BeatmapSetID:95184

[Difficulty]
HPDrainRate:2
CircleSize:2
OverallDifficulty:2
ApproachRate:2
SliderMultiplier:0.700000005960464
SliderTickRate:1

[Events]
//Background and Video events
Video,0,"Dog Days 2 closing.avi"
0,0,"tumblr_m7jjhh9Mvh1rvm8k7o1_1280.jpg",0,0
//Break Periods
//Storyboard Layer 0 (Background)
//Storyboard Layer 1 (Fail)
//Storyboard Layer 2 (Pass)
//Storyboard Layer 3 (Foreground)
//Storyboard Sound Samples
//Background Colour Transformations
3,100,163,162,255

[TimingPoints]
5556,324.324324324324,4,2,0,100,1,0
15610,-100,4,2,0,100,0,0
15935,-100,4,2,0,100,0,0
16016,-100,4,2,0,100,0,0
21286,-100,4,2,0,60,0,0
21529,-100,4,2,0,100,0,0
21935,-100,4,2,0,60,0,0
22178,-100,4,2,0,100,0,0
22583,-100,4,2,0,60,0,0
22827,-100,4,2,0,100,0,0
23232,-100,4,2,0,60,0,0
23475,-100,4,2,0,100,0,0
31746,-100,4,2,0,50,0,0
31908,-100,4,2,0,100,0,0
32379,-100,4,2,0,60,0,0
32556,-100,4,2,0,100,0,0
33028,-100,4,2,0,60,0,0
33205,-100,4,2,0,100,0,0
33677,-100,4,2,0,60,0,0
33854,-100,4,2,0,100,0,0
50313,-100,4,2,0,100,0,0
52421,-100,4,2,0,100,0,0
53556,-100,4,2,0,100,0,1
59556,-100,4,2,0,100,0,1
60043,-100,4,2,0,100,0,1
63286,-100,4,2,0,100,0,1
63935,-100,4,2,0,100,0,1
68718,-100,4,2,0,60,0,1
68881,-100,4,2,0,100,0,1
69367,-100,4,2,0,60,0,1
69529,-100,4,2,0,100,0,1
70016,-100,4,2,0,60,0,1
70178,-100,4,2,0,100,0,1
70664,-100,4,2,0,60,0,1
70827,-100,4,2,0,100,0,1
71232,-100,4,2,0,60,0,1
71394,-100,4,2,0,60,0,1
72854,-100,4,2,0,100,0,0

[HitObjects]
40,192,5555,1,0,0:0:0:0:
128,192,6042,2,0,L|128:52,1,140
184,56,7015,2,0,L|264:56,1,70.0000005960464
368,56,7988,5,0,0:0:0:0:
480,56,8636,2,0,L|480:208,1,140.000001192093
424,200,9610,2,0,L|354:200,1,70.0000005960464
56,184,10745,6,0,L|120:184|200:184,1,140.000001192093
248,184,11718,2,0,L|328:184,1,70.0000005960464
320,128,12366,1,0,0:0:0:0:
320,72,12691,1,0,0:0:0:0:
416,72,13177,2,0,B|472:72|472:72|472:160,1,140.000001192093
456,296,14474,1,0,0:0:0:0:
384,296,14799,2,0,L|384:336,6,35.0000002980232
400,208,16258,6,0,P|432:272|400:328,1,140
320,328,17231,2,0,P|289:273|321:209,1,140
160,168,18528,2,0,P|189:112|253:72,2,140
352,88,20799,5,0,0:0:0:0:
352,160,21123,2,2,L|352:232|352:232,2,70
352,16,22420,2,2,L|280:16,2,70
352,160,23717,6,0,L|296:160|208:160,2,140,0|0|0,0:0|0:0|0:0,0:0:0:0:
352,304,25663,1,0,0:0:0:0:
280,304,25988,2,0,L|208:304,1,70,0|4,0:0|0:0,0:0:0:0:
208,232,26636,6,0,L|208:160|208:80,1,140.000001192093
136,88,27610,2,0,L|136:168|136:304,1,210
208,296,28907,2,0,L|288:296,3,70
352,296,30204,1,0,0:0:0:0:
312,88,31177,5,0,0:0:0:0:
376,88,31501,2,0,L|376:168,1,70,0|8,0:0|0:0,0:0:0:0:
376,224,32150,2,0,L|336:224|296:224,1,70,0|8,0:0|0:0,0:0:0:0:
240,224,32799,2,0,L|240:184|240:144,1,70,0|8,0:0|0:0,0:0:0:0:
240,88,33447,2,0,P|192:96|152:120,1,70,0|8,0:0|0:0,0:0:0:0:
256,192,34096,12,4,36366,0:0:0:0:
376,264,36690,6,0,L|376:192,1,70
376,128,37339,2,0,P|328:128|288:144,2,70
376,64,38312,2,0,L|456:72,2,70,0|0|4,0:0|0:0|0:0,0:0:0:0:
312,64,39285,6,0,L|232:88,1,70
184,104,39934,2,0,P|112:136|88:200,1,140
88,256,40907,2,0,P|120:320|184:328,1,140
248,328,41880,6,0,L|328:328,1,70
384,328,42528,2,0,P|424:320|480:176,1,210
408,184,43826,2,0,P|345:136|345:80,1,140
280,80,44799,2,0,L|168:104,2,105
352,72,46096,6,0,L|352:120|352:216,1,140
424,208,47069,2,0,P|392:264|296:280,1,140
256,288,48042,2,0,L|112:288,2,140
256,216,49663,2,0,L|400:216,1,140
408,144,50637,2,0,P|352:96|248:160,2,210
480,152,52907,6,0,L|480:72,1,70
416,80,53555,6,0,L|264:80,1,140,4|0,0:0|0:0,0:0:0:0:
280,144,54528,2,0,L|280:368,1,210
200,352,55826,1,0,0:0:0:0:
200,272,56150,6,0,P|104:272|64:112,1,280
128,104,57772,1,0,0:0:0:0:
200,104,58096,6,0,L|280:104,1,70
280,176,58745,2,0,P|312:224|432:176,1,210
431,94,60042,2,0,P|312:48|280:96,1,210
208,112,61339,5,0,0:0:0:0:
104,112,61826,2,2,L|56:112,4,35
104,40,62799,1,4,0:0:0:0:
296,32,63609,5,0,0:0:0:0:
296,104,63934,6,0,P|288:184|168:232,1,210.000001788139
112,256,65231,2,0,P|184:344|280:344,1,210.000001788139
272,280,66528,2,0,B|344:248|400:224|424:136,1,210.000001788139
416,72,67826,1,0,0:0:0:0:
280,72,68474,5,0,0:0:0:0:
208,72,68799,1,0,0:0:0:0:
144,72,69123,2,0,P|128:104|133:136,3,70,0|8|0|8,0:0|0:0|0:0|0:0,0:0:0:0:
160,200,70420,6,0,L|160:352,1,140,0|8,0:0|0:0,0:0:0:0:
232,336,71393,2,0,L|232:264|232:184,2,140,8|8|8,0:0|0:0|0:0,0:0:0:0:
144,336,73015,1,4,0:0:0:0:
144,200,73663,6,0,L|144:128,1,70
144,56,74312,2,0,L|200:56|288:56,1,140,0|8,0:0|0:0,0:0:0:0:
352,56,75285,1,0,0:0:0:0:
416,80,75610,2,0,L|416:160,3,70,0|8|0|8,0:0|0:0|0:0|0:0,0:0:0:0:
416,224,76907,6,0,L|416:272|416:368,3,140.000001192093,0|0|0|4,0:0|0:0|0:0|0:0,0:0:0:0:
256,192,79501,12,0,82096,0:0:0:0:
120,192,83069,6,0,B|200:104|288:288|384:192,1,280
256,192,84690,12,2,87123,0:0:0:0:
256,192,87772,5,2,0:0:0:0:
392,192,88420,1,2,0:0:0:0:
256,192,89069,1,2,0:0:0:0:
256,192,89717,12,4,92474,0:0:0:0:
