osu file format v13

[General]
AudioFilename: DOG DAYS' ED.mp3
AudioLeadIn: 0
PreviewTime: 52906
Countdown: 0
SampleSet: Normal
StackLeniency: 0.7
Mode: 1
LetterboxInBreaks: 0
WidescreenStoryboard: 0

[Editor]
DistanceSpacing: 0.8
BeatDivisor: 4
GridSize: 32
TimelineZoom: 1.6

[Metadata]
Title:Natsu no Yakusoku
TitleUnicode:夏の約束
Artist:Horie Yui
ArtistUnicode:堀江由衣
Creator:KDS
Version:Oni
Source:DOG DAYS'
Tags:ending Taiko
BeatmapID:553540
BeatmapSetID:59719

[Difficulty]
HPDrainRate:6
CircleSize:5
OverallDifficulty:6
ApproachRate:5
SliderMultiplier:1.4
SliderTickRate:1

[Events]
//Background and Video events
0,0,"588d630e.png",0,75
//Break Periods
//Storyboard Layer 0 (Background)
//Storyboard Layer 1 (Fail)
//Storyboard Layer 2 (Pass)
//Storyboard Layer 3 (Foreground)
//Storyboard Sound Samples
//Background Colour Transformations
3,100,163,162,255

[TimingPoints]
5555,324.324324324324,4,1,0,90,1,0
53554,-100,4,1,0,90,0,1
79500,-100,4,1,0,90,0,0

[Colours]
Combo1 : 0,128,255
Combo2 : 255,0,0

[HitObjects]
256,192,5554,5,4,0:0:0:0:
256,192,6041,1,4,0:0:0:0:
256,192,6365,1,0,0:0:0:0:
256,192,6527,5,8,0:0:0:0:
256,192,6690,5,4,0:0:0:0:
256,192,7014,1,4,0:0:0:0:
256,192,7338,1,4,0:0:0:0:
288,160,7987,1,4,0:0:0:0:
288,160,8636,1,4,0:0:0:0:
256,192,8960,5,8,0:0:0:0:
256,192,9122,1,8,0:0:0:0:
256,192,9284,5,4,0:0:0:0:
256,192,9609,1,4,0:0:0:0:
256,192,9933,1,4,0:0:0:0:
256,192,10257,1,4,0:0:0:0:
256,192,10744,1,0,0:0:0:0:
288,160,10906,5,8,0:0:0:0:
256,192,11068,5,0,0:0:0:0:
256,192,11230,5,8,0:0:0:0:
256,192,11392,5,0,0:0:0:0:
288,160,11554,5,8,0:0:0:0:
256,192,11636,1,8,0:0:0:0:
256,192,11717,5,0,0:0:0:0:
256,192,11879,5,8,0:0:0:0:
256,192,12041,5,0,0:0:0:0:
288,160,12203,5,8,0:0:0:0:
256,192,12365,5,0,0:0:0:0:
256,192,12527,5,8,0:0:0:0:
256,192,12690,5,0,0:0:0:0:
288,160,12852,5,8,0:0:0:0:
256,192,12933,1,8,0:0:0:0:
256,192,13014,5,0,0:0:0:0:
256,192,13176,5,8,0:0:0:0:
256,192,13338,5,0,0:0:0:0:
288,160,13500,5,8,0:0:0:0:
256,192,13582,1,8,0:0:0:0:
256,192,13663,5,0,0:0:0:0:
256,192,13825,5,8,0:0:0:0:
288,160,13987,5,0,0:0:0:0:
288,160,14149,1,0,0:0:0:0:
256,160,14230,1,0,0:0:0:0:
288,160,14311,5,8,0:0:0:0:
288,160,14473,5,4,0:0:0:0:
256,160,14798,5,8,0:0:0:0:
256,160,14960,5,0,0:0:0:0:
256,160,15122,5,8,0:0:0:0:
256,160,15284,5,0,0:0:0:0:
256,160,15365,1,0,0:0:0:0:
256,160,15446,1,0,0:0:0:0:
256,160,15527,1,0,0:0:0:0:
256,160,15609,5,8,0:0:0:0:
256,160,15690,1,8,0:0:0:0:
256,160,15771,1,8,0:0:0:0:
256,160,15852,1,8,0:0:0:0:
256,160,16582,1,8,0:0:0:0:
256,160,17068,1,0,0:0:0:0:
256,160,17230,1,0,0:0:0:0:
256,128,17879,1,8,0:0:0:0:
256,160,18203,1,0,0:0:0:0:
256,160,18527,1,0,0:0:0:0:
288,128,19176,1,8,0:0:0:0:
224,192,19500,1,0,0:0:0:0:
224,192,19663,1,0,0:0:0:0:
224,192,19825,1,0,0:0:0:0:
288,128,20473,1,8,0:0:0:0:
256,192,20798,1,0,0:0:0:0:
288,128,21122,5,0,0:0:0:0:
288,128,21771,5,8,0:0:0:0:
256,192,22419,1,0,0:0:0:0:
288,128,23068,1,8,0:0:0:0:
288,160,23554,1,0,0:0:0:0:
288,160,23717,5,0,0:0:0:0:
288,128,24365,5,8,0:0:0:0:
256,192,25014,1,8,0:0:0:0:
256,192,25176,1,8,0:0:0:0:
256,192,25338,1,8,0:0:0:0:
224,192,25500,1,8,0:0:0:0:
256,192,25663,5,0,0:0:0:0:
256,192,25825,1,0,0:0:0:0:
256,192,25987,1,0,0:0:0:0:
256,192,26149,1,0,0:0:0:0:
256,192,26311,1,0,0:0:0:0:
288,192,26960,5,8,0:0:0:0:
256,192,27284,5,0,0:0:0:0:
288,192,27446,1,0,0:0:0:0:
288,192,27609,1,0,0:0:0:0:
256,192,27771,1,0,0:0:0:0:
288,192,27933,1,0,0:0:0:0:
288,192,28257,5,8,0:0:0:0:
288,192,28582,5,0,0:0:0:0:
288,192,28744,1,0,0:0:0:0:
288,192,28906,1,0,0:0:0:0:
288,192,29554,5,8,0:0:0:0:
320,192,29879,5,0,0:0:0:0:
288,192,30041,1,0,0:0:0:0:
288,192,30203,1,0,0:0:0:0:
288,192,30365,5,8,0:0:0:0:
288,192,30527,5,0,0:0:0:0:
288,192,30852,5,8,0:0:0:0:
288,192,31176,5,0,0:0:0:0:
320,192,31338,5,8,0:0:0:0:
288,192,31500,5,0,0:0:0:0:
288,192,32149,5,8,0:0:0:0:
320,192,32473,5,0,0:0:0:0:
288,192,32636,5,8,0:0:0:0:
288,192,32798,5,0,0:0:0:0:
320,192,32960,5,8,0:0:0:0:
288,192,33122,5,0,0:0:0:0:
288,192,33446,5,8,0:0:0:0:
320,192,33771,1,8,0:0:0:0:
320,192,33933,1,8,0:0:0:0:
288,192,34095,5,0,0:0:0:0:
320,192,34419,1,0,0:0:0:0:
320,192,34582,1,0,0:0:0:0:
320,192,34744,5,8,0:0:0:0:
320,192,35068,5,0,0:0:0:0:
288,192,35230,5,8,0:0:0:0:
288,192,35392,5,0,0:0:0:0:
288,192,35554,1,0,0:0:0:0:
288,192,35717,5,8,0:0:0:0:
288,192,35879,5,0,0:0:0:0:
320,192,35960,1,0,0:0:0:0:
288,192,36041,1,0,0:0:0:0:
288,192,36203,5,8,0:0:0:0:
256,192,36690,5,4,0:0:0:0:
256,192,37014,5,12,0:0:0:0:
288,192,37338,1,12,0:0:0:0:
288,192,37663,1,8,0:0:0:0:
288,192,37825,1,8,0:0:0:0:
288,192,37987,5,0,0:0:0:0:
288,192,38149,1,0,0:0:0:0:
256,192,38230,1,0,0:0:0:0:
288,192,38311,1,0,0:0:0:0:
256,192,38473,5,8,0:0:0:0:
256,160,38636,5,0,0:0:0:0:
256,192,38798,5,8,0:0:0:0:
256,192,39284,5,4,0:0:0:0:
256,192,39609,5,12,0:0:0:0:
288,192,39933,1,12,0:0:0:0:
256,192,40095,1,8,0:0:0:0:
256,192,40257,5,0,0:0:0:0:
256,192,40419,5,8,0:0:0:0:
256,192,40582,5,0,0:0:0:0:
256,192,40663,1,0,0:0:0:0:
256,192,40744,1,0,0:0:0:0:
256,192,40906,1,0,0:0:0:0:
256,192,41068,5,8,0:0:0:0:
224,160,41879,1,4,0:0:0:0:
256,160,42203,5,12,0:0:0:0:
256,160,42527,1,12,0:0:0:0:
256,192,42852,1,8,0:0:0:0:
256,192,43176,5,0,0:0:0:0:
256,192,43338,1,0,0:0:0:0:
256,192,43500,5,8,0:0:0:0:
288,160,43663,1,8,0:0:0:0:
256,160,43825,5,0,0:0:0:0:
256,160,43906,1,0,0:0:0:0:
256,160,43987,1,0,0:0:0:0:
256,160,44068,1,0,0:0:0:0:
256,160,44149,5,8,0:0:0:0:
256,160,44230,1,8,0:0:0:0:
256,160,44311,1,8,0:0:0:0:
256,160,44392,1,8,0:0:0:0:
256,192,44473,5,0,0:0:0:0:
288,192,44636,1,0,0:0:0:0:
256,192,44798,5,8,0:0:0:0:
256,192,44960,5,0,0:0:0:0:
256,192,45041,1,0,0:0:0:0:
256,192,45122,1,0,0:0:0:0:
256,192,45284,1,0,0:0:0:0:
256,192,45446,5,8,0:0:0:0:
256,192,45609,5,0,0:0:0:0:
256,192,45771,1,0,0:0:0:0:
288,192,45933,1,0,0:0:0:0:
256,192,46095,5,8,0:0:0:0:
256,192,46257,5,0,0:0:0:0:
256,192,46338,1,0,0:0:0:0:
256,192,46419,1,0,0:0:0:0:
256,192,46582,1,0,0:0:0:0:
256,192,46744,5,8,0:0:0:0:
256,192,46906,5,0,0:0:0:0:
256,192,47068,1,4,0:0:0:0:
256,192,47230,5,8,0:0:0:0:
256,192,47392,5,0,0:0:0:0:
256,192,47554,5,8,0:0:0:0:
256,192,47636,1,8,0:0:0:0:
256,192,47717,5,0,0:0:0:0:
256,192,47879,5,8,0:0:0:0:
256,192,48041,1,8,0:0:0:0:
256,192,48203,5,4,0:0:0:0:
256,192,48527,1,0,0:0:0:0:
256,192,48690,5,8,0:0:0:0:
256,192,48852,1,8,0:0:0:0:
256,192,49014,5,0,0:0:0:0:
256,192,49095,1,0,0:0:0:0:
256,192,49176,5,8,0:0:0:0:
256,192,49338,1,8,0:0:0:0:
256,192,49500,5,4,0:0:0:0:
256,192,49825,5,8,0:0:0:0:
256,192,49987,5,0,0:0:0:0:
256,192,50149,5,8,0:0:0:0:
256,192,50230,1,8,0:0:0:0:
256,192,50311,5,0,0:0:0:0:
256,192,50473,5,8,0:0:0:0:
256,192,50636,1,8,0:0:0:0:
256,192,50798,5,4,0:0:0:0:
224,192,51122,5,8,0:0:0:0:
256,192,51203,1,8,0:0:0:0:
224,192,51284,1,8,0:0:0:0:
224,192,51446,1,8,0:0:0:0:
224,192,51609,5,0,0:0:0:0:
256,192,51690,5,8,0:0:0:0:
224,192,51771,5,0,0:0:0:0:
224,192,51933,5,8,0:0:0:0:
224,192,52095,1,12,0:0:0:0:
224,192,52419,1,12,0:0:0:0:
224,192,52582,1,12,0:0:0:0:
224,192,52744,5,4,0:0:0:0:
256,192,53554,1,0,0:0:0:0:
288,192,53636,1,0,0:0:0:0:
256,192,53717,1,0,0:0:0:0:
256,192,53798,1,0,0:0:0:0:
256,192,53879,5,8,0:0:0:0:
256,192,54041,5,0,0:0:0:0:
256,192,54122,1,0,0:0:0:0:
256,192,54203,1,0,0:0:0:0:
256,192,54365,1,0,0:0:0:0:
256,192,54446,1,0,0:0:0:0:
256,192,54527,5,8,0:0:0:0:
256,192,54690,5,0,0:0:0:0:
256,192,54852,1,0,0:0:0:0:
288,192,54933,1,0,0:0:0:0:
256,192,55014,1,0,0:0:0:0:
256,192,55095,1,0,0:0:0:0:
256,192,55176,5,8,0:0:0:0:
256,192,55338,5,0,0:0:0:0:
256,192,55419,5,8,0:0:0:0:
256,192,55500,5,0,0:0:0:0:
256,224,55582,1,0,0:0:0:0:
256,192,55663,1,0,0:0:0:0:
256,192,55825,5,8,0:0:0:0:
256,192,56149,5,0,0:0:0:0:
256,192,56230,1,0,0:0:0:0:
256,192,56311,1,0,0:0:0:0:
256,192,56392,1,0,0:0:0:0:
256,192,56473,5,8,0:0:0:0:
256,192,56636,5,0,0:0:0:0:
256,192,56717,1,0,0:0:0:0:
256,192,56798,1,0,0:0:0:0:
256,192,56960,5,8,0:0:0:0:
256,192,57041,5,0,0:0:0:0:
256,192,57122,5,8,0:0:0:0:
256,192,57284,5,0,0:0:0:0:
256,192,57446,1,0,0:0:0:0:
224,192,57527,1,0,0:0:0:0:
256,192,57609,1,0,0:0:0:0:
256,192,57690,1,0,0:0:0:0:
256,192,57771,5,8,0:0:0:0:
256,192,57933,5,0,0:0:0:0:
256,192,58014,1,0,0:0:0:0:
256,192,58095,5,8,0:0:0:0:
288,192,58176,1,8,0:0:0:0:
256,160,58257,5,0,0:0:0:0:
256,160,58419,5,8,0:0:0:0:
256,160,58744,5,0,0:0:0:0:
256,160,58825,1,0,0:0:0:0:
256,160,58906,1,0,0:0:0:0:
256,160,59068,5,8,0:0:0:0:
256,160,59230,5,0,0:0:0:0:
256,160,59392,1,0,0:0:0:0:
256,160,59473,1,0,0:0:0:0:
256,160,59554,5,8,0:0:0:0:
256,160,59717,5,0,0:0:0:0:
256,192,59879,5,8,0:0:0:0:
256,192,60041,5,0,0:0:0:0:
256,192,60122,1,0,0:0:0:0:
256,192,60203,1,0,0:0:0:0:
256,192,60365,5,8,0:0:0:0:
288,192,60527,5,0,0:0:0:0:
256,192,60690,1,0,0:0:0:0:
256,192,60771,1,0,0:0:0:0:
256,192,60852,5,8,0:0:0:0:
256,192,61014,5,0,0:0:0:0:
288,160,61176,5,8,0:0:0:0:
288,192,61257,1,8,0:0:0:0:
288,192,61338,5,0,0:0:0:0:
288,160,61500,5,8,0:0:0:0:
288,160,61663,5,0,0:0:0:0:
288,160,61825,5,8,0:0:0:0:
288,160,61906,1,8,0:0:0:0:
288,160,61987,5,0,0:0:0:0:
288,160,62068,1,0,0:0:0:0:
288,160,62149,5,8,0:0:0:0:
288,160,62230,1,8,0:0:0:0:
288,160,62311,5,0,0:0:0:0:
256,192,62473,5,12,0:0:0:0:
256,192,62798,1,12,0:0:0:0:
256,192,63122,5,4,0:0:0:0:
256,192,63446,1,4,0:0:0:0:
64,192,63609,1,8,0:0:0:0:
64,192,63771,1,8,0:0:0:0:
64,192,63852,1,8,0:0:0:0:
256,192,63933,1,0,0:0:0:0:
288,192,64014,1,0,0:0:0:0:
256,192,64095,1,0,0:0:0:0:
256,192,64176,1,0,0:0:0:0:
256,192,64257,5,8,0:0:0:0:
256,192,64419,5,0,0:0:0:0:
256,192,64500,1,0,0:0:0:0:
256,192,64582,1,0,0:0:0:0:
256,192,64744,1,0,0:0:0:0:
256,192,64825,1,0,0:0:0:0:
256,192,64906,5,8,0:0:0:0:
256,192,65068,5,0,0:0:0:0:
256,192,65230,1,0,0:0:0:0:
288,192,65311,1,0,0:0:0:0:
256,192,65392,1,0,0:0:0:0:
256,192,65473,1,0,0:0:0:0:
256,192,65554,5,8,0:0:0:0:
256,192,65717,5,0,0:0:0:0:
256,192,65798,5,8,0:0:0:0:
256,192,65879,5,0,0:0:0:0:
288,192,65960,1,0,0:0:0:0:
256,192,66041,1,0,0:0:0:0:
256,192,66122,1,0,0:0:0:0:
256,192,66203,5,8,0:0:0:0:
256,192,66527,5,0,0:0:0:0:
256,192,66609,1,0,0:0:0:0:
256,192,66690,1,0,0:0:0:0:
256,192,66771,1,0,0:0:0:0:
256,192,66852,5,8,0:0:0:0:
256,192,67014,5,0,0:0:0:0:
256,192,67095,1,0,0:0:0:0:
256,192,67176,1,0,0:0:0:0:
256,192,67338,5,8,0:0:0:0:
256,192,67419,5,0,0:0:0:0:
256,192,67500,5,8,0:0:0:0:
256,192,67663,5,0,0:0:0:0:
256,192,67825,1,0,0:0:0:0:
224,192,67906,1,0,0:0:0:0:
256,192,67987,1,0,0:0:0:0:
256,192,68068,1,0,0:0:0:0:
256,192,68149,5,8,0:0:0:0:
256,192,68311,5,0,0:0:0:0:
256,192,68392,1,0,0:0:0:0:
256,192,68473,5,8,0:0:0:0:
288,192,68554,1,8,0:0:0:0:
256,160,68636,5,0,0:0:0:0:
224,192,68717,1,0,0:0:0:0:
256,160,68798,5,8,0:0:0:0:
320,192,69122,5,0,0:0:0:0:
320,192,69203,1,0,0:0:0:0:
320,192,69284,1,0,0:0:0:0:
320,192,69446,1,0,0:0:0:0:
320,192,69609,1,0,0:0:0:0:
320,192,69771,5,8,0:0:0:0:
320,192,69852,1,8,0:0:0:0:
320,192,69933,1,8,0:0:0:0:
320,192,70095,1,8,0:0:0:0:
320,192,70257,1,8,0:0:0:0:
288,256,70419,5,0,0:0:0:0:
288,256,70500,1,0,0:0:0:0:
288,256,70582,1,0,0:0:0:0:
288,256,70744,5,8,0:0:0:0:
288,256,70825,1,8,0:0:0:0:
288,256,70906,1,8,0:0:0:0:
288,256,71068,5,0,0:0:0:0:
288,256,71149,1,0,0:0:0:0:
288,256,71230,1,0,0:0:0:0:
288,256,71392,5,8,0:0:0:0:
320,288,71473,1,8,0:0:0:0:
288,256,71554,1,8,0:0:0:0:
64,32,71717,6,0,B|448:32|448:32|448:224|448:224,1,560
192,160,73663,1,0,0:0:0:0:
192,160,73987,5,8,0:0:0:0:
256,160,74311,5,0,0:0:0:0:
256,160,74392,1,0,0:0:0:0:
256,160,74473,1,0,0:0:0:0:
256,160,74636,5,8,0:0:0:0:
256,160,74798,5,0,0:0:0:0:
256,160,74960,1,0,0:0:0:0:
256,160,75041,1,0,0:0:0:0:
256,160,75122,1,0,0:0:0:0:
256,160,75284,5,8,0:0:0:0:
256,160,75446,5,0,0:0:0:0:
256,192,75609,1,4,0:0:0:0:
256,192,75933,5,8,0:0:0:0:
256,192,76257,5,0,0:0:0:0:
256,192,76582,1,0,0:0:0:0:
256,192,76906,12,0,78852,0:0:0:0:
256,192,79500,21,0,0:0:0:0:
256,192,79663,1,0,0:0:0:0:
256,192,79825,5,8,0:0:0:0:
256,192,79987,5,0,0:0:0:0:
288,192,80149,1,0,0:0:0:0:
288,192,80311,1,0,0:0:0:0:
256,192,80392,1,0,0:0:0:0:
256,192,80473,5,8,0:0:0:0:
256,192,80636,5,0,0:0:0:0:
256,192,80798,1,0,0:0:0:0:
256,192,80960,1,0,0:0:0:0:
256,192,81122,5,8,0:0:0:0:
256,192,81284,5,0,0:0:0:0:
288,192,81446,5,8,0:0:0:0:
288,192,81609,5,0,0:0:0:0:
256,192,81690,1,0,0:0:0:0:
256,192,81771,5,8,0:0:0:0:
256,192,81933,5,0,0:0:0:0:
256,192,82095,1,0,0:0:0:0:
256,192,82257,1,0,0:0:0:0:
256,192,82419,5,8,0:0:0:0:
256,192,82582,5,0,0:0:0:0:
288,192,82744,1,0,0:0:0:0:
288,192,82906,1,0,0:0:0:0:
256,192,82987,1,0,0:0:0:0:
256,192,83068,5,8,0:0:0:0:
256,192,83230,5,0,0:0:0:0:
256,192,83392,1,0,0:0:0:0:
256,192,83473,1,0,0:0:0:0:
256,192,83554,1,0,0:0:0:0:
256,192,83717,1,0,0:0:0:0:
256,192,83798,1,0,0:0:0:0:
256,192,83879,1,0,0:0:0:0:
256,192,84041,5,8,0:0:0:0:
256,192,84203,1,0,0:0:0:0:
256,192,84365,1,0,0:0:0:0:
256,192,84446,1,0,0:0:0:0:
256,192,84527,1,0,0:0:0:0:
256,192,84609,1,0,0:0:0:0:
256,192,84690,1,0,0:0:0:0:
256,192,84852,1,0,0:0:0:0:
256,192,85014,5,8,0:0:0:0:
256,192,85176,5,0,0:0:0:0:
288,192,85338,1,0,0:0:0:0:
288,192,85500,1,0,0:0:0:0:
256,192,85582,1,0,0:0:0:0:
256,192,85663,5,8,0:0:0:0:
256,192,85825,5,0,0:0:0:0:
256,192,85987,1,0,0:0:0:0:
256,192,86149,1,0,0:0:0:0:
256,192,86311,5,8,0:0:0:0:
256,192,86473,5,0,0:0:0:0:
288,192,86636,5,8,0:0:0:0:
288,192,86798,5,0,0:0:0:0:
256,192,86879,1,0,0:0:0:0:
256,192,86960,5,8,0:0:0:0:
256,192,87122,5,4,0:0:0:0:
256,192,87446,5,8,0:0:0:0:
256,192,87527,1,8,0:0:0:0:
256,192,87609,5,0,0:0:0:0:
256,192,87771,1,4,0:0:0:0:
288,192,88095,5,8,0:0:0:0:
256,192,88176,1,8,0:0:0:0:
256,192,88257,5,0,0:0:0:0:
256,192,88419,1,4,0:0:0:0:
288,192,88744,5,8,0:0:0:0:
256,192,88825,1,8,0:0:0:0:
256,192,88906,5,0,0:0:0:0:
256,192,89068,1,4,0:0:0:0:
256,192,89230,1,0,0:0:0:0:
256,192,89311,1,0,0:0:0:0:
256,192,89392,1,0,0:0:0:0:
256,192,89473,1,0,0:0:0:0:
256,192,89554,5,8,0:0:0:0:
256,192,89717,5,4,0:0:0:0:
