osu file format v13

[General]
AudioFilename: DOG DAYS' ED.mp3
AudioLeadIn: 0
PreviewTime: 52906
Countdown: 0
SampleSet: Normal
StackLeniency: 0.7
Mode: 1
LetterboxInBreaks: 0
WidescreenStoryboard: 0

[Editor]
DistanceSpacing: 0.8
BeatDivisor: 2
GridSize: 32
TimelineZoom: 1

[Metadata]
Title:Natsu no Yakusoku
TitleUnicode:夏の約束
Artist:Horie Yui
ArtistUnicode:堀江由衣
Creator:KDS
Version:Futsuu
Source:DOG DAYS'
Tags:ending Taiko
BeatmapID:553539
BeatmapSetID:59719

[Difficulty]
HPDrainRate:4
CircleSize:5
OverallDifficulty:4
ApproachRate:5
SliderMultiplier:1.4
SliderTickRate:1

[Events]
//Background and Video events
0,0,"588d630e.png",0,75
//Break Periods
//Storyboard Layer 0 (Background)
//Storyboard Layer 1 (Fail)
//Storyboard Layer 2 (Pass)
//Storyboard Layer 3 (Foreground)
//Storyboard Sound Samples
//Background Colour Transformations
3,100,163,162,255

[TimingPoints]
5555,324.324324324324,4,1,0,90,1,0
53554,-100,4,1,0,90,0,1
79500,-100,4,1,0,90,0,0

[Colours]
Combo1 : 0,128,255
Combo2 : 255,0,0

[HitObjects]
256,192,5554,5,4,0:0:0:0:
256,192,6041,1,4,0:0:0:0:
256,192,6690,1,4,0:0:0:0:
288,160,7987,1,4,0:0:0:0:
256,192,8636,1,4,0:0:0:0:
256,192,9284,1,4,0:0:0:0:
256,192,10744,1,0,0:0:0:0:
256,192,11068,1,0,0:0:0:0:
256,192,11392,5,8,0:0:0:0:
288,160,11554,1,8,0:0:0:0:
256,192,11717,1,8,0:0:0:0:
256,192,12041,5,0,0:0:0:0:
256,192,12365,1,0,0:0:0:0:
256,192,12690,5,8,0:0:0:0:
288,160,12852,1,8,0:0:0:0:
256,192,13014,1,8,0:0:0:0:
256,192,13338,5,0,0:0:0:0:
256,192,13663,1,0,0:0:0:0:
288,160,13987,5,8,0:0:0:0:
288,160,14473,5,4,0:0:0:0:
256,160,14960,5,8,0:0:0:0:
96,192,15284,6,0,B|320:192,1,210
256,160,16582,5,8,0:0:0:0:
288,128,17879,1,8,0:0:0:0:
288,128,19176,1,8,0:0:0:0:
288,128,20473,1,8,0:0:0:0:
288,128,21122,5,0,0:0:0:0:
288,128,21771,5,8,0:0:0:0:
288,128,22419,5,0,0:0:0:0:
288,128,23068,1,8,0:0:0:0:
288,160,23717,5,0,0:0:0:0:
288,160,25014,1,8,0:0:0:0:
320,160,25338,1,8,0:0:0:0:
288,128,25663,1,8,0:0:0:0:
256,192,26311,5,0,0:0:0:0:
288,192,26960,5,8,0:0:0:0:
288,192,27609,5,0,0:0:0:0:
288,192,27933,1,0,0:0:0:0:
288,192,28257,5,8,0:0:0:0:
288,192,28906,5,0,0:0:0:0:
288,192,29554,5,8,0:0:0:0:
288,192,30203,5,0,0:0:0:0:
288,192,30527,1,0,0:0:0:0:
288,192,30852,5,8,0:0:0:0:
288,192,31176,1,8,0:0:0:0:
288,192,31500,5,0,0:0:0:0:
288,192,32149,5,8,0:0:0:0:
288,192,32798,5,0,0:0:0:0:
288,192,33122,5,0,0:0:0:0:
288,192,33446,1,8,0:0:0:0:
288,192,34095,5,0,0:0:0:0:
320,192,34419,1,0,0:0:0:0:
320,192,34744,5,8,0:0:0:0:
288,192,35392,5,0,0:0:0:0:
288,192,35554,1,0,0:0:0:0:
288,192,35717,1,0,0:0:0:0:
288,192,36041,5,8,0:0:0:0:
256,192,36690,5,4,0:0:0:0:
256,192,37014,5,12,0:0:0:0:
288,192,37338,1,12,0:0:0:0:
288,192,37987,5,0,0:0:0:0:
288,192,38311,1,0,0:0:0:0:
256,192,38473,1,0,0:0:0:0:
256,160,38798,5,8,0:0:0:0:
256,192,39284,5,4,0:0:0:0:
256,192,39609,5,12,0:0:0:0:
288,192,39933,1,12,0:0:0:0:
256,192,40582,5,0,0:0:0:0:
256,192,40744,1,0,0:0:0:0:
256,192,41068,5,8,0:0:0:0:
224,160,41879,5,4,0:0:0:0:
256,160,42203,5,12,0:0:0:0:
256,160,42527,1,12,0:0:0:0:
256,192,43176,5,0,0:0:0:0:
256,192,43500,1,0,0:0:0:0:
288,160,43663,1,0,0:0:0:0:
256,160,43987,5,8,0:0:0:0:
256,192,44473,5,0,0:0:0:0:
256,192,44798,5,8,0:0:0:0:
256,192,45122,5,0,0:0:0:0:
256,192,45284,1,0,0:0:0:0:
256,192,45446,5,8,0:0:0:0:
256,192,45771,5,0,0:0:0:0:
256,192,46095,5,8,0:0:0:0:
256,192,46419,5,0,0:0:0:0:
256,192,46582,1,0,0:0:0:0:
256,192,46744,5,8,0:0:0:0:
256,192,47068,5,4,0:0:0:0:
256,192,47392,5,8,0:0:0:0:
256,192,47717,5,0,0:0:0:0:
256,192,48203,1,4,0:0:0:0:
224,192,48690,5,8,0:0:0:0:
256,192,49014,5,0,0:0:0:0:
256,192,49500,1,4,0:0:0:0:
256,192,49987,1,8,0:0:0:0:
256,192,50311,5,0,0:0:0:0:
256,192,50798,1,4,0:0:0:0:
224,192,51284,1,8,0:0:0:0:
256,192,51609,1,8,0:0:0:0:
224,192,52095,5,4,0:0:0:0:
224,192,52419,1,4,0:0:0:0:
224,192,52744,1,4,0:0:0:0:
256,192,53554,1,0,0:0:0:0:
288,224,53717,1,0,0:0:0:0:
256,192,53879,5,8,0:0:0:0:
256,192,54203,5,0,0:0:0:0:
256,192,54365,1,0,0:0:0:0:
256,192,54527,5,8,0:0:0:0:
256,192,54852,5,0,0:0:0:0:
288,224,55014,1,0,0:0:0:0:
256,192,55176,5,8,0:0:0:0:
256,192,55500,1,8,0:0:0:0:
256,192,56149,5,0,0:0:0:0:
256,192,56311,1,0,0:0:0:0:
256,192,56473,5,8,0:0:0:0:
256,192,56798,5,0,0:0:0:0:
256,192,56960,1,0,0:0:0:0:
256,192,57122,5,8,0:0:0:0:
256,192,57446,5,0,0:0:0:0:
256,192,57609,1,0,0:0:0:0:
256,192,57771,1,0,0:0:0:0:
256,192,58095,5,8,0:0:0:0:
256,160,58744,5,0,0:0:0:0:
256,160,58906,1,0,0:0:0:0:
256,160,59068,1,0,0:0:0:0:
256,160,59392,5,8,0:0:0:0:
256,192,60041,5,0,0:0:0:0:
256,192,60203,1,0,0:0:0:0:
256,192,60365,1,0,0:0:0:0:
256,192,60690,5,8,0:0:0:0:
288,192,61338,5,0,0:0:0:0:
288,160,61500,5,8,0:0:0:0:
288,160,61663,5,0,0:0:0:0:
288,192,61987,5,8,0:0:0:0:
288,160,62473,1,12,0:0:0:0:
288,192,62798,1,12,0:0:0:0:
288,192,63122,1,12,0:0:0:0:
288,192,63446,1,12,0:0:0:0:
256,192,63933,5,0,0:0:0:0:
288,224,64095,1,0,0:0:0:0:
256,192,64257,5,8,0:0:0:0:
256,192,64582,5,0,0:0:0:0:
256,192,64744,1,0,0:0:0:0:
256,192,64906,5,8,0:0:0:0:
256,192,65230,5,0,0:0:0:0:
256,192,65392,1,0,0:0:0:0:
256,192,65554,5,8,0:0:0:0:
256,192,65879,1,8,0:0:0:0:
256,192,66527,5,0,0:0:0:0:
256,192,66690,1,0,0:0:0:0:
256,192,66852,5,8,0:0:0:0:
256,192,67176,5,0,0:0:0:0:
256,192,67338,1,0,0:0:0:0:
256,192,67500,5,8,0:0:0:0:
256,192,67825,5,0,0:0:0:0:
256,192,67987,1,0,0:0:0:0:
256,192,68149,1,0,0:0:0:0:
256,192,68473,5,8,0:0:0:0:
320,192,69122,5,0,0:0:0:0:
320,192,69284,1,0,0:0:0:0:
320,192,69446,1,0,0:0:0:0:
320,192,69771,5,8,0:0:0:0:
288,256,70095,1,8,0:0:0:0:
288,256,70419,5,0,0:0:0:0:
288,256,70582,1,0,0:0:0:0:
288,256,70744,1,0,0:0:0:0:
288,256,71068,1,0,0:0:0:0:
288,256,71392,1,0,0:0:0:0:
64,32,71717,2,0,B|448:32|448:32|448:256|448:256,1,560
192,160,73663,1,0,0:0:0:0:
192,160,73987,5,8,0:0:0:0:
256,160,74311,5,0,0:0:0:0:
256,160,74473,1,0,0:0:0:0:
256,160,74636,5,8,0:0:0:0:
256,160,74960,5,0,0:0:0:0:
256,160,75284,5,8,0:0:0:0:
256,192,75609,5,4,0:0:0:0:
256,192,76257,5,0,0:0:0:0:
256,192,76582,1,0,0:0:0:0:
256,192,76906,12,0,78852,0:0:0:0:
256,192,79500,21,0,0:0:0:0:
256,192,79825,1,0,0:0:0:0:
288,192,80149,5,8,0:0:0:0:
288,192,80311,1,8,0:0:0:0:
256,192,80473,1,8,0:0:0:0:
256,192,80798,5,0,0:0:0:0:
256,192,81122,1,0,0:0:0:0:
288,192,81446,5,8,0:0:0:0:
288,192,81609,1,8,0:0:0:0:
256,192,81771,1,8,0:0:0:0:
256,192,82095,5,0,0:0:0:0:
256,192,82419,1,0,0:0:0:0:
288,192,82744,5,8,0:0:0:0:
256,192,83068,1,8,0:0:0:0:
256,192,83392,5,0,0:0:0:0:
256,192,83717,1,0,0:0:0:0:
256,192,84041,5,8,0:0:0:0:
256,192,84690,5,0,0:0:0:0:
256,192,85014,1,0,0:0:0:0:
288,192,85338,5,8,0:0:0:0:
288,192,85500,1,8,0:0:0:0:
256,192,85663,1,8,0:0:0:0:
256,192,85987,5,0,0:0:0:0:
256,192,86311,1,0,0:0:0:0:
288,192,86636,5,8,0:0:0:0:
256,192,87122,5,4,0:0:0:0:
256,192,87446,5,8,0:0:0:0:
256,192,87771,5,4,0:0:0:0:
288,192,88095,5,8,0:0:0:0:
256,192,88419,5,4,0:0:0:0:
288,192,88744,5,8,0:0:0:0:
256,192,89068,5,4,0:0:0:0:
256,192,89392,5,8,0:0:0:0:
256,192,89717,5,4,0:0:0:0:
