osu file format v9

[General]
AudioFilename: Horie Yui - Immoralist.mp3
AudioLeadIn: 0
PreviewTime: 52116
Countdown: 0
SampleSet: Soft
StackLeniency: 0.6
Mode: 0
LetterboxInBreaks: 1

[Editor]
DistanceSpacing: 1
BeatDivisor: 4
GridSize: 8

[Metadata]
Title:Immoralist
Artist:Horie Yui
Creator:minyeob
Version:Normal
Source:Dragon Crisis!
Tags:Anime

[Difficulty]
HPDrainRate:4
CircleSize:4
OverallDifficulty:4
ApproachRate:5
SliderMultiplier:1.2
SliderTickRate:0.5

[Events]
//Background and Video events
0,0,"BG for IM tv.png"
//Break Periods
//Storyboard Layer 0 (Background)
//Storyboard Layer 1 (Fail)
//Storyboard Layer 2 (Pass)
//Storyboard Layer 3 (Foreground)
//Storyboard Sound Samples
//Background Colour Transformations
3,100,163,162,255

[TimingPoints]
225,324.324324324324,4,2,2,80,1,0
2819,-100,4,2,2,80,0,1
2900,-100,4,2,2,80,0,0
13522,-133.333333333333,4,2,2,40,0,0
24873,-117.647058823529,4,2,2,70,0,0
34522,-117.647058823529,4,1,2,70,0,0
50657,-117.647058823529,4,2,2,50,0,0
51792,-117.647058823529,4,1,2,70,0,0
51873,-117.647058823529,4,2,2,70,0,0
52116,-100,4,1,2,70,0,0
67765,-100,4,1,2,50,0,0
78062,-100,4,2,2,80,0,1
78063,-100,4,2,2,80,0,0
87711,-100,4,1,2,70,0,0

[Colours]
Combo1 : 255,0,0
Combo2 : 255,255,0
Combo3 : 255,128,0

[HitObjects]
63,199,2819,6,0,B|63:17,2,180,4|2|0
174,154,4116,2,0,B|174:336,2,180,4|2|0
285,199,5414,6,0,B|285:17,2,180,4|2|0
396,154,6711,2,0,B|396:336,2,180,4|2|0
480,68,8008,5,4
299,68,8495,1,0
299,187,8819,2,0,B|299:253,1,60
193,304,9306,2,0,B|89:277|93:175,1,180,4|0
94,36,10603,6,0,B|276:37,1,180,4|0
192,325,11900,1,4
372,325,12387,1,4
483,228,14495,6,0,B|332:228,1,134.999995976687
167,92,15792,2,0,B|166:243,1,134.999995976687
365,302,17089,6,0,B|448:292|444:199,1,134.999995976687
271,65,18387,2,0,B|188:75|192:168,1,134.999995976687
86,323,19684,5,0
87,65,20981,1,0
419,68,22279,5,0
421,306,23576,1,0
293,350,24062,1,0
82,334,24873,5,4
0,272,25197,2,0,B|31:206,1,50.9999978721143
92,152,25684,2,0,B|58:88,1,50.9999978721143
139,34,26170,2,0,B|294:74,1,152.999993616343
435,33,27143,5,0
435,33,27468,1,0
494,115,27792,2,0,B|463:181,1,50.9999978721143
402,235,28279,2,0,B|436:299,1,50.9999978721143
355,353,28765,2,0,B|195:310,1,152.999993616343
132,179,29738,1,0
30,179,30062,6,0,B|30:15,2,152.999993616343
113,119,31360,2,0,B|276:119,2,152.999993616343
166,206,32657,2,0,B|167:364,1,152.999993616343
320,359,33630,1,0
319,257,33954,1,0
319,257,34279,2,0,B|258:257,2,50.9999978721143
420,258,34927,1,0
366,170,35252,1,4
366,170,35576,6,0,B|367:55,1,101.999995744229
273,26,36224,2,0,B|164:76|72:21,1,203.999991488457
22,104,37197,1,0
23,308,37846,5,0
124,312,38170,2,0,B|189:298|189:227,1,101.999995744229
106,180,38819,2,0,B|147:71|276:107,1,203.999991488457
348,173,39792,1,0
482,326,40441,6,0,B|482:121,1,203.999991488457
482,19,41414,1,0
482,19,41738,1,0
277,22,42387,2,0,B|59:23,2,203.999991488457
378,23,44008,5,0
327,111,44333,1,0
123,111,44981,1,0
183,197,45306,1,0
235,112,45630,1,0
387,111,46116,2,0,B|387:276,1,152.999993616343
284,262,46927,2,0,B|108:262,2,152.999993616343
256,192,48224,12,0,50170
255,344,50819,6,0,B|256:228,1,101.999995744229
255,139,51468,1,0
255,139,51630,1,0
255,139,51792,1,0
328,44,52116,6,0,B|396:20,1,60,4|0
488,83,52603,2,0,B|357:140,1,120
260,106,53252,1,0
303,217,53576,1,0
222,305,53900,2,0,B|111:257,1,120
57,230,54387,1,0
24,114,54711,6,0,B|24:48,1,60,4|0
143,54,55197,2,0,B|201:92|281:44,1,120
370,16,55846,1,0
319,124,56170,1,0
438,110,56495,2,0,B|495:146,1,60
352,339,57306,5,4
428,246,57630,2,0,B|373:213,1,60
264,258,58116,2,0,B|312:120,2,120
164,325,59089,1,0
59,178,59576,5,0
158,111,59900,2,0,B|244:65|341:117,1,180,4|0
447,81,60711,1,0
407,194,61035,1,0
407,194,61197,2,0,B|420:231|458:237,2,60
294,236,61846,1,0
186,183,62170,1,0
111,277,62495,6,0,B|82:211,1,60,4|0
2,137,62981,1,0
69,37,63306,1,0
172,98,63630,2,0,B|298:57,1,120
401,26,64279,1,0
458,196,64765,1,0
346,167,65089,6,0,B|154:120,2,180,4|0|0
385,280,66387,1,0
266,261,66711,2,0,B|211:304,2,60
73,117,67684,5,0
103,232,68008,2,0,B|150:284,1,60
230,193,68495,1,0
344,156,68819,2,0,B|253:70,1,120
141,109,69468,1,0
256,246,69954,1,0
256,192,70279,12,0,72062
256,192,72873,12,0,74657
256,192,75468,12,0,77089
19,104,78062,5,4
122,42,78387,1,0
122,42,78549,1,4
122,161,78873,1,0
122,161,79035,1,0
227,103,79360,2,0,B|420:103,1,180,4|4
407,283,80333,1,0
287,284,80657,6,0,B|169:279|183:155,1,180,4|4
1,168,81630,1,0
87,85,81954,1,4
267,85,82441,1,4
427,192,83252,6,0,B|494:192,2,60,4|0|0
426,132,83738,2,0,B|426:73,2,60,4|0|0
258,65,84549,1,4
90,131,85035,1,4
54,315,85846,6,0,B|120:281,1,60,4|0
167,288,86170,2,0,B|245:323,1,60,0|4
124,157,86819,1,0
125,37,87143,1,4
125,157,87468,1,0
125,157,87630,1,4
259,98,87954,5,0
259,98,88116,1,0
259,98,88279,1,0
