osu file format v9

[General]
AudioFilename: Horie Yui - Immoralist.mp3
AudioLeadIn: 0
PreviewTime: 52116
Countdown: 0
SampleSet: Normal
StackLeniency: 0.6
Mode: 0
LetterboxInBreaks: 1

[Editor]
DistanceSpacing: 0
BeatDivisor: 4
GridSize: 8

[Metadata]
Title:Immoralist
Artist:Horie Yui
Creator:minyeob
Version:Engage
Source:Dragon Crisis!
Tags:Anime

[Difficulty]
HPDrainRate:8
CircleSize:5
OverallDifficulty:6
ApproachRate:8
SliderMultiplier:1.6
SliderTickRate:0.5

[Events]
//Background and Video events
0,0,"BG for IM tv.png"
//Break Periods
//Storyboard Layer 0 (Background)
//Storyboard Layer 1 (Fail)
//Storyboard Layer 2 (Pass)
//Storyboard Layer 3 (Foreground)
//Storyboard Sound Samples
//Background Colour Transformations
3,100,163,162,255

[TimingPoints]
225,324.324324324324,4,2,2,80,1,0
2819,-100,4,2,2,80,0,1
2820,-100,4,2,2,80,0,0
7360,-100,4,1,2,100,0,0
8089,-100,4,2,2,80,0,0
13522,-133.333333333333,4,2,2,40,0,0
24873,-117.647058823529,4,2,2,70,0,0
34522,-117.647058823529,4,1,2,70,0,0
50657,-117.647058823529,4,2,2,50,0,0
51792,-117.647058823529,4,1,2,70,0,0
51873,-117.647058823529,4,2,2,70,0,0
52116,-100,4,1,2,70,0,0
67765,-100,4,1,2,50,0,0
78062,-100,4,2,2,80,0,1
78063,-100,4,2,2,80,0,0
87711,-100,4,1,2,70,0,0

[Colours]
Combo1 : 240,5,5
Combo2 : 255,255,0
Combo3 : 255,128,0

[HitObjects]
391,169,2819,2,0,B|482:169,2,80,0|2|0
389,88,3306,2,0,B|389:5,2,80,0|2|0
309,88,3792,1,0
309,88,3954,2,0,B|224:88,2,80,0|2|0
309,168,4441,1,0
309,168,4603,2,0,B|311:342,1,160,2|0
310,327,5089,1,2
310,327,5252,1,0
310,327,5414,1,4
230,327,5576,6,0,B|148:327,1,80,0|0
151,247,5900,1,2
151,247,6062,2,0,B|151:162,2,80,0|0|0
70,247,6549,1,0
70,247,6711,2,0,B|-20:248,2,80,2|0|0
68,167,7197,1,2
167,98,7522,5,0
217,36,7684,1,0
296,36,7846,1,0
345,98,8008,1,4
424,98,8170,5,0
383,167,8333,2,0,B|456:247,1,80,0|2
360,250,8657,2,0,B|392:331,1,80
310,314,8981,2,0,B|270:386,1,80
210,330,9306,2,0,B|176:247,1,80,2|0
102,236,9630,1,0
134,162,9792,1,2
134,162,10116,5,0
99,89,10279,1,2
178,89,10441,1,0
212,161,10603,2,0,B|393:161,1,160,4|0
352,238,11089,2,0,B|166:238,1,160
57,47,11738,1,0
57,47,11900,1,0
57,47,12062,1,0
57,47,12224,1,0
57,47,12387,6,0,B|30:121,1,80
107,141,12711,2,0,B|167:202,1,80
93,237,13035,2,0,B|60:339,1,80,0|0
492,69,14495,6,0,B|413:69,1,59.9999982118607
378,134,14819,1,0
378,134,14981,2,0,B|239:134,1,119.999996423721
99,195,15792,6,0,B|28:195,2,59.9999982118607
138,255,16279,2,0,B|394:254,1,239.999992847443
449,255,17089,2,0,B|490:187,1,59.9999982118607
451,136,17414,1,0
451,136,17576,1,0
396,29,17900,2,0,B|260:29,1,119.999996423721
220,75,18387,6,0,B|202:141,1,59.9999982118607
133,120,18711,2,0,B|68:160,1,59.9999982118607
26,284,19197,1,0
166,249,19522,1,0
237,251,19684,6,0,B|400:251,2,149.999995529652
304,109,20981,2,0,B|141:110,2,149.999995529652
152,10,22279,5,0
152,189,22765,1,0
440,272,23576,5,0
282,358,24062,1,0
143,242,24549,1,0
100,331,24873,5,4
102,167,25197,1,0
102,167,25360,2,0,B|14:165|24:59,2,135.999994325638
104,85,26170,1,0
104,85,26333,1,0
104,85,26495,1,0
104,85,26657,2,0,B|250:85,1,135.999994325638
321,85,27143,6,0,B|322:4,2,67.999997162819
415,218,27792,1,0
414,136,27954,2,0,B|489:133|488:35,2,135.999994325638
342,176,28765,1,0
342,176,28927,1,0
344,259,29089,2,0,B|344:336,1,67.999997162819
262,325,29414,1,0
262,325,29495,1,0
262,325,29576,1,0
180,325,29738,6,0,B|84:325,2,67.999997162819
180,161,30387,1,0
180,161,30549,2,0,B|89:146|96:63,1,135.999994325638
27,73,31035,1,0
27,73,31197,1,0
27,73,31360,2,0,B|172:72,1,135.999994325638
215,125,31846,1,0
427,52,32333,6,0,B|513:52,2,67.999997162819
308,142,32981,1,0
308,142,33143,2,0,B|250:204|315:270,1,135.999994325638
383,264,33630,2,0,B|472:264,2,67.999997162819
344,328,34116,1,0
268,327,34279,1,0
223,266,34441,1,0
224,192,34603,5,0
224,158,34765,1,0
223,124,34927,1,0
223,90,35089,1,0
223,55,35252,1,4
155,53,35576,6,0,B|12:53,2,135.999994325638
89,172,36549,2,0,B|41:243,1,67.999997162819
109,262,36873,2,0,B|129:328,1,67.999997162819
193,306,37197,2,0,B|334:307,1,135.999994325638
328,306,37684,1,0
328,306,37846,1,0
454,256,38170,5,0
454,256,38333,1,0
490,198,38495,1,0
490,198,38657,1,0
451,135,38819,2,0,B|451:55,2,67.999997162819
353,40,39468,2,0,B|201:40,2,135.999994325638
353,176,40441,5,0
353,176,40603,1,0
353,243,40765,1,0
353,243,40927,1,0
285,242,41089,2,0,B|129:243,1,135.999994325638,0|0
113,184,41576,2,0,B|114:101,2,67.999997162819
180,184,42062,1,0
180,184,42387,2,0,B|264:168|262:79,1,135.999994325638
321,57,42873,5,0
321,57,43035,2,0,B|403:72|415:172,1,135.999994325638
410,215,43522,1,0
410,215,43684,2,0,B|410:373,2,135.999994325638
341,213,44495,6,0,B|189:213,1,135.999994325638
137,212,44981,1,0
59,99,45306,1,0
59,99,45468,1,0
59,99,45630,2,0,B|60:27,2,67.999997162819
126,99,46116,2,0,B|290:98,1,135.999994325638
262,98,46603,1,0
356,58,46927,6,0,B|411:-2,1,67.999997162819
431,69,47252,2,0,B|505:56,1,67.999997162819
474,124,47576,2,0,B|536:175,1,67.999997162819
466,199,47900,2,0,B|484:264,1,67.999997162819
484,264,48224,1,4
256,192,48387,12,0,50495
256,294,50819,5,0
256,294,51143,1,4
256,225,51468,1,0
257,208,51549,1,0
256,191,51630,1,0
256,174,51711,1,0
256,157,51792,1,0
256,140,51873,1,0
256,123,51954,1,0
256,106,52035,1,0
256,89,52116,5,4
336,97,52279,2,0,B|426:63,1,80
430,146,52603,1,0
430,146,52684,1,0
430,146,52765,1,0
353,169,52927,2,0,B|308:245,1,80
255,181,53252,2,0,B|149:43,1,160
25,144,53900,2,0,B|124:284,1,160
181,226,54387,1,0
246,271,54549,1,0
249,350,54711,6,0,B|346:316,1,80,4|0
401,344,55035,2,0,B|474:386,1,80
499,249,55522,1,0
497,169,55684,1,0
497,169,55846,2,0,B|498:10,2,160
424,134,56657,1,0
424,134,56819,2,0,B|424:84,2,40
425,213,57143,2,0,B|425:256,2,40,0|0|4
348,236,57468,5,0
348,236,57630,1,0
348,315,57792,2,0,B|172:315,1,160
40,251,58441,1,0
189,193,58765,1,0
39,136,59089,1,0
39,136,59252,2,0,B|38:53,2,80
109,98,59738,5,0
109,98,59900,2,0,B|182:147|272:92,1,160,4|0
257,18,60387,2,0,B|257:194,1,160
257,257,60873,2,0,B|168:258,2,80
328,215,61360,1,0
347,215,61441,1,0
366,215,61522,1,0
385,215,61603,1,0
404,215,61684,1,0
468,167,61846,1,0
432,95,62008,1,0
477,29,62170,1,0
256,72,62495,5,4
256,72,62657,2,0,B|182:38,1,80
189,118,62981,2,0,B|214:200,1,80
134,173,63306,1,0
26,291,63630,2,0,B|204:345,1,160
339,334,64279,2,0,B|511:273,1,160
468,203,64765,1,0
468,203,64927,2,0,B|379:235,1,80,0|4
414,152,65252,6,0,B|435:69,1,80
371,24,65576,2,0,B|196:89,1,160
37,134,66224,1,0
87,319,66549,1,0
271,266,66873,1,0
270,186,67035,2,0,B|270:138,2,40
339,226,67360,2,0,B|339:320,2,80
339,146,67846,5,0
339,146,68008,1,0
339,146,68170,2,0,B|503:145,1,160
386,218,68819,2,0,B|386:406,1,160
314,330,69468,2,0,B|150:330,1,160
154,330,69954,1,0
154,330,70116,1,0
154,330,70279,1,0
256,192,70360,12,0,71414
338,58,71738,6,0,B|153:59,1,160
260,194,72387,1,0
260,194,72549,1,0
260,194,72711,1,0
260,194,72873,1,0
256,192,72954,12,0,74008
174,326,74333,6,0,B|359:325,1,160
469,203,74981,2,0,B|470:256,6,40
396,60,75792,1,0
236,61,76116,1,0
308,204,76441,1,0
148,202,76765,1,0
68,84,78062,5,4
68,84,78224,1,0
123,142,78387,1,0
123,142,78549,1,4
195,108,78711,1,0
195,108,78873,1,0
249,166,79035,1,0
249,166,79197,1,0
315,121,79360,2,0,B|384:60,1,80,4|0
400,143,79684,1,0
400,143,79846,2,0,B|272:255,1,160,4|0
205,218,80333,6,0,B|166:148,2,80,0|0|4
125,220,80819,2,0,B|36:172,1,80
70,260,81143,2,0,B|-14:286,1,80,4|0
58,330,81468,2,0,B|-4:387,2,80
132,358,81954,1,4
132,358,82116,1,0
193,306,82279,1,0
193,306,82441,1,4
137,248,82603,2,0,B|168:168,1,80
231,218,82927,2,0,B|289:284,1,80
357,245,83252,5,4
357,245,83333,1,0
357,245,83414,1,0
321,173,83576,1,0
373,112,83738,1,4
373,112,83819,1,0
373,112,83900,1,0
306,67,84062,6,0,B|261:0,2,80
249,124,84549,1,4
249,124,84630,1,0
249,124,84711,1,0
180,83,84873,1,0
129,144,85035,1,4
71,279,85360,6,0,B|20:206,2,80
114,211,85846,2,0,B|84:122,1,80,4|0
165,155,86170,2,0,B|188:60,1,80,0|4
251,120,86495,2,0,B|302:37,1,80
411,139,86981,5,0
411,139,87143,1,4
466,197,87306,1,0
410,254,87468,1,0
410,254,87630,1,4
330,254,87792,5,0
282,143,87954,1,0
236,254,88116,1,0
190,142,88279,1,0
