osu file format v7

[General]
AudioFilename: Horie Yui - I My Me.mp3
AudioLeadIn: 3000
PreviewTime: 33998
Countdown: 1
SampleSet: Soft
StackLeniency: 0.7
Mode: 0
LetterboxInBreaks: 0

[Editor]
Bookmarks: 113681,154111
DistanceSpacing: 1.10000002384186
BeatDivisor: 4
GridSize: 8

[Metadata]
Title:I My Me
Artist:Horie Yui
Creator:James
Version:Hard
Source:Toradora
Tags:Dangaard

[Difficulty]
HPDrainRate:5
CircleSize:4
OverallDifficulty:7
SliderMultiplier:1.4
SliderTickRate:2

[Events]
//Background and Video events
0,0,"image.jpg"
//Break Periods
2,34172,48306
2,99797,113931
//Storyboard Layer 0 (Background)
//Storyboard Layer 1 (Fail)
//Storyboard Layer 2 (Pass)
//Storyboard Layer 3 (Foreground)
//Storyboard Sound Samples
//Background Colour Transformations
3,100,0,0,0

[TimingPoints]
221,1875,4,2,2,0,1,0
780,-100,4,2,2,0,0,0
2097,468.75,4,1,1,70,1,0
2214,-100,4,2,1,70,0,0
5495,-100,4,1,1,51,0,0
5729,-100,4,2,1,70,0,0
8307,-100,4,2,2,70,0,0
8542,-100,4,2,1,70,0,0
9479,-100,4,1,1,70,0,0
9714,-100,4,2,1,70,0,0
13229,-100,4,2,2,70,0,0
13464,-100,4,2,1,70,0,0
14167,-100,4,2,2,70,0,0
14401,-100,4,2,1,70,0,0
15104,-100,4,2,2,70,0,0
15339,-100,4,2,1,70,0,0
16979,-100,4,1,1,70,0,0
17214,-100,4,2,1,70,0,0
17448,-100,4,1,1,70,0,0
17682,-100,4,2,1,70,0,0
18034,-100,4,1,1,70,0,0
18151,-100,4,2,2,70,0,0
18386,-100,4,1,1,70,0,0
18503,-100,4,2,2,70,0,0
18620,-100,4,1,1,70,0,0
19089,-100,4,2,1,70,0,0
19323,-100,4,1,1,70,0,0
19557,-100,4,2,1,70,0,0
19909,-100,4,1,1,70,0,0
20026,-100,4,2,2,70,0,0
20261,-100,4,1,1,70,0,0
20378,-100,4,2,2,70,0,0
20495,-100,4,1,1,70,0,0
20964,-100,4,2,1,70,0,0
21198,-100,4,1,1,70,0,0
21432,-100,4,2,1,70,0,0
21784,-100,4,1,1,70,0,0
21901,-100,4,2,2,70,0,0
22136,-100,4,1,1,70,0,0
22253,-100,4,2,2,70,0,0
22370,-100,4,1,1,70,0,0
23307,-100,4,2,1,70,0,0
23542,-100,4,1,1,70,0,0
23776,-100,4,2,1,70,0,0
24011,-100,4,1,1,70,0,0
24128,-100,4,2,2,70,0,0
24362,-100,4,1,1,70,0,0
24479,-100,4,2,1,70,0,0
24714,-100,4,2,1,70,0,0
29753,-100,4,2,1,40,0,0
33737,-100,4,1,1,70,0,0
48972,-100,4,2,1,70,0,0
49792,-100,4,1,1,60,0,0
50026,-100,4,2,1,70,0,0
51667,-100,4,1,1,60,0,0
51901,-100,4,2,1,70,0,0
53542,-100,4,1,1,70,0,0
53776,-100,4,2,1,70,0,0
54479,-100,4,1,1,70,0,0
54714,-100,4,2,1,70,0,0
55417,-100,4,1,1,70,0,0
55651,-100,4,2,1,70,0,0
57292,-100,4,2,2,70,0,0
57526,-100,4,2,1,70,0,0
57878,-100,4,2,1,0,0,0
58581,-100,4,2,1,70,0,0
58932,-100,4,2,2,70,0,0
59167,-100,4,2,1,70,0,0
61042,-100,4,1,1,50,0,0
61276,-100,4,2,2,50,0,0
61511,-100,4,1,1,50,0,0
61628,-100,4,2,2,50,0,0
61745,-100,4,1,1,50,0,0
63151,-100,4,2,2,50,0,0
63386,-100,4,1,1,50,0,0
63503,-100,4,2,2,50,0,0
63620,-100,4,1,1,50,0,0
63854,-100,4,2,1,70,0,0
64557,-100,4,2,2,70,0,0
64792,-100,4,1,1,70,0,0
65026,-100,4,2,1,70,0,0
65964,-100,4,2,1,70,0,0
66432,-100,4,2,1,60,0,0
66901,-100,4,2,1,50,0,0
67370,-100,4,2,1,40,0,0
67604,-100,4,1,1,70,0,0
69479,-100,4,2,1,70,0,0
70534,-100,4,1,1,70,0,0
70651,-100,4,2,1,70,0,0
71354,-100,4,1,1,70,0,0
71589,-100,4,2,1,70,0,0
72409,-100,4,1,1,70,0,0
72526,-100,4,2,1,70,0,0
73229,-100,4,1,1,70,0,0
73464,-100,4,2,1,70,0,0
74284,-100,4,1,1,70,0,0
74401,-100,4,2,1,70,0,0
75104,-100,4,1,1,70,0,0
75339,-100,4,2,1,70,0,0
76159,-100,4,1,1,70,0,0
76276,-100,4,2,1,70,0,0
77917,-100,4,1,1,70,0,0
78151,-100,4,2,1,70,0,0
78854,-100,4,1,1,60,0,0
79089,-100,4,2,1,70,0,0
79792,-100,4,1,1,61,0,0
80026,-100,4,2,1,70,0,0
80729,-100,4,1,1,70,0,0
80964,-100,4,2,2,70,0,0
81198,-100,4,2,1,70,0,0
82136,-100,4,2,2,70,0,0
82370,-100,4,2,1,70,0,0
85534,-100,4,1,1,70,0,0
85651,-100,4,2,1,70,0,0
86354,-100,4,1,1,70,0,0
86589,-100,4,2,1,70,0,0
87409,-100,4,1,1,70,0,0
87526,-100,4,2,1,70,0,0
88229,-100,4,1,1,70,0,0
88464,-100,4,2,1,70,0,0
89284,-100,4,1,1,70,0,0
89401,-100,4,2,1,70,0,0
89636,-100,4,2,2,70,0,0
89870,-100,4,2,1,70,0,0
90104,-100,4,2,2,0,0,0
90339,-100,4,2,1,70,0,0
91979,-100,4,2,2,70,0,0
92214,-100,4,2,1,70,0,0
93854,-100,4,2,2,70,0,0
94089,-100,4,2,1,70,0,0
94792,-100,4,1,1,70,0,0
95026,-100,4,2,1,70,0,0
95729,-100,4,1,1,70,0,0
95964,-100,4,2,1,70,0,0
96198,-100,4,2,1,70,0,0
97136,-100,4,1,1,60,0,0
97370,-100,4,2,1,70,0,0
97604,-100,4,1,1,70,0,0
97839,-100,4,2,1,70,0,0
98073,-100,4,1,1,70,0,0
98542,-100,4,1,1,70,0,0
98776,-100,4,2,1,70,0,0
99011,-100,4,1,1,70,0,0
99479,-100,4,2,1,70,0,0
115417,-100,4,1,1,60,0,0
115651,-100,4,2,1,70,0,0
117057,-100,4,2,2,70,0,0
117292,-100,4,1,1,60,0,0
117526,-100,4,2,1,70,0,0
118932,-100,4,2,2,70,0,0
119167,-100,4,1,1,70,0,0
119401,-100,4,2,1,70,0,0
120104,-100,4,1,1,70,0,0
120339,-100,4,2,1,70,0,0
121042,-100,4,1,1,70,0,0
121276,-100,4,2,1,70,0,0
122448,-100,4,2,2,70,0,0
122682,-100,4,2,1,70,0,0
122917,-100,4,1,1,70,0,0
123151,-100,4,2,1,70,0,0
123386,-100,4,2,2,70,0,0
123620,-100,4,2,1,70,0,0
123854,-100,4,1,1,70,0,0
124089,-100,4,2,1,70,0,0
124792,-100,4,1,1,70,0,0
125026,-100,4,2,1,70,0,0
125729,-100,4,1,1,60,0,0
125964,-100,4,2,1,70,0,0
126667,-100,4,1,1,70,0,0
126901,-100,4,2,1,70,0,0
127839,-100,4,2,1,60,0,0
128307,-100,4,2,1,50,0,0
128776,-100,4,2,1,40,0,0
129245,-100,4,2,1,30,0,0
129479,-100,4,2,1,70,0,0
130182,-100,4,2,2,70,0,0
130417,-100,4,1,1,70,0,0
130651,-100,4,2,1,70,0,0
132292,-100,4,1,1,70,0,0
132526,-100,4,2,1,70,0,0
133229,-100,4,1,1,70,0,0
133932,-100,4,1,1,50,0,0
134401,-100,4,1,1,30,0,0
134870,-100,4,1,1,10,0,0
135104,-100,4,2,1,70,0,0
135339,-100,4,2,2,70,0,0
135573,-100,4,2,1,70,0,0
136042,-100,4,1,1,70,0,0
136276,-100,4,2,2,70,0,0
136511,-100,4,2,1,70,0,0
136979,-100,4,1,1,70,0,0
137214,-100,4,2,2,70,0,0
137448,-100,4,2,1,70,0,0
137917,-100,4,1,1,70,0,0
138386,-100,4,2,1,70,0,0
138854,-100,4,1,1,70,0,0
139089,-100,4,2,1,70,0,0
139792,-100,4,1,1,70,0,0
140026,-100,4,2,1,70,0,0
140729,-100,4,2,2,70,0,0
140964,-100,4,2,1,70,0,0
141667,-100,4,1,1,70,0,0
141901,-100,4,2,1,70,0,0
142604,-100,4,1,1,60,0,0
142839,-100,4,2,1,70,0,0
143542,-100,4,1,1,70,0,0
143776,-100,4,2,1,70,0,0
144479,-100,4,1,1,60,0,0
144714,-100,4,2,1,70,0,0
145417,-100,4,1,1,60,0,0
145651,-100,4,2,1,70,0,0
146354,-100,4,1,1,70,0,0
146589,-100,4,2,2,70,0,0
146823,-100,4,2,1,70,0,0
147292,-100,4,2,2,70,0,0
147526,-100,4,2,1,70,0,0
148464,-100,4,2,2,70,0,0
148698,-100,4,2,1,70,0,0
151159,-100,4,1,1,70,0,0
151276,-100,4,2,1,70,0,0
151979,-100,4,1,1,70,0,0
152214,-100,4,2,1,70,0,0
153034,-100,4,1,1,70,0,0
153151,-100,4,2,1,70,0,0
153854,-100,4,1,1,70,0,0
154089,-100,4,2,1,70,0,0
154909,-100,4,1,1,70,0,0
155026,-100,4,2,1,70,0,0
155847,-100,4,1,1,70,0,0
155964,-100,4,2,1,70,0,0
156667,-100,4,1,1,70,0,0
156901,-100,4,2,1,70,0,0
157604,-100,4,2,2,70,0,0
157839,-100,4,2,1,70,0,0
158542,-100,4,1,1,70,0,0
158776,-100,4,2,1,70,0,0
159479,-100,4,2,2,70,0,0
159714,-100,4,2,1,70,0,0
160417,-100,4,1,1,70,0,0
160651,-100,4,2,1,70,0,0
161354,-100,4,1,1,70,0,0
161589,-100,4,2,1,70,0,0
161823,-100,4,2,1,70,0,0
163229,-100,4,1,1,70,0,0
163464,-100,4,2,1,70,0,0
163698,-100,4,1,1,70,0,0
163932,-100,4,1,1,70,0,0
164167,-100,4,1,1,70,0,0
164401,-100,4,2,1,70,0,0
164636,-100,4,1,1,70,0,0
164870,-100,4,1,1,70,0,0
166745,-100,4,2,1,70,0,0
166979,-100,4,1,1,70,0,0
167214,-100,4,2,1,70,0,0
167448,-100,4,1,1,70,0,0
168151,-100,4,2,1,70,0,0
168386,-100,4,1,1,70,0,0
168620,-100,4,2,1,70,0,0
168854,-100,4,1,1,70,0,0
169089,-100,4,2,1,70,0,0
169323,-100,4,1,1,70,0,0
169557,-100,4,2,1,70,0,0
169792,-100,4,1,1,70,0,0
170026,-100,4,2,1,70,0,0
170261,-100,4,1,1,70,0,0
170495,-100,4,2,1,70,0,0
170729,-100,4,1,1,70,0,0
170964,-100,4,2,1,70,0,0
171198,-100,4,1,1,70,0,0
171432,-100,4,2,1,66,0,0
171667,-100,4,1,1,70,0,0
171901,-100,4,2,1,70,0,0
172136,-100,4,1,1,70,0,0
172370,-100,4,2,1,70,0,0
172604,-100,4,1,1,70,0,0
173307,-100,4,2,1,70,0,0
173542,-100,4,1,1,70,0,0
174245,-100,4,2,1,70,0,0
174479,-100,4,1,1,70,0,0
174714,-100,4,2,1,70,0,0
174948,-100,4,1,1,70,0,0
175182,-100,4,2,1,70,0,0
175417,-100,4,1,1,70,0,0
175651,-100,4,2,1,70,0,0
175886,-100,4,1,1,70,0,0
176120,-100,4,2,1,70,0,0
176354,-100,4,1,1,70,0,0
178932,-100,4,2,2,70,0,0
179167,-100,4,1,1,70,0,0
183972,-100,4,2,1,41,0,0
184089,-100,4,2,2,41,0,0
184323,-100,4,2,1,41,0,0
185964,-100,4,2,2,41,0,0
186198,-100,4,2,1,41,0,0
187839,-100,4,2,2,41,0,0
188073,-100,4,2,1,41,0,0
189714,-100,4,2,2,41,0,0
189948,-100,4,2,1,41,0,0
191589,-100,4,2,2,41,0,0
191823,-100,4,2,1,41,0,0
193464,-100,4,2,2,41,0,0
193698,-100,4,2,1,41,0,0
195339,-100,4,2,2,41,0,0
195573,-100,4,2,1,41,0,0
196276,-100,4,2,2,41,0,0
196511,-100,4,2,1,41,0,0
196745,-100,4,1,1,60,0,0
196979,-100,4,1,1,81,0,0
197214,-100,4,2,1,70,0,0
197448,-100,4,1,1,70,0,0
197917,-100,4,1,1,70,0,0
198151,-100,4,2,1,70,0,0
198386,-100,4,1,1,70,0,0
198854,-100,4,2,1,70,0,0
199909,-100,4,1,1,70,0,0
200026,-100,4,2,1,70,0,0
200729,-100,4,1,1,70,0,0
200964,-100,4,2,1,70,0,0
201784,-100,4,1,1,70,0,0
201901,-100,4,2,1,70,0,0
202604,-100,4,1,1,70,0,0
202839,-100,4,2,1,70,0,0
203659,-100,4,1,1,70,0,0
203776,-100,4,2,1,70,0,0
204479,-100,4,1,1,61,0,0
204714,-100,4,2,1,70,0,0
205417,-100,4,1,1,70,0,0
205651,-100,4,2,1,70,0,0
206354,-100,4,1,1,61,0,0
206589,-100,4,2,1,70,0,0
207409,-100,4,1,1,70,0,0
207526,-100,4,2,1,70,0,0
208229,-100,4,1,1,60,0,0
208464,-100,4,2,1,70,0,0
209167,-100,4,1,1,70,0,0
209401,-100,4,2,1,70,0,0
210104,-100,4,1,1,70,0,0
210339,-100,4,2,1,70,0,0
211042,-100,4,2,2,70,0,0
211276,-100,4,2,1,70,0,0

[Colours]
Combo1 : 255,40,70
Combo2 : 255,48,170
Combo3 : 255,130,42
Combo4 : 115,220,245
Combo5 : 220,180,60

[HitObjects]
168,192,221,2,0,B|144:152|192:88|160:32,1,140
104,88,2331,1,0
144,152,2565,1,2
216,120,2800,1,0
376,80,3268,2,0,B|464:80,1,70,0|2
446,80,3737,1,0
408,240,4206,2,0,B|312:240,1,70,0|2
338,240,4675,1,0
168,264,5143,1,0
104,296,5378,1,2
136,360,5612,1,0
200,328,5847,6,0,B|296:328,1,70,0|0
270,328,6315,1,2
270,328,6550,1,0
408,328,7018,1,0
464,280,7253,1,2
440,208,7487,1,0
392,80,7956,1,0
320,80,8190,2,0,B|208:80,1,105,0|0
216,80,8659,1,0
152,112,8893,1,0
80,120,9128,2,0,B|96:208,1,70,0|0
104,264,9597,5,4
176,248,9831,2,0,B|168:336,2,70,0|2|0
312,264,10768,2,0,B|320:192,2,70,0|2|0
448,248,11706,1,0
480,184,11940,2,0,B|448:112,1,70,2|0
416,56,12409,1,0
344,72,12643,2,0,B|248:72,1,70,0|2
208,104,13112,2,0,B|240:176|216:256,1,140,0|0
152,184,13815,5,2
88,120,14050,2,0,B|64:192|104:272,1,140
152,184,14753,1,2
208,104,14987,2,0,B|240:176|216:256,1,140,0|0
152,184,15690,1,2
168,264,15925,1,0
168,264,16042,1,0
168,264,16159,1,2
176,336,16393,2,0,B|272:336,1,70,0|0
246,336,16862,1,2
320,336,17097,5,0
392,336,17331,1,2
449,283,17565,1,0
424,216,17800,1,2
424,216,17917,1,2
424,216,18034,2,0,B|456:168|448:104,2,105
352,184,18972,5,0
280,192,19206,1,2
208,176,19440,1,0
144,216,19675,1,2
144,216,19792,1,2
144,216,19909,2,0,B|96:256|96:328,2,105
216,200,20847,5,0
288,184,21081,1,2
352,224,21315,1,0
384,296,21550,1,2
384,296,21667,1,2
384,296,21784,2,0,B|496:296,2,105
312,296,22722,1,0
208,88,23190,1,0
136,64,23425,1,2
72,96,23659,1,0
40,160,23893,1,2
40,160,24011,2,0,B|72:208|72:272,1,105,0|0
136,288,24597,5,4
208,280,24831,1,2
184,144,25300,1,2
256,144,25534,1,0
328,144,25768,1,2
328,280,26237,1,2
256,280,26472,1,0
184,280,26706,1,2
184,144,27175,1,2
256,144,27409,1,0
328,144,27643,1,2
464,144,28112,5,0
320,256,28581,1,0
176,144,29050,1,0
32,256,29518,1,0
32,144,29987,5,0
176,256,30456,1,0
320,144,30925,1,0
464,256,31393,1,0
256,192,31862,12,0,33972
24,120,49206,5,0
96,120,49440,1,8
168,120,49675,1,0
240,120,49909,1,0
312,120,50143,1,0
384,120,50378,1,8
456,120,50612,1,0
496,256,51081,5,0
424,256,51315,1,8
352,256,51550,1,0
280,256,51784,1,0
208,256,52018,1,0
136,256,52253,1,8
64,256,52487,1,0
128,104,52956,5,0
128,104,53073,1,0
128,104,53190,1,8
192,56,53425,1,0
264,88,53659,2,0,B|344:88,2,70,0|0|8
280,168,54362,1,0
208,208,54597,2,0,B|120:208,2,70,0|0|8
264,272,55300,1,0
264,352,55534,2,0,B|368:352,2,70,0|0|8
192,336,56237,1,0
192,336,56472,5,4
192,336,56706,1,0
72,240,57175,2,0,B|72:160|136:88,1,140,0|2
216,208,58112,1,0
216,208,58347,1,0
352,192,58815,2,0,B|344:280|288:344,1,140,0|0
232,328,59518,1,0
176,280,59753,1,8
192,208,59987,1,0
288,104,60456,6,0,B|384:96,1,70,0|8
416,144,60925,1,0
368,200,61159,2,0,B|384:272|360:320,2,105,0|0|0
240,248,62331,1,0
104,208,62800,1,0
104,208,63034,2,0,B|88:280|112:328,2,105,0|0|0
136,144,63972,5,4
200,176,64206,1,0
272,200,64440,2,0,B|440:168,1,140,8|0
480,208,65143,1,0
496,288,65378,2,0,B|496:376,1,70,8|0
400,280,65847,2,0,B|400:368,1,70,4|0
304,288,66315,2,0,B|304:384,1,70,0|0
208,272,66784,2,0,B|208:344,1,70
112,280,67253,2,0,B|112:360,1,70
16,272,67722,2,0,C|16:344,1,70,0|0
256,192,68425,12,4,69597
80,152,69831,6,0,B|72:240,1,70,2|8
150,219,70300,1,2
146,253,70417,1,2
143,287,70534,1,0
221,276,70768,1,2
212,352,71003,1,8
288,360,71237,6,0,B|368:368,1,70,2|0
338,292,71706,2,0,B|242:284,1,70,2|8
302,216,72175,1,2
336,218,72292,1,2
370,218,72409,1,0
347,144,72643,2,0,B|268:139,1,70,2|8
200,129,73112,1,2
234,59,73347,5,0
308,77,73581,2,0,B|324:149,1,70,2|8
389,105,74050,1,2
399,138,74167,1,2
410,171,74284,1,0
383,243,74518,1,2
309,220,74753,2,8,B|283:143,1,70,8|2
208,128,75222,5,0
128,136,75456,1,2
121,170,75573,1,2
111,203,75690,1,8
40,176,75925,5,2
28,209,76042,1,2
17,242,76159,1,0
47,320,76393,1,2
121,301,76628,1,8
192,329,76862,1,2
264,312,77097,5,4
264,312,77565,1,8
336,336,77800,1,2
400,304,78034,1,0
416,232,78268,1,2
400,160,78503,1,8
336,112,78737,2,0,B|184:112,1,140,2|2
136,160,79440,5,8
192,216,79675,2,0,B|344:216,1,140,2|2
384,272,80378,1,8
384,272,80612,1,2
328,328,80847,6,0,B|184:328,1,140,0|8
188,328,81550,1,0
216,192,82018,2,0,B|384:192,1,140,0|0
432,192,82722,5,4
336,336,83190,5,4
168,296,83659,5,4
160,144,84128,5,4
312,64,84597,5,4
296,144,84831,1,2
280,224,85065,1,8
264,304,85300,1,2
264,304,85417,1,2
264,304,85534,1,0
184,304,85768,2,0,B|88:304,1,70,2|8
144,224,86237,1,2
168,144,86472,6,0,B|256:144,2,70,0|2|8
184,224,87175,1,2
184,224,87292,1,2
184,224,87409,1,0
208,304,87643,2,0,B|288:304,2,70,2|8|2
232,224,88347,5,0
256,144,88581,2,0,B|328:144,1,70,2|8
312,224,89050,1,2
312,224,89167,1,2
312,224,89284,1,0
296,304,89518,2,0,B|440:304,2,140,0|0|0
296,304,90690,1,8
456,56,91159,5,0
376,56,91393,1,2
296,56,91628,1,8
216,56,91862,2,2,B|144:104|136:200,1,140,0|0
141,169,92565,1,8
112,336,93034,1,0
192,336,93268,1,2
272,336,93503,1,8
352,336,93737,2,2,B|424:288|432:192,1,140,0|0
428,222,94440,1,8
408,144,94675,5,0
336,120,94909,1,0
312,192,95143,1,0
384,216,95378,1,8
408,144,95612,1,0
336,120,95847,2,0,B|240:120|184:120,1,140,0|8
196,120,96550,1,2
176,264,97018,2,2,B|328:264,1,140,2|2
296,344,97722,2,0,B|384:344|416:344,2,105,0|0|0
216,344,98659,2,0,B|136:344|96:344,2,105,0|0|0
216,344,99597,1,4
400,328,114831,5,0
400,328,115065,1,8
328,328,115300,1,0
256,328,115534,1,0
184,328,115768,1,0
120,344,116003,1,8
120,344,116237,1,0
120,344,116706,5,0
120,344,116823,1,0
120,344,116940,2,0,B|72:280|88:184,1,140,8|0
88,128,117643,1,0
112,48,117878,2,0,B|208:48,1,70,8|0
400,48,118581,1,0
400,48,118698,1,0
400,48,118815,2,0,B|448:112|432:208,1,140,8|0
424,256,119518,1,0
352,288,119753,2,0,B|328:360,1,70,8|0
264,312,120222,2,0,B|288:224,1,70,0|0
208,256,120690,2,0,B|176:344,1,70,8|0
120,272,121159,2,0,B|160:176,3,70,0|0|8|0
176,136,122097,5,4
104,136,122331,2,0,B|80:208|112:288,1,140,0|0
168,200,123034,1,0
232,264,123268,2,0,B|256:200|216:104,1,140
168,200,123972,1,0
112,144,124206,2,0,B|32:144,2,70,0|8|0
152,80,124909,2,0,B|240:80,2,70,0|0|8
112,144,125612,2,0,B|80:216|112:304,1,140
176,288,126315,5,8
248,296,126550,1,0
320,296,126784,1,0
392,288,127018,1,0
464,280,127253,2,0,B|440:184,1,70,8|0
408,64,127956,1,0
336,200,128425,1,0
256,72,128893,1,0
176,208,129362,1,0
112,256,129597,1,4
80,184,129831,5,0
96,112,130065,2,0,B|240:64,1,140,8|0
280,120,130768,1,0
232,176,131003,2,0,B|256:256,1,70,8|0
280,312,131472,1,4
352,296,131706,2,0,B|432:304,2,70,0|8|0
280,304,132409,1,0
208,296,132643,2,0,B|112:288,2,70,0|8|0
288,304,133347,1,0
288,304,133581,1,0
392,224,134050,1,0
280,144,134518,1,0
400,72,134987,1,0
400,72,135222,6,0,B|456:136|456:216,1,140,4|8
256,296,136159,2,0,B|256:128,1,140,0|8
112,72,137097,2,0,B|56:136|56:216,1,140,0|8
256,296,138034,1,0
256,296,138503,1,8
328,240,138737,1,0
256,184,138972,1,0
184,240,139206,1,0
256,296,139440,1,8
328,224,139675,1,0
256,144,139909,1,0
184,224,140143,1,0
184,224,140612,2,0,B|352:224,1,140,0|0
324,224,141550,5,0
240,288,141784,1,0
152,224,142018,1,0
176,120,142253,1,8
280,120,142487,2,0,B|448:120,1,140,0|0
480,216,143190,1,8
424,304,143425,1,0
320,272,143659,1,0
320,168,143893,1,0
416,128,144128,1,8
480,216,144362,2,0,B|504:288|456:360,1,140,0|0
392,272,145065,1,8
328,192,145300,6,0,B|280:248|304:336,1,140,0|0
392,272,146003,1,8
392,272,146237,1,0
480,216,146472,2,0,B|504:288|456:360,1,140,0|8
392,272,147175,2,0,B|232:272,1,140,0|0
168,120,148112,1,0
168,120,148347,2,0,B|344:120,1,140,4|4
168,120,149284,1,4
308,120,149753,1,4
168,120,150222,5,4
120,192,150456,2,0,B|136:296,1,70,2|8
208,224,150925,1,2
240,224,151042,1,2
272,224,151159,1,0
344,192,151393,2,0,B|360:280,1,70,2|8
288,304,151862,6,0,B|200:304,1,70,2|0
192,224,152331,2,0,B|288:224,1,70,2|8
232,144,152800,1,2
200,144,152917,1,2
168,144,153034,1,0
256,104,153268,1,2
328,128,153503,1,8
400,112,153737,1,2
472,144,153972,6,0,B|488:224,1,70,0|2
448,280,154440,1,8
392,224,154675,1,2
376,256,154792,1,2
360,288,154909,1,0
296,240,155143,2,0,C|264:320,1,70,2|8
208,256,155612,1,2
192,288,155729,1,2
176,320,155847,1,0
112,272,156081,2,0,C|72:368,1,70,2|8
192,352,156550,5,2
288,320,156784,1,0
344,232,157018,1,0
352,128,157253,1,8
248,128,157487,2,0,B|88:128,1,140,0|0
144,296,158425,1,2
224,296,158659,1,0
304,296,158893,1,0
384,296,159128,1,8
384,296,159362,2,0,B|448:248|440:144,1,140,0|0
272,176,160300,5,2
184,176,160534,1,0
96,176,160768,1,2
24,128,161003,1,8
40,48,161237,1,2
120,24,161472,2,0,B|264:24,1,140,0|8
260,24,162175,1,2
344,168,162643,1,0
224,288,163112,1,0
224,288,163347,2,0,B|256:344|336:360,2,105,0|0|0
304,256,164284,2,0,B|344:208|424:200,2,105,0|0|0
304,256,165222,5,0
176,192,165690,1,0
248,72,166159,1,0
368,136,166628,1,0
368,136,166862,1,2
368,136,167097,2,0,B|424:272,1,140
144,248,168034,2,0,B|88:104,1,140
144,64,168737,1,2
216,88,168972,2,0,B|280:64|360:88,1,140
288,152,169675,1,2
360,216,169909,2,0,B|296:240|216:216,1,140
288,152,170612,1,2
288,152,170847,2,0,B|144:152,3,140
72,152,172487,6,0,B|72:248,1,70,2|0
224,184,173190,2,2,B|224:280,1,70,0|2
224,254,173659,1,0
376,216,174128,1,0
376,216,174362,1,2
440,280,174597,2,0,B|464:208|440:136,1,140
376,216,175300,1,2
312,280,175534,2,0,B|288:208|312:136,1,140
376,216,176237,1,2
376,216,176472,5,0
192,312,177175,1,0
88,128,177878,1,0
264,24,178581,1,0
264,24,178815,2,0,B|432:24,1,140
360,288,179987,5,0
288,288,180222,5,0
216,288,180456,5,0
144,288,180690,5,0
256,192,180925,12,0,181628
256,192,181862,5,0
256,192,182331,5,0
256,192,182800,5,0
216,48,183972,6,0,B|384:48,1,140,4|8
424,328,185143,5,0
496,288,185378,1,8
464,208,185612,1,0
392,248,185847,2,0,B|232:248,1,140,0|8
88,56,187018,5,0
40,120,187253,1,8
112,168,187487,1,0
160,96,187722,2,0,B|320:96,1,140,0|8
392,328,188893,5,0
312,328,189128,1,8
232,328,189362,1,0
152,328,189597,2,0,B|184:160,1,140,0|8
424,200,190768,5,0
376,136,191003,1,8
320,80,191237,1,0
264,24,191472,2,0,C|112:24,1,140,0|8
56,248,192643,5,0
128,272,192878,1,8
200,296,193112,1,0
272,312,193347,2,0,C|432:312,1,140,0|8
120,328,194518,5,0
152,248,194753,1,8
184,168,194987,1,0
216,88,195222,2,0,C|368:88,1,140,0|8
296,296,196159,6,0,B|128:296,1,140,0|8
156,296,196862,1,0
87,246,197097,2,0,B|48:200|58:141,2,105,0|0|0
144,176,198034,2,0,B|183:222|173:281,2,105,0|0|0
192,96,198972,6,0,B|272:96,1,70,4|2
262,96,199440,1,8
352,96,199675,1,2
360,128,199792,1,2
368,160,199909,1,0
384,248,200143,1,2
296,272,200378,1,8
280,184,200612,2,0,B|192:184,1,70,2|0
248,264,201081,2,0,B|336:264,1,70,2|8
280,344,201550,5,2
248,344,201667,1,2
216,344,201784,1,0
120,344,202018,2,0,B|72:264,1,70,2|8
120,192,202487,2,0,B|168:120,1,70,2|0
248,104,202956,2,0,B|352:104,1,70,2|8
280,192,203425,1,2
248,192,203542,1,2
216,192,203659,1,0
248,280,203893,2,0,B|328:280,1,70,2|8
416,280,204362,2,0,B|472:224|448:128,1,140,2|2
452,150,205065,1,8
360,96,205300,5,2
256,128,205534,1,0
280,232,205768,1,2
384,208,206003,1,8
384,208,206237,2,0,B|384:360,1,140,2|2
280,336,206940,1,8
304,232,207175,5,2
272,232,207292,1,2
240,232,207409,1,0
136,232,207643,2,0,B|112:312,1,70,2|8
216,336,208112,2,0,B|280:360|376:328,1,140,2|2
353,334,208815,1,8
456,304,209050,5,2
368,240,209284,1,0
448,176,209518,1,2
360,112,209753,1,8
272,48,209987,1,2
272,48,210222,2,0,B|200:80|184:184,1,140,0|8
296,160,210925,2,0,B|280:248|208:288,1,140,2|0
225,276,211862,1,0
225,276,212097,5,4
80,192,212565,5,4
144,40,213034,5,4
312,48,213503,5,4
376,200,213972,5,4
