osu file format v10

[General]
AudioFilename: Hikari (TV Size).mp3
AudioLeadIn: 1000
PreviewTime: 6902
Countdown: 0
SampleSet: Soft
StackLeniency: 0.7
Mode: 0
LetterboxInBreaks: 0

[Editor]
DistanceSpacing: 0.8
BeatDivisor: 4
GridSize: 4

[Metadata]
Title:Hikari (TV Size)
TitleUnicode:ヒカリ (TV Size)
Artist:Horie Yui
ArtistUnicode:堀江由衣
Creator:Kawayi Rika
Version:Normal
Source:Inukami!
Tags:cRyo[iceeicee] alacat opening
BeatmapID:198634
BeatmapSetID:68082

[Difficulty]
HPDrainRate:4
CircleSize:3
OverallDifficulty:4
ApproachRate:5
SliderMultiplier:1.4
SliderTickRate:2

[Events]
//Background and Video events
0,0,"BG.jpg"
Video,833,"Hikari (TV Size).avi"
//Break Periods
//Storyboard Layer 0 (Background)
//Storyboard Layer 1 (Fail)
//Storyboard Layer 2 (Pass)
//Storyboard Layer 3 (Foreground)
//Storyboard Sound Samples
//Background Colour Transformations
3,100,163,162,255

[TimingPoints]
1157,416.666666666667,4,2,1,70,1,0
6990,-100,4,1,1,25,0,0
7198,-100,4,1,1,30,0,0
7407,-100,4,1,1,35,0,0
7615,-100,4,1,1,40,0,0
7823,-100,4,2,1,70,0,0
11157,-100,4,2,2,100,0,0
11261,-100,4,2,1,70,0,0
16469,-100,4,2,2,70,0,0
16677,-100,4,2,1,70,0,0
16990,-100,4,1,1,35,0,0
17823,-100,4,2,2,100,0,0
17927,-100,4,2,1,70,0,0
19802,-100,4,2,2,70,0,0
20011,-100,4,2,1,70,0,0
23136,-100,4,2,2,70,0,0
23344,-100,4,2,1,70,0,0
29490,-100,4,1,1,25,0,0
29907,-100,4,1,1,30,0,0
30323,-100,4,1,1,35,0,0
30740,-100,4,1,1,40,0,0
31157,-100,4,2,1,70,0,0
34490,-100,4,2,2,100,0,0
34594,-100,4,2,1,70,0,0
39802,-100,4,2,2,70,0,0
40011,-100,4,2,1,70,0,0
40636,-100,4,2,2,70,0,0
40844,-100,4,2,1,70,0,0
41157,-100,4,2,2,100,0,0
41261,-100,4,2,1,70,0,0
42823,-100,4,2,2,100,0,0
42927,-100,4,2,1,70,0,0
47823,-100,4,2,2,100,0,0
47927,-100,4,2,1,70,0,0
54490,-100,4,2,2,100,0,0
54594,-100,4,2,1,70,0,0
58136,-100,4,2,2,70,0,0
58344,-100,4,2,1,70,0,0
60636,-100,4,2,2,70,0,0
60844,-100,4,2,1,70,0,0
62823,-100,4,2,1,40,0,0
63657,-100,4,1,1,30,0,0
64073,-100,4,1,1,40,0,0
64490,-100,4,2,1,70,0,1
67823,-100,4,2,2,100,0,1
67927,-100,4,2,1,70,0,1
76157,-100,4,2,2,100,0,1
76261,-100,4,2,1,70,0,1
76990,-100,4,2,1,70,0,0
77823,-100,4,2,1,70,0,1
81157,-100,4,2,2,100,0,1
81261,-100,4,2,1,70,0,1
82302,-100,4,2,2,70,0,1
82511,-100,4,2,1,70,0,1
84282,-100,4,1,1,20,0,1
84907,-100,4,1,1,25,0,1
85740,-100,4,1,1,30,0,1
86573,-100,4,1,1,35,0,1
87198,-100,4,2,1,70,0,1
88240,-100,4,2,2,100,0,0
88344,-100,4,2,2,30,0,0
89490,-100,4,2,1,20,0,0
90740,-100,4,2,1,5,0,0

[Colours]
Combo1 : 13,18,208
Combo2 : 243,5,5
Combo3 : 17,179,33
Combo4 : 211,33,86
SliderBorder : 255,255,255

[HitObjects]
152,152,1157,2,0,P|204:96|292:92,2,140,2|0|2,0:0|0:0|0:0,0:0:0
256,192,2407,1,0,0:0:0
360,232,2823,2,0,P|308:288|220:292,2,140,2|0|2,0:0|0:0|0:0,0:0:0
372,120,4073,2,0,P|120:276,2,280
444,32,6157,6,0,P|374:32,1,70,2|0,0:0|0:0,0:0:0
320,32,6573,2,0,P|250:32,1,70,2|0,0:0|0:0,0:0:0
192,32,6990,2,0,P|48:32,2,140,0|0|4,0:0|0:0|0:0,0:0:0
120,120,8240,5,8,0:0:0
204,192,8657,1,0,0:0:0
120,264,9073,1,8,0:0:0
204,336,9490,2,0,P|276:336,1,70
332,336,9907,2,0,P|400:316|432:248,1,140,8|0,0:0|0:0,0:0:0
340,192,10740,1,8,0:0:0
431,125,11157,6,0,P|400:68|332:48,1,140,4|8,0:0|0:0,0:0:0
220,48,11990,2,0,P|148:48,1,70
148,104,12407,2,0,P|76:104,1,70,8|0,0:0|0:0,0:0:0
24,104,12823,2,0,P|24:198|24:198|56:230,1,140,0|8,0:0|0:0,0:0:0
148,296,13657,1,0,0:0:0
256,332,14073,1,8,0:0:0
364,296,14490,5,4,0:0:0
456,230,14907,2,0,P|488:198|488:198|488:104,2,140,8|0|8,0:0|0:0|0:0,0:0:0
363,167,16157,2,0,P|283:95|144:180,1,280
176,216,17198,2,0,P|236:276,1,70
288,264,17615,2,0,P|348:204,1,70,0|4,0:0|0:0,0:0:0
352,324,18240,5,8,0:0:0
352,324,18657,2,0,P|276:348,1,70
228,344,19073,2,0,P|161:322,1,70,8|0,0:0|0:0,0:0:0
108,300,19490,6,0,P|44:240|118:80,1,280
220,60,20740,2,0,P|304:60,2,70,8|0|0,0:0|0:0|0:0,0:0:0
256,168,21573,1,8,0:0:0
292,272,21990,2,0,P|216:272,2,70,0|0|8,0:0|0:0|0:0,0:0:0
348,288,22615,1,0,0:0:0
404,300,22823,6,0,P|468:240|394:80,1,280,0|0,0:0|0:0,0:0:0
296,52,24073,1,8,0:0:0
256,92,24282,1,0,0:0:0
216,52,24490,2,0,P|72:52,1,140,4|8,0:0|0:0,0:0:0
8,140,25323,2,0,P|152:140,1,140,0|8,0:0|0:0,0:0:0
76,228,26157,6,0,P|216:228,1,140,0|8,0:0|0:0,0:0:0
148,316,26990,2,0,P|244:316,1,70
276,316,27407,2,0,P|352:316|352:316|408:280,1,140,8|0,0:0|0:0,0:0:0
440,236,28032,1,0,0:0:0
476,192,28240,1,8,0:0:0
405,102,28657,2,0,P|352:68|352:68|276:68,1,140,0|8,0:0|0:0,0:0:0
164,68,29490,6,0,P|92:68,2,70
132,176,30323,2,0,P|200:176|200:176|212:224|300:224|312:176|312:176|380:176,1,280,0|4,0:0|0:0,0:0:0
348,284,31573,5,8,0:0:0
348,284,31782,2,0,P|256:328|156:272,1,210,0|8,0:0|0:0,0:0:0
56,252,32823,2,0,P|16:220|16:220|16:128,1,140,0|8,0:0|0:0,0:0:0
72,140,33448,1,0,0:0:0
128,148,33657,2,0,P|128:60|128:60|176:76|200:40,1,140,0|8,0:0|0:0,0:0:0
256,140,34490,5,4,0:0:0
333,59,34907,1,8,0:0:0
384,84,35115,2,0,P|448:104|480:168,1,140
480,220,35740,1,8,0:0:0
376,260,36157,5,0,0:0:0
296,340,36573,1,8,0:0:0
256,376,36782,1,2,0:0:0
136,260,37407,2,0,P|72:240|40:176,1,140,8|4,0:0|0:0,0:0:0
140,124,38240,5,8,0:0:0
192,140,38448,2,0,P|256:164|324:136,1,140
372,124,39073,2,0,P|396:100|440:92,1,70,8|0,0:0|0:0,0:0:0
416,144,39490,6,0,P|392:256|300:300,1,210
197,298,40532,2,0,P|120:256|96:144,1,210,0|4,0:0|0:0,0:0:0
200,100,41573,1,8,0:0:0
312,100,41990,1,0,0:0:0
256,196,42407,5,8,0:0:0
256,196,42615,1,0,0:0:0
256,196,42823,2,0,P|256:44,2,140,0|8|0,0:0|0:0|0:0,0:0:0
256,252,43865,1,0,0:0:0
256,308,44073,2,0,P|256:380,2,70,8|0|4,0:0|0:0|0:0,0:0:0
148,276,44907,6,0,P|60:276|60:276|4:304,1,140,8|0,0:0|0:0,0:0:0
48,192,45740,1,8,0:0:0
148,108,46157,2,0,P|60:108|60:108|4:80,2,140,0|8|0,0:0|0:0|0:0,0:0:0
256,84,47407,2,0,P|256:12,2,70,8|0|4,0:0|0:0|0:0,0:0:0
364,108,48240,6,0,P|452:108|452:108|508:80,2,140,8|0|8,0:0|0:0|0:0,0:0:0
288,192,49490,2,0,P|436:192,1,140,0|8,0:0|0:0,0:0:0
364,276,50323,2,0,P|452:276|452:276|508:304,2,140,0|8|4,0:0|0:0|0:0,0:0:0
256,308,51573,5,8,0:0:0
212,332,51782,2,0,P|136:336|84:284,1,140
56,248,52407,2,0,P|48:216|16:188,2,70,8|0|0,0:0|0:0|0:0,0:0:0
168,260,53240,2,0,P|184:196|144:120,1,140,8|0,0:0|0:0,0:0:0
256,80,54073,1,8,0:0:0
356,130,54490,2,0,P|328:196|344:260,2,140,4|8|0,0:0|0:0|0:0,0:0:0
452,192,55740,5,8,0:0:0
452,192,55948,1,0,0:0:0
452,192,56157,2,0,P|440:272,1,70
388,268,56573,2,0,P|376:348,1,70,8|0,0:0|0:0,0:0:0
320,340,56990,2,0,P|255:364|191:340,1,140,0|8,0:0|0:0,0:0:0
88,296,57823,6,0,P|-6:191|-6:191|96:80,1,280,4|0,0:0|0:0,0:0:0
128,192,59073,1,8,0:0:0
240,192,59490,2,0,P|312:192,1,70,4|0,0:0|0:0,0:0:0
332,272,59907,2,0,P|392:192|312:108,2,210,8|0|4,0:0|0:0|0:0,0:0:0
404,356,61573,6,0,P|460:312|484:248,1,140,8|0,0:0|0:0,0:0:0
483,134,62407,2,0,P|460:72|404:28,1,140,8|8,0:0|0:0,0:0:0
292,28,63240,1,8,0:0:0
192,76,63657,2,0,P|112:76,1,70,0|0,0:0|0:0,0:0:0
120,132,64073,2,0,P|40:132,1,70,0|0,0:0|0:0,0:0:0
24,176,64490,5,4,0:0:0
24,176,64698,1,0,0:0:0
24,176,64907,2,0,P|60:220|60:220|112:220|148:272,1,140,8|0,0:0|0:0,0:0:0
192,352,65740,1,8,0:0:0
192,352,65948,2,0,P|256:328|320:352,1,140
320,352,66573,1,8,0:0:0
378,253,66990,2,0,P|400:220|452:220|452:220|488:176,1,140,0|8,0:0|0:0,0:0:0
488,120,67615,1,0,0:0:0
444,84,67823,6,0,P|376:64|304:80,1,140,4|8,0:0|0:0,0:0:0
256,100,68448,1,0,0:0:0
202,77,68657,2,0,P|136:64|68:84,1,140,0|8,0:0|0:0,0:0:0
44,192,69490,2,0,P|100:184|104:252|172:244,1,140,0|8,0:0|0:0,0:0:0
164,356,70323,2,0,P|228:363|232:295|288:303,1,140,0|8,0:0|0:0,0:0:0
340,324,70948,1,0,0:0:0
392,348,71157,6,0,P|404:260|444:248,1,140,4|8,0:0|0:0,0:0:0
456,192,71782,1,0,0:0:0
442,135,71990,2,0,P|404:124|392:36,1,140,0|8,0:0|0:0,0:0:0
280,40,72823,1,0,0:0:0
168,56,73240,1,8,0:0:0
84,132,73657,2,0,P|16:84,2,70,0|0|8,0:0|0:0|0:0,0:0:0
52,176,74282,6,0,P|176:264,1,140
132,300,74907,1,8,0:0:0
228,356,75323,2,0,P|304:356,1,70
300,300,75740,2,0,P|440:300,1,140,8|4,0:0|0:0,0:0:0
476,192,76573,2,0,P|400:192,1,70,8|0,0:0|0:0,0:0:0
348,192,76990,2,0,P|324:128|356:60,2,140,0|8|4,0:0|0:0|0:0,0:0:0
256,256,78240,5,8,0:0:0
164,192,78657,2,0,P|188:128|156:60,2,140,0|8|0,0:0|0:0|0:0,0:0:0
80,268,79907,2,0,P|48:216|72:140,2,140,8|0|8,0:0|0:0|0:0,0:0:0
148,356,81157,6,0,P|232:328,1,70,4|0,0:0|0:0,0:0:0
264,364,81573,2,0,P|348:336,1,70,8|0,0:0|0:0,0:0:0
384,320,81990,2,0,P|504:316|472:184,1,280
448,84,83240,2,0,P|376:84|376:84|312:108,1,140,8|0,0:0|0:0,0:0:0
199,108,84073,2,0,P|135:84|135:84|64:84,1,140,8|0,0:0|0:0,0:0:0
84,196,84907,1,0,0:0:0
84,196,85323,6,0,P|232:340|429:185,2,490,0|0|4,0:0|0:0|0:0,0:0:0
256,192,88344,12,0,90740,0:0:0
