osu file format v9

[General]
AudioFilename: Inukami_-_Hikari_TV_Size [-Sekai-].mp3
AudioLeadIn: 2000
PreviewTime: 63538
Countdown: 0
SampleSet: Soft
StackLeniency: 0.7
Mode: 0
LetterboxInBreaks: 0

[Editor]
Bookmarks: 30621
DistanceSpacing: 0.8
BeatDivisor: 4
GridSize: 4

[Metadata]
Title:Hikari (TV Size)
Artist:Horie Yui
Creator:-Sekai-
Version:Saten
Source:Inukami!
Tags:Fiya Saten-san Saten DarknessAngel opening

[Difficulty]
HPDrainRate:7
CircleSize:4
OverallDifficulty:7
ApproachRate:8
SliderMultiplier:2
SliderTickRate:2

[Events]
//Background and Video events
0,0,"27996.jpg"
Video,0,"Inukami op.avi"
//Break Periods
//Storyboard Layer 0 (Background)
//Storyboard Layer 1 (Fail)
//Storyboard Layer 2 (Pass)
//Storyboard Layer 3 (Foreground)
//Storyboard Sound Samples
//Background Colour Transformations
3,100,163,162,255

[TimingPoints]
218,416.666666666667,4,2,0,90,1,0
426,-100,4,2,0,70,0,0
5218,-100,4,2,0,71,0,0
5322,-100,4,2,0,72,0,0
5426,-100,4,2,0,73,0,0
5530,-100,4,2,0,74,0,0
5634,-100,4,2,0,75,0,0
5738,-100,4,2,0,76,0,0
5843,-100,4,2,0,77,0,0
5947,-100,4,2,0,78,0,0
6051,-100,4,2,0,80,0,0
6155,-100,4,2,0,82,0,0
6259,-100,4,2,0,84,0,0
6363,-100,4,2,0,86,0,0
6468,-100,4,2,0,88,0,0
6572,-100,4,2,0,90,0,0
6676,-100,4,2,0,92,0,0
6780,-100,4,2,0,94,0,0
6988,-100,4,1,0,60,0,0
30218,-100,4,2,0,80,0,0
62718,-100,4,1,0,60,0,0
63551,-100,4,1,0,60,0,1
83551,-100,4,1,0,60,0,1
83655,-100,4,2,0,80,0,1
86884,-100,4,2,0,80,0,0
89176,-100,4,2,0,5,0,0

[Colours]
Combo1 : 111,183,255
Combo2 : 0,176,0
Combo3 : 136,255,136
Combo4 : 255,145,200

[HitObjects]
256,340,218,1,4
344,292,426,1,0
340,192,634,1,0
256,136,843,5,2
220,136,947,1,0
188,152,1051,1,0
168,180,1155,1,0
164,216,1259,1,0
256,256,1468,5,2
252,292,1572,1,0
232,320,1676,1,0
200,336,1780,1,0
164,336,1884,1,0
88,272,2093,5,2
88,236,2197,1,0
88,200,2301,1,0
88,164,2405,1,0
88,128,2509,1,0
156,56,2718,6,0,B|256:56,1,100,2|0
256,56,3030,2,0,B|320:132,1,100,0|0
320,132,3343,2,0,B|320:232,1,100,2|4
404,288,3759,6,0,B|484:228,1,100
484,228,4072,1,2
484,228,4176,2,0,B|420:152,1,100,2|0
320,132,4593,5,0
292,132,4697,1,0
264,140,4801,1,2
240,160,4905,1,0
224,188,5009,1,0
220,216,5113,1,0
200,236,5218,5,2
172,244,5322,1,0
144,236,5426,1,2
124,216,5530,1,0
116,188,5634,1,2
120,160,5738,1,0
140,136,5843,1,2
164,120,5947,1,0
184,96,6051,5,2
188,68,6155,1,0
176,40,6259,1,2
148,32,6363,1,0
116,32,6468,1,2
88,44,6572,1,0
68,68,6676,1,2
60,96,6780,1,0
68,124,6884,6,0,B|160:160,1,100,4|0
256,136,7301,2,0,B|256:36,1,100,8|0
444,124,7718,2,0,B|352:160,1,100,0|0
256,192,8134,1,8
160,224,8343,5,0
352,224,8551,1,0
200,108,8759,1,0
312,108,8968,1,8
256,192,9176,1,0
256,292,9384,2,0,B|280:336|332:352|388:344|432:308,1,200,0|8
472,216,10009,1,0
408,140,10218,6,0,B|312:108,1,100,4|0
360,196,10634,2,0,B|259:202,1,100,8|0
336,268,11051,2,0,B|244:311,1,100
148,324,11468,1,8
116,232,11676,1,0
124,132,11884,5,0
144,112,11988,1,0
168,96,12092,1,0
196,92,12197,1,0
224,96,12301,1,8
256,192,12509,1,0
288,288,12717,5,0
316,292,12822,1,0
344,288,12926,1,0
368,272,13030,1,0
388,252,13134,1,8
396,152,13342,1,0
344,64,13551,22,0,B|272:72|268:120|264:164|184:168,1,200,4|8
92,132,14176,1,0
144,48,14384,1,0
172,36,14488,1,0
200,32,14592,1,0
228,36,14697,1,0
256,48,14801,2,0,B|256:148,1,100,8|0
256,248,15217,5,0
324,156,15426,1,0
188,156,15634,1,8
384,60,15842,1,0
128,60,16051,38,0,B|112:40,7,25
84,40,16468,6,0,B|36:40,3,50,8|0|0|0
8,64,16884,21,4
8,88,16988,1,0
8,112,17092,1,0
8,136,17197,1,0
8,160,17301,1,8
156,192,17509,5,0
156,192,17613,1,0
156,192,17717,2,0,B|256:192,1,100
356,124,18030,2,0,B|256:124,1,100,8|0
100,240,18447,5,0
100,240,18551,2,0,B|116:284|168:308,1,100
400,352,18968,1,8
256,212,19176,1,0
456,192,19384,6,0,B|488:156|468:92,1,100
279,127,19697,2,0,B|328:152|376:140,1,100,8|0
340,48,20009,2,0,B|296:24|240:32,1,100
243,31,20322,1,0
243,31,20426,1,0
208,188,20634,5,8
60,160,20843,1,0
128,28,21051,2,0,B|208:88,1,100
208,88,21363,2,0,B|207:187,1,100,8|0
256,276,21780,5,0
256,276,21884,2,0,B|352:256,1,100
384,160,22301,2,0,B|344:68,1,100,8|0
256,120,22718,2,0,B|256:220,1,100
256,220,23030,2,0,B|168:268,1,100,8|0
168,267,23343,2,0,B|76:232,1,100,0|4
75,231,23655,1,0
75,231,23759,1,0
52,132,23968,5,8
136,76,24176,1,0
176,168,24384,2,0,B|168:268,1,100
256,320,24697,2,0,B|256:220,1,100,8|0
348,100,25113,5,0
348,100,25218,1,0
348,100,25322,1,0
348,100,25426,2,0,B|440:140,1,100,0|8
404,236,25843,1,0
304,220,26051,6,0,B|252:220|212:180,1,100
224,56,26363,2,0,B|284:72|292:120,1,100,8|0
304,220,26676,2,0,B|300:268|348:304,1,100
348,304,26988,1,0
348,304,27093,1,0
444,268,27301,1,8
432,168,27509,1,0
348,112,27718,6,0,B|248:112,1,100
248,112,28030,2,0,B|172:176,1,100,8|0
171,176,28343,2,0,B|172:276,1,100
172,276,28655,1,0
172,276,28759,1,0
256,332,28968,5,8
339,276,29176,1,0
340,176,29384,1,0
332,148,29488,1,0
316,120,29593,1,0
296,100,29697,1,0
268,92,29801,1,8
240,92,29905,1,0
212,104,30009,6,0,B|200:124,4,25,0|0|0|0|4
256,368,30634,5,2
356,360,30843,1,2
356,360,30947,1,0
356,360,31051,2,0,B|440:304,1,100
356,244,31468,2,0,B|256:244,1,100,2|0
172,192,31884,5,2
160,164,31988,1,0
156,132,32093,1,0
164,104,32197,1,0
184,84,32301,1,2
212,72,32405,1,0
240,72,32509,1,2
268,84,32613,1,0
288,104,32718,1,0
292,132,32822,1,0
280,160,32926,1,0
256,180,33030,1,0
228,192,33134,6,0,B|220:168,7,25,2|0|0|0|0|0|0|0
215,145,33551,6,0,B|184:98|134:80|76:85|44:128,1,200,4|0
65,339,34176,2,0,B|128:328|160:292|160:224|120:192,1,200,2|0
44,127,34801,1,2
124,68,35009,1,0
216,112,35218,5,2
232,136,35322,1,0
248,160,35426,1,0
264,184,35530,1,0
280,208,35634,1,0
380,192,35843,1,2
408,96,36051,5,0
380,84,36155,1,0
352,72,36259,1,0
324,60,36363,1,0
296,52,36468,1,2
216,112,36676,2,0,B|216:160,2,50,0|0|4
124,68,37093,5,0
124,68,37197,1,0
124,68,37301,1,2
68,152,37509,2,0,B|52:252,2,100,2|0|0
156,204,38134,1,2
256,192,38343,1,0
300,104,38551,6,0,B|348:80|396:88,1,100,2|0
396,88,38863,1,0
396,88,38968,1,0
456,168,39176,1,2
432,264,39384,1,0
344,312,39593,1,0
344,312,39697,1,0
344,312,39801,2,0,B|276:240,1,100,2|0
136,228,40217,6,0,B|124:289|144:329|208:353|256:337,1,200,2|0
276,240,40842,1,2
256,144,41051,1,0
160,116,41259,1,0
160,116,41363,1,0
160,116,41467,2,0,B|64:144,1,100,2|0
32,240,41884,5,2
40,268,41988,1,0
60,292,42092,1,0
88,300,42197,1,0
116,296,42301,1,0
192,232,42509,5,2
216,216,42613,1,0
244,204,42717,1,0
272,204,42822,1,0
300,212,42926,1,2
324,228,43030,1,0
352,240,43134,1,2
380,240,43238,1,0
408,228,43342,6,0,B|404:128,1,100,0|4
340,28,43759,1,0
172,28,43968,1,2
256,80,44176,2,0,B|256:280,1,200,2|0
192,360,44801,1,2
100,320,45009,1,0
124,224,45217,5,2
132,196,45322,1,0
144,168,45426,1,0
156,140,45530,1,0
168,112,45634,1,0
256,64,45842,1,2
344,112,46051,5,0
356,140,46155,1,0
368,168,46259,1,0
380,196,46363,1,0
388,224,46467,1,2
340,312,46676,2,0,B|300:340,2,50,0|0|4
308,216,47092,5,0
216,180,47301,1,2
116,192,47509,1,2
116,192,47613,1,0
116,192,47717,2,0,B|88:288,1,100
180,324,48134,2,0,B|272:288,1,100,2|0
308,192,48551,5,2
304,164,48655,1,0
288,140,48759,1,0
264,124,48863,1,0
236,120,48967,1,2
144,80,49176,5,2
164,56,49280,1,0
188,40,49384,1,0
216,32,49488,1,0
248,32,49592,1,2
276,40,49697,1,0
304,52,49801,1,2
324,76,49905,1,0
328,104,50009,2,0,B|312:152|256:168,1,100,0|4
156,156,50426,5,0
80,220,50634,1,2
144,312,50842,1,2
144,312,50947,1,0
144,312,51051,2,0,B|240:332,1,100
332,284,51467,2,0,B|372:192,1,100,2|0
272,192,51884,5,2
244,184,51988,1,0
216,168,52092,1,0
196,144,52197,1,0
192,116,52301,1,0
292,100,52509,5,2
288,72,52613,1,0
268,48,52717,1,0
240,32,52822,1,0
212,24,52926,1,2
184,28,53030,1,0
156,36,53134,1,0
132,52,53238,1,0
116,80,53342,2,0,B|116:180,1,100,0|2
192,244,53759,5,0
192,244,53863,1,0
192,244,53967,1,2
276,192,54176,1,0
276,192,54280,1,0
276,192,54384,2,0,B|360:248,1,100,2|0
376,348,54801,5,2
136,348,55009,1,0
328,304,55217,1,2
184,304,55426,1,2
256,232,55634,1,0
200,148,55842,1,2
200,148,55947,1,0
200,148,56051,2,0,B|160:116|100:108|56:136|36:192,1,200,0|2
68,284,56676,5,2
96,296,56780,1,0
124,296,56884,1,4
152,288,56988,1,2
176,272,57092,1,2
192,248,57197,1,0
200,220,57301,1,2
240,108,57509,5,2
256,80,57613,1,2
284,64,57717,1,2
312,64,57822,1,0
340,80,57926,1,2
356,104,58030,1,0
356,132,58134,1,2
276,192,58342,1,0
192,136,58551,5,6
164,136,58655,1,2
136,148,58759,1,2
116,172,58863,1,0
108,200,58967,1,2
172,280,59176,2,0,B|220:280,2,50,0|0|2
72,280,59592,5,2
24,192,59801,2,0,B|56:96,1,100,2|2
196,48,60217,2,0,B|256:128,1,100,6|0
332,192,60634,1,2
428,160,60842,5,2
456,164,60947,1,2
480,184,61051,1,2
492,212,61155,1,2
488,240,61259,1,2
472,264,61363,1,0
452,284,61467,2,0,B|352:284,1,100,2|0
352,284,61780,1,0
352,284,61884,5,2
256,108,62301,1,2
160,284,62717,5,0
148,264,62822,1,0
136,244,62926,1,0
124,224,63030,1,0
112,204,63134,1,0
100,184,63238,1,0
88,160,63342,1,0
76,140,63447,1,0
64,120,63551,6,0,B|68:68|112:32,1,100,4|0
204,64,63967,1,8
256,148,64176,1,0
256,248,64384,1,0
256,248,64488,1,0
256,248,64592,1,0
156,260,64801,2,0,B|97:263|65:227,1,100,8|0
136,100,65217,6,0,B|186:120|198:172,1,100
198,172,65530,1,0
198,172,65634,1,8
256,312,65842,1,0
364,252,66051,1,0
364,224,66155,1,0
364,196,66259,1,0
364,168,66363,1,0
364,136,66467,1,8
304,52,66676,1,0
256,140,66884,6,0,B|256:240,1,100
156,352,67301,2,0,B|104:268,1,100,8|0
112,116,67717,1,0
192,244,67926,1,0
256,108,68134,1,8
320,244,68342,2,0,B|376:232|400:188,1,100
388,88,68759,5,0
388,88,68863,1,0
388,88,68967,2,0,B|300:44,1,100,8|0
200,36,69384,1,0
176,40,69488,1,0
156,52,69592,1,0
136,68,69697,1,0
124,88,69801,1,8
148,184,70009,5,0
148,184,70113,1,0
148,184,70217,2,0,B|244:156,1,100,4|0
68,148,70634,2,0,B|68:248,1,100,8|0
148,308,71051,1,0
240,272,71259,1,0
284,180,71467,1,8
224,100,71676,5,0
200,92,71780,1,0
176,92,71884,1,0
152,100,71988,1,0
132,116,72092,2,0,B|132:216,1,100,0|8
192,296,72509,1,0
260,224,72717,5,0
240,212,72822,1,0
220,200,72926,1,0
200,188,73030,1,0
180,176,73134,2,0,B|80:176,1,100,8|0
32,88,73551,2,0,B|128:48,1,100
224,48,73967,1,8
364,192,74384,5,0
308,276,74592,1,0
256,192,74801,1,8
204,276,75009,1,0
148,192,75217,5,0
148,192,75322,2,0,B|148:92,1,100
148,92,75634,2,0,B|236:48,1,100,8|0
237,47,75947,1,0
237,47,76051,5,0
432,92,76467,1,8
336,268,76884,2,0,B|288:260|256:212,1,100,4|0
305,74,77301,2,0,B|344:116|344:164,1,100,8|0
256,212,77717,1,0
256,212,77822,1,0
256,212,77926,2,0,B|164:172,1,100,0|8
204,40,78342,6,0,B|304:40,1,100
356,128,78759,2,0,B|256:128,1,100,0|8
164,172,79176,1,0
164,172,79280,1,0
164,172,79384,2,0,B|200:268,1,100
296,288,79801,5,8
256,92,80009,1,0
80,192,80218,2,0,B|80:240|136:268,1,100
259,191,80634,2,0,B|216:164|164:172,1,100,8|0
136,268,81051,1,0
236,288,81259,1,0
260,192,81468,1,8
208,108,81676,5,0
208,108,81780,1,0
208,108,81884,2,0,B|112:80,1,100
44,152,82301,2,0,B|64:248,1,100,8|0
160,272,82718,1,0
184,264,82822,1,0
208,256,82926,1,0
232,248,83030,1,0
256,240,83134,2,0,B|256:140,1,100,8|0
308,52,83551,5,4
324,44,83655,1,0
344,40,83759,1,0
364,40,83863,1,0
384,44,83968,1,2
404,52,84072,1,0
420,64,84176,1,2
428,80,84280,1,0
432,100,84384,5,0
428,120,84488,1,0
416,136,84593,1,2
400,148,84697,1,0
384,156,84801,1,2
364,160,84905,1,0
344,160,85009,1,2
328,152,85113,1,0
312,140,85218,5,0
296,132,85322,1,0
276,128,85426,1,2
256,128,85530,1,0
236,136,85634,1,2
220,148,85738,1,0
208,164,85843,1,0
204,184,85947,1,0
212,200,86051,5,2
228,212,86155,1,0
248,216,86259,1,2
268,212,86363,1,0
284,200,86468,2,0,B|284:100,1,100,2|4
84,84,87093,5,4
84,84,87301,1,4
256,192,87509,12,0,89384
