osu file format v9

[General]
AudioFilename: Inukami_-_Hikari_TV_Size [-Sekai-].mp3
AudioLeadIn: 2000
PreviewTime: 63538
Countdown: 0
SampleSet: Soft
StackLeniency: 0.7
Mode: 0
LetterboxInBreaks: 0

[Editor]
Bookmarks: 30621
DistanceSpacing: 1
BeatDivisor: 4
GridSize: 4

[Metadata]
Title:Hikari (TV Size)
Artist:Horie Yui
Creator:-Sekai-
Version:Normal
Source:Inukami!
Tags:Fiya Saten-san Saten DarknessAngel opening

[Difficulty]
HPDrainRate:4
CircleSize:4
OverallDifficulty:4
ApproachRate:5
SliderMultiplier:1
SliderTickRate:1

[Events]
//Background and Video events
0,0,"27996.jpg"
Video,0,"Inukami op.avi"
//Break Periods
//Storyboard Layer 0 (Background)
//Storyboard Layer 1 (Fail)
//Storyboard Layer 2 (Pass)
//Storyboard Layer 3 (Foreground)
//Storyboard Sound Samples
//Background Colour Transformations
3,100,163,162,255

[TimingPoints]
218,416.666666666667,4,2,1,70,1,0
6884,-100,4,1,1,60,0,0
30634,-100,4,2,1,70,0,0
63551,-100,4,1,1,50,0,1
83134,-100,4,1,1,50,0,1
86884,-100,4,2,1,30,0,0
89176,-100,4,2,0,5,0,0

[Colours]
Combo1 : 111,183,255
Combo2 : 0,176,0
Combo3 : 136,255,136
Combo4 : 255,145,200

[HitObjects]
128,56,218,2,0,B|72:88|72:152,1,100,4|0
160,184,1051,1,2
136,280,1468,2,0,B|80:264|64:200,1,100,0|2
160,184,2301,1,0
136,88,2718,1,2
216,32,3134,1,0
312,64,3551,6,0,B|368:40,2,50,4|0|2
264,152,4384,2,0,B|312:184|312:256,1,100,0|2
256,192,5218,12,2,6468
256,56,6884,5,4
352,80,7301,2,0,B|400:112|408:168,2,100,8|0|8
288,160,8551,1,4
272,256,8968,2,0,B|232:312|144:264|88:336,1,200,8|8
48,240,10218,6,0,B|24:184|64:136,1,100,4|8
152,160,11051,2,0,B|152:112|192:72,1,100,0|8
296,64,11884,1,4
344,64,12092,1,0
392,72,12301,2,0,B|448:80|464:144|448:224|376:216,1,200,8|8
296,256,13551,5,4
232,336,13967,1,8
176,256,14384,1,0
80,272,14801,2,0,B|80:216|120:184,1,100,8|4
208,144,15634,1,8
304,112,16051,2,0,B|288:79|280:64|224:56,2,100,0|8|4
392,160,17301,5,8
432,248,17717,1,0
368,328,18134,1,8
272,296,18551,2,0,B|232:328|176:328,1,100,0|8
80,324,19384,2,0,B|96:268|160:252,1,100,0|8
224,192,20218,5,4
144,128,20634,2,0,B|95:121|63:73,2,100,8|0|8
224,192,21884,1,4
320,168,22301,2,0,B|344:152|384:160,2,50,8|0|0
320,272,23134,1,8
224,288,23551,6,0,B|136:296|112:192|32:192,1,200,4|0
8,104,24801,1,8
80,40,25218,2,0,B|138:37|162:141|250:133,1,200,4|0
344,112,26468,1,8
432,152,26884,5,4
424,248,27301,2,0,B|416:304|416:304|384:320|376:352,2,100,8|0|8
328,224,28551,1,4
328,224,28759,1,0
328,224,28968,1,8
232,248,29384,2,0,B|176:272|128:224,2,100,0|8|4
260,152,30634,6,0,B|260:96|332:80|396:80|420:144,1,200,2|2
344,208,31884,1,4
428,260,32301,2,0,B|428:316|356:332|292:332|268:268,1,200,2|2
252,184,33551,1,4
160,220,33968,6,0,B|152:156|204:116,1,100,2|0
164,36,34801,2,0,B|228:32|268:88,1,100,2|4
352,64,35634,1,2
452,60,36051,1,0
448,160,36468,1,2
448,208,36676,1,0
448,256,36884,1,4
352,288,37301,6,0,B|300:316|240:304|212:248|232:192,1,200,2|2
192,104,38551,2,0,B|243:76|308:84|331:144|312:197,1,200,4|2
408,212,39801,1,0
408,312,40217,6,0,B|364:260|260:288|228:228,1,200,4|2
324,192,41467,1,0
416,156,41884,2,0,B|386:99|282:127|238:75,2,200,4|2|4
408,256,43967,6,0,B|400:312|340:328,1,100,2|0
260,316,44801,2,0,B|280:256|352:248,1,100,2|4
396,176,45634,1,2
412,128,45842,1,0
384,88,46051,1,0
284,80,46467,2,0,B|228:56|184:84,1,100,2|4
120,156,47301,5,2
120,256,47717,1,0
208,304,48134,1,2
308,304,48551,2,0,B|292:212|200:220|200:220|224:136|168:76,1,300,4|0
268,44,50217,5,4
364,76,50634,2,0,B|411:95|434:149|434:149|415:210|376:224,1,200,2|2
276,228,51884,1,4
192,172,52301,2,0,B|132:156|80:172,2,100,2|0|2
276,228,53551,6,0,B|340:228|372:260|372:260|408:232|480:232,1,200,4|2
444,136,54801,1,0
468,40,55217,2,0,B|404:24|364:60,1,100,4|2
304,128,56051,1,0
232,64,56467,2,4,B|200:34|136:50,2,100,2|4|2
176,148,57717,1,0
76,152,58134,6,0,B|88:200|88:200|132:240,1,100,2|4
204,296,58967,1,2
284,236,59384,2,2,B|321:202|321:202|333:154,1,100,0|2
416,88,60217,1,4
256,192,60634,12,4,61884
352,140,62717,5,0
268,88,63134,1,2
176,52,63551,6,0,B|108:68|104:140,1,100,4|8
104,216,64384,1,0
132,312,64801,1,8
208,244,65217,1,4
216,144,65634,2,0,B|252:96|324:104,2,100,8|0|8
276,224,66884,5,4
376,228,67301,1,8
276,224,67717,2,0,B|232:268|168:268,1,100,0|8
96,232,68551,2,0,B|140:188|204:188,2,100,4|8|0
180,288,69801,1,8
268,240,70217,5,4
340,312,70634,1,8
404,232,71051,2,0,B|420:176|392:136,1,100,0|8
308,84,71884,1,4
208,84,72301,2,0,B|152:84,2,50,8|0|0
256,176,73134,1,8
256,224,73342,1,0
256,276,73551,1,4
256,192,73759,12,4,75217
348,188,76051,5,0
296,104,76467,1,8
196,88,76884,6,0,B|152:64|92:72,1,100,4|8
56,160,77717,1,0
112,244,78134,1,8
204,280,78551,2,0,B|228:232|292:208,2,100,4|8|0
300,308,79801,1,8
400,316,80218,5,4
472,248,80634,1,8
448,152,81051,2,0,B|396:176|392:228|392:228|344:192|284:220,1,200,0|4
200,248,82301,2,0,B|180:188|216:152,2,100,8|0|8
272,316,83551,5,4
360,276,83968,2,0,B|392:224|376:160,1,100,8|0
324,96,84801,1,8
324,96,85009,1,0
232,60,85426,1,4
232,60,85634,2,0,B|168:68|152:128,2,100,8|0|8
256,192,86884,12,0,89384
