osu file format v9

[General]
AudioFilename: Inukami_-_Hikari_TV_Size [-Sekai-].mp3
AudioLeadIn: 2000
PreviewTime: 63538
Countdown: 0
SampleSet: Soft
StackLeniency: 0.7
Mode: 0
LetterboxInBreaks: 0

[Editor]
Bookmarks: 30621
DistanceSpacing: 1
BeatDivisor: 4
GridSize: 4

[Metadata]
Title:Hikari (TV Size)
Artist:Horie Yui
Creator:-Sekai-
Version:Hard
Source:Inukami!
Tags:Fiya Saten-san Saten DarknessAngel opening

[Difficulty]
HPDrainRate:5
CircleSize:4
OverallDifficulty:5
ApproachRate:7
SliderMultiplier:1.6
SliderTickRate:1

[Events]
//Background and Video events
0,0,"27996.jpg"
Video,0,"Inukami op.avi"
//Break Periods
//Storyboard Layer 0 (Background)
//Storyboard Layer 1 (Fail)
//Storyboard Layer 2 (Pass)
//Storyboard Layer 3 (Foreground)
//Storyboard Sound Samples
//Background Colour Transformations
3,100,163,162,255

[TimingPoints]
218,416.666666666667,4,2,1,70,1,0
6884,-100,4,1,1,50,0,0
30634,-100,4,2,1,70,0,0
63551,-100,4,1,1,50,0,1
86884,-100,4,2,1,30,0,0
89176,-100,4,2,0,5,0,0

[Colours]
Combo1 : 111,183,255
Combo2 : 0,176,0
Combo3 : 136,255,136
Combo4 : 255,145,200

[HitObjects]
80,64,218,1,4
32,128,426,1,0
60,204,634,2,0,B|76:268|132:268|148:340,1,160,2|0
144,176,1468,2,0,B|198:138|177:85|239:45,1,160,2|0
280,116,2093,1,2
440,124,2509,1,0
468,200,2718,1,2
312,288,3134,1,2
312,288,3343,1,0
312,288,3551,6,0,B|232:296|208:224|136:224,1,160,4|0
104,176,4176,1,2
204,52,4593,2,0,B|244:24|313:41,1,80,0|0
296,116,5009,1,0
352,56,5218,6,0,B|392:72|400:120,3,80
328,128,6051,2,0,B|296:184,3,40
268,172,6468,2,0,B|228:224,4,40
260,84,7093,5,0
188,52,7301,1,8
112,80,7509,1,0
84,156,7718,2,0,B|132:212|188:196|220:260,1,160,0|8
292,264,8343,1,0
356,220,8551,5,4
372,140,8759,1,0
436,92,8968,2,0,B|421:59|357:59|357:59|292:12,1,160,8|0
224,40,9593,1,0
152,76,9801,1,8
80,44,10009,1,0
152,76,10218,5,4
104,140,10426,2,0,B|88:212|120:244,1,80,0|8
172,264,10843,2,0,B|188:192|156:160,1,80
236,136,11259,1,0
292,192,11468,1,8
336,128,11676,1,0
384,192,11884,5,4
428,260,12092,2,0,B|432:304|400:348,1,80,0|8
328,348,12509,1,0
248,332,12717,2,0,B|248:260|184:236|200:172,1,160,0|8
276,152,13342,1,0
296,76,13551,5,4
224,40,13759,1,0
152,72,13967,2,0,B|120:128|40:96|8:168,1,160,8|0
88,192,14592,1,0
80,272,14801,1,8
136,328,15009,1,0
216,336,15217,6,0,B|216:272|216:272|208:240|208:240|208:176,1,160,4|8
288,192,15842,1,0
280,112,16051,1,0
344,64,16259,1,0
380,84,16363,1,0
408,112,16467,2,0,B|444:128|440:184,2,80
344,64,17092,5,0
344,64,17197,1,0
344,64,17301,2,0,B|280:32|224:80|160:40,1,160,8|0
120,88,17926,1,0
56,136,18134,1,8
56,136,18342,1,0
136,156,18551,6,0,B|168:196|240:196|280:244,2,160,4|8|0
136,156,19593,1,0
200,96,19801,1,8
232,120,19905,1,0
264,144,20009,1,0
312,80,20218,6,0,B|344:120|416:120|448:160,2,160,4|8|0
152,48,21468,2,0,B|88:48|64:88,1,80,8|0
120,136,21884,6,0,B|88:168|88:216,1,80,4|0
168,216,22301,2,0,B|160:256|200:304,2,80,8|0|0
248,200,22926,1,0
272,200,23030,1,0
296,200,23134,2,0,B|352:192|376:152|448:136,1,160,8|4
392,72,23759,5,0
312,64,23968,2,0,B|256:64|232:40|232:40|208:64|138:64,1,160,8|0
104,112,24593,1,0
104,112,24697,1,0
104,112,24801,2,0,B|56:152|56:224|128:256,1,160,8|4
152,176,25426,6,0,B|232:120,1,80,0|8
264,192,25843,2,0,B|336:144,1,80
284,84,26259,1,0
284,84,26468,2,0,B|332:52|396:76|420:132|388:172,1,160,8|4
400,232,27093,5,0
400,232,27301,1,8
336,288,27509,2,0,B|304:312|232:288,1,80
184,280,27926,2,0,B|136:264|128:216,1,80,0|8
104,152,28343,1,0
80,72,28551,5,4
104,40,28655,1,0
144,32,28759,1,0
184,48,28863,1,0
208,80,28968,1,8
224,120,29072,1,0
248,152,29176,2,0,B|288:176,10,40,0|0|0|0|0|0|8|0|0|0|4
384,232,30634,6,0,B|392:328|280:352,1,160,2|0
288,264,31259,1,0
312,184,31468,2,0,B|216:176|192:288,1,160,2|4
120,248,32093,1,0
40,256,32301,2,0,B|32:192|88:168|88:168|104:104,1,160,2|0
152,56,32926,1,0
152,56,33134,1,2
228,32,33343,1,0
304,56,33551,1,4
408,176,33968,6,0,B|336:144|248:168,1,160,2|0
224,244,34593,1,0
224,324,34801,1,2
144,324,35009,1,0
144,240,35218,6,0,B|116:160|152:81,2,160,4|2|0
224,244,36259,1,0
224,244,36468,1,2
244,168,36676,1,0
320,144,36884,1,4
376,296,37301,6,0,B|304:272|304:272|288:312|240:328,1,160,2|0
224,244,37926,1,0
136,224,38134,1,2
112,144,38343,1,0
32,160,38551,6,0,B|24:112|40:64|112:48|144:72,1,160,4|2
205,50,39176,2,0,B|213:95|197:143|125:159|112:144,1,160,0|0
32,160,39801,1,2
40,240,40009,1,0
120,256,40217,6,0,B|184:272|224:240|288:248,1,160,4|2
280,168,40842,1,0
280,88,41051,2,0,B|225:95|185:63|121:79,1,160,0|2
160,152,41676,1,0
80,152,41884,5,4
88,232,42092,1,0
88,232,42197,1,0
88,232,42301,2,0,B|128:272|176:224|240:264,1,160,2|0
184,320,42926,2,0,B|216:352|280:328,1,80,0|2
336,312,43342,1,0
312,236,43551,1,4
356,84,43967,6,0,B|332:44|260:52,1,80,2|0
208,60,44384,2,0,B|128:100|144:204,1,160,0|2
152,272,45009,2,0,B|160:336|224:336,1,80,0|4
280,328,45426,5,0
240,256,45634,1,2
280,184,45842,1,0
336,240,46051,2,0,B|376:216|368:160,1,80,0|0
440,128,46467,2,0,B|416:80|360:88,1,80,2|0
296,96,46884,1,4
232,232,47301,6,0,B|152:224|112:136,1,160,2|0
256,160,47926,2,0,B|198:160|178:97,1,80,0|2
256,80,48342,1,0
256,80,48551,5,4
328,40,48759,1,0
392,88,48967,1,2
428,160,49176,2,0,B|420:224|372:248|372:312,1,160
296,284,49801,2,0,B|208:244|128:292,1,160,2|4
104,356,50426,5,0
56,292,50634,2,0,B|32:240|60:200,1,80
128,196,51052,1,2
172,73,51260,1,0
216,196,51468,1,0
94,114,51676,1,0
243,114,51884,1,4
324,112,52092,5,0
396,148,52301,2,0,B|428:252|348:308,1,160,2|0
288,268,52926,1,0
240,332,53134,1,2
176,284,53342,1,0
100,308,53551,6,0,B|84:244|132:196|196:212,1,160,4|2
192,132,54176,1,0
168,56,54384,2,0,B|232:40|280:88|264:152,1,160,0|2
316,204,55009,1,0
316,204,55217,5,4
364,268,55426,1,0
364,268,55634,1,2
312,328,55842,2,0,B|228:328,1,80
236,248,56259,2,0,B|152:248,1,80,0|2
140,328,56676,6,0,B|36:328,1,80,0|4
44,248,57092,1,0
44,248,57301,2,0,B|28:168|28:168|68:128|68:72,1,160,2|0
128,152,57926,2,0,B|112:192|112:192|120:224|112:248,1,80,0|2
192,208,58342,1,0
240,144,58551,5,4
276,216,58759,1,0
348,248,58967,1,2
288,300,59176,1,0
276,216,59384,1,0
320,148,59592,2,0,B|383:148|383:148|407:156|407:156|479:156,1,160
452,80,60217,1,4
384,36,60426,2,0,B|321:36|321:36|297:28|297:28|225:28,1,160
256,192,61051,12,0,62301
256,200,62717,5,2
256,200,63134,1,2
256,200,63551,5,4
248,120,63759,1,0
176,80,63967,1,8
104,120,64176,2,0,B|80:176|96:232,1,80
152,248,64592,2,0,B|176:192|160:136,1,80,0|8
176,80,65009,1,0
240,32,65217,5,4
312,72,65426,1,0
360,136,65634,2,0,B|400:200|400:200|400:296,1,160,8|0
320,288,66259,1,0
240,288,66467,1,8
176,240,66676,1,0
96,256,66884,6,0,B|80:200|144:176|136:80,1,160,4|8
208,72,67509,1,0
208,72,67717,1,0
272,120,67926,1,0
272,120,68134,1,8
328,64,68342,1,0
328,64,68551,6,0,B|392:64|408:128,1,80,4|0
408,176,68967,2,0,B|416:224|384:256,2,80,8|0|0
336,200,69592,1,0
272,152,69801,1,8
192,160,70009,1,0
136,224,70217,6,0,B|88:167|107:100|164:72,1,160,4|8
216,40,70842,1,0
296,24,71051,1,0
360,72,71259,1,0
384,152,71467,2,0,B|384:208|384:208|352:256|288:232,1,160,8|4
248,168,72092,5,0
232,88,72301,2,0,B|176:88|176:88|128:120|152:184,1,160,8|0
104,248,72926,1,0
56,312,73134,1,8
104,248,73342,1,0
184,232,73551,5,4
248,280,73759,1,0
312,320,73967,2,0,B|344:272|296:216|296:216|320:176,1,160,8|0
304,96,74592,1,0
304,96,74801,1,8
224,88,75009,1,0
224,88,75217,6,0,B|172:108,6,40
148,112,76051,1,0
80,156,76259,2,0,B|48:196|48:196|48:244,1,80,0|8
104,284,76676,2,0,B|136:252|136:252|136:204,1,80,0|4
212,196,77092,5,0
288,164,77301,1,8
364,192,77509,1,0
372,272,77717,1,0
308,320,77926,1,0
232,296,78134,1,8
152,300,78342,6,0,B|88:316|48:292,1,80,0|4
100,228,78759,2,0,B|57:231|25:166,1,80,0|8
64,112,79176,1,0
64,112,79384,2,0,B|112:48|224:48,1,160,0|8
236,124,80009,1,0
288,64,80218,5,4
360,104,80426,1,0
300,164,80634,1,8
376,200,80843,1,0
332,280,81051,1,0
256,240,81259,1,0
236,316,81468,2,0,B|188:316|172:276|180:244|180:244|138:208,1,160,8|4
112,132,82093,5,0
116,108,82197,1,0
124,84,82301,1,8
140,68,82405,1,0
160,56,82509,1,0
184,52,82613,1,0
208,52,82718,2,0,B|264:52|280:84|280:84|280:132|240:164,1,160,0|8
184,192,83343,5,0
112,224,83551,2,0,B|128:272|192:272,1,80,4|0
248,296,83968,1,8
280,368,84176,2,0,B|328:352|328:288,1,80
344,232,84593,1,0
364,156,84801,1,8
328,84,85009,1,0
248,96,85218,6,0,B|203:105|168:80|168:80|114:109|76:91,1,160,4|0
64,176,85843,1,0
64,216,85947,1,0
80,248,86051,1,8
112,272,86155,1,0
152,280,86259,1,0
192,272,86363,1,0
224,248,86468,1,0
256,172,86676,1,0
256,192,86884,12,0,89384
