osu file format v9

[General]
AudioFilename: Inukami_-_Hikari_TV_Size [-Sekai-].mp3
AudioLeadIn: 2000
PreviewTime: 63538
Countdown: 0
SampleSet: Soft
StackLeniency: 0.7
Mode: 0
LetterboxInBreaks: 0

[Editor]
Bookmarks: 30621
DistanceSpacing: 1
BeatDivisor: 4
GridSize: 4

[Metadata]
Title:Hikari (TV Size)
Artist:Horie Yui
Creator:-Sekai-
Version:Easy
Source:Inukami!
Tags:Fiya Saten-san Saten DarknessAngel opening

[Difficulty]
HPDrainRate:1
CircleSize:3
OverallDifficulty:1
ApproachRate:2
SliderMultiplier:0.8
SliderTickRate:1

[Events]
//Background and Video events
0,0,"27996.jpg"
Video,0,"Inukami op.avi"
//Break Periods
//Storyboard Layer 0 (Background)
//Storyboard Layer 1 (Fail)
//Storyboard Layer 2 (Pass)
//Storyboard Layer 3 (Foreground)
//Storyboard Sound Samples
//Background Colour Transformations
3,100,163,162,255

[TimingPoints]
218,416.666666666667,4,2,1,70,1,0
6884,-100,4,1,1,50,0,0
30634,-100,4,2,1,70,0,0
63551,-100,4,1,1,50,0,1
83134,-100,4,1,1,50,0,1
86884,-100,4,2,1,30,0,0
89176,-100,4,2,0,5,0,0

[Colours]
Combo1 : 111,183,255
Combo2 : 0,176,0
Combo3 : 136,255,136
Combo4 : 255,145,200

[HitObjects]
160,40,218,2,0,B|96:56|112:136|48:144,1,160,4|0
84,216,1468,1,2
8,244,1884,2,0,B|24:300|88:300|88:300|144:328,1,160,0|0
208,288,3134,1,0
268,232,3551,5,4
276,152,3968,2,0,B|288:108|352:104,1,80,2|0
416,112,4801,1,2
472,172,5218,1,4
444,248,5634,2,0,B|428:292|380:288,2,80,2|0|2
408,176,6884,6,0,B|408:88|296:56,1,160,4|8
272,128,8134,2,0,B|248:160|248:160|200:160,1,80,0|4
148,104,8968,2,0,B|172:72|172:72|220:72,1,80,8|0
284,36,9801,1,8
364,40,10218,6,0,B|364:88|404:104|404:104|380:144|412:192,1,160,4|8
372,252,11468,2,0,B|340:292|284:284,1,80,0|4
224,272,12301,2,0,B|240:224|272:208,1,80,8|0
312,140,13134,1,8
232,136,13551,6,0,B|232:88|276:52|328:48|360:76,1,160,4|8
416,112,14801,1,0
416,192,15217,2,0,B|416:288,1,80,4|8
336,272,16051,5,0
256,248,16467,1,8
176,276,16884,1,4
100,248,17301,2,0,B|100:212|144:184|180:184|180:184|204:148|308:148|332:184|332:184|372:184|416:208|420:252,1,400,8|0
496,228,19801,6,0,B|496:172|464:156,1,80,8|4
408,104,20634,1,8
392,24,21051,2,0,B|336:32|328:88,2,80,0|8|4
408,104,22301,2,0,B|464:96|472:40,2,80,8|0|8
328,104,23551,5,4
248,112,23968,2,0,B|184:88|152:144|80:120,1,160,8|8
56,196,25218,2,0,B|56:252|56:252|88:300|160:268,1,160,4|0
136,192,26468,2,0,B|176:176|216:224,1,80,8|4
252,280,27301,5,8
316,232,27718,1,0
328,152,28134,1,8
248,128,28551,2,0,B|192:128|192:128|160:120|160:120|88:120,1,160,4|0
56,192,29801,2,0,B|40:240|40:240|48:280,1,80,8|4
120,296,30634,6,0,B|200:328|288:296,1,160,2|2
288,220,31884,1,4
288,140,32301,2,0,B|216:92|123:105,1,160,2|2
112,180,33551,1,4
144,252,33968,6,0,B|176:308|256:284|288:324,1,160,2|2
364,320,35218,2,0,B|404:280|364:224|404:168,1,160,4|2
376,92,36468,1,0
300,68,36884,1,4
224,88,37301,6,0,B|188:108|188:108|152:88|113:110|113:110|72:88,1,160,2|2
56,172,38551,2,0,B|24:212|48:252,1,80,4|2
120,224,39384,1,0
200,248,39801,1,2
272,288,40217,6,0,B|304:240|288:200|256:168|232:168|200:168,1,160,4|2
144,136,41467,1,0
64,128,41884,2,0,B|63:114|63:90|95:58|135:42|184:64,1,160,4|2
252,100,43134,1,0
308,156,43551,1,4
372,108,43967,6,0,B|400:148|388:188,1,80,2|0
360,260,44801,2,0,B|328:284|280:276,1,80,2|4
208,248,45634,1,2
128,248,46051,2,0,B|128:192|128:192|136:168|136:168|136:80,1,160,0|4
212,64,47301,5,2
288,32,47717,1,0
360,68,48134,1,2
400,136,48551,2,0,B|424:184|416:224,2,80,4|2|0
320,136,49801,2,0,B|288:160|232:144,1,80,2|4
240,228,50634,6,0,B|300:248|300:316|300:316|280:368,1,160,2|2
216,308,51884,2,0,B|136:288,1,80,4|2
68,248,52717,1,0
80,168,53134,1,2
36,100,53551,2,0,B|84:76|128:104|128:104|200:104,1,160,4|2
264,68,54801,5,0
344,80,55217,2,0,B|392:104|400:144,1,80,4|2
396,216,56051,2,0,B|404:264|368:296,1,80,0|2
316,232,56884,2,0,B|248:192|156:196,1,160,4|2
104,140,58134,6,0,B|60:68,1,80,0|4
132,32,58967,2,0,B|180:104,1,80,2|0
248,60,59801,1,2
324,88,60217,1,4
256,192,60634,12,2,62717
316,40,63551,6,0,B|368:56|380:96,1,80,4|8
364,168,64384,2,0,B|368:216|332:244,1,80,0|8
256,232,65217,1,4
196,284,65634,2,0,B|148:272|136:220,2,80,8|0|8
268,316,66884,5,4
340,348,67301,1,8
404,304,67717,2,0,B|404:260|404:260|412:228|412:228|412:140,1,160,0|4
352,92,68967,2,0,B|304:52|264:56,1,80,8|0
268,136,69801,6,0,B|216:124|184:152,1,80,8|4
232,216,70634,1,8
232,296,71051,1,0
160,260,71467,1,8
88,292,71884,6,0,B|68:248|96:204,1,80,4|8
128,144,72717,1,0
200,112,73134,1,8
276,136,73551,1,4
256,192,73967,12,0,76051
256,304,76884,5,4
304,240,77301,1,8
224,224,77717,2,0,B|232:164|292:156|292:156|324:108,1,160,0|4
256,64,78968,1,8
180,40,79384,1,0
100,52,79801,6,0,B|52:80|56:128,1,80,8|4
92,184,80634,2,0,B|140:156|136:108,2,80,8|0|8
68,260,81884,1,4
132,308,82301,2,0,B|196:336|196:336|292:336,1,160,8|8
348,288,83551,5,4
388,216,83968,2,0,B|416:136|360:52,1,160,8|8
300,108,85218,2,0,B|228:144|136:112,1,160,4|0
256,192,86259,12,0,89384
