osu file format v9

[General]
AudioFilename: Inukami_-_Hikari_TV_Size [-Sekai-].mp3
AudioLeadIn: 2000
PreviewTime: 63538
Countdown: 0
SampleSet: Normal
StackLeniency: 0.7
Mode: 0
LetterboxInBreaks: 0

[Editor]
Bookmarks: 30621
DistanceSpacing: 1.2
BeatDivisor: 4
GridSize: 4

[Metadata]
Title:Hikari (TV Size)
Artist:Horie Yui
Creator:-Sekai-
Version:D.N.Angel
Source:Inukami!
Tags:Fiya Saten-san Saten DarknessAngel opening

[Difficulty]
HPDrainRate:6
CircleSize:4
OverallDifficulty:7
ApproachRate:8
SliderMultiplier:1.8
SliderTickRate:2

[Events]
//Background and Video events
0,0,"27996.jpg"
Video,0,"Inukami op.avi"
//Break Periods
//Storyboard Layer 0 (Background)
//Storyboard Layer 1 (Fail)
//Storyboard Layer 2 (Pass)
//Storyboard Layer 3 (Foreground)
//Storyboard Sound Samples
//Background Colour Transformations
3,100,163,162,255

[TimingPoints]
218,416.666666666667,4,2,1,70,1,0
6884,-100,4,1,0,55,0,0
30218,-200,4,2,0,70,0,0
30634,-100,4,2,1,70,0,0
62718,-100,4,1,0,50,0,0
63551,-100,4,1,0,55,0,1
76051,-200,4,1,0,55,0,1
76884,-100,4,1,0,55,0,1
86884,-100,4,1,0,55,0,0
87301,-100,4,2,0,70,0,0
87405,-100,4,2,0,30,0,0
88134,-100,4,2,0,70,0,0
88447,-100,4,2,0,30,0,0

[Colours]
Combo1 : 111,183,255
Combo2 : 0,176,0
Combo3 : 136,255,136
Combo4 : 255,145,200

[HitObjects]
80,136,218,1,4
132,228,426,1,0
140,336,634,1,0
184,324,738,1,0
220,296,843,1,0
260,92,1051,1,0
216,104,1155,1,0
180,132,1259,1,0
264,200,1468,6,0,B|312:208|340:244,1,90
400,332,1884,2,0,B|435:303|443:255,1,90
392,160,2301,1,0
376,52,2509,2,0,B|424:52|460:76,1,90
392,160,2926,1,0
284,144,3134,2,0,B|236:144|200:120,1,90
120,44,3551,5,4
60,136,3759,2,0,B|36:176,1,45,0|0
144,192,4072,2,0,B|180:216,1,45
100,284,4384,1,0
132,316,4488,1,0
176,328,4593,1,0
284,312,4801,2,0,B|316:280|320:232,1,90
244,156,5218,5,0
248,112,5322,1,0
268,72,5426,1,0
308,52,5530,1,0
352,52,5634,1,0
396,68,5738,1,0
424,104,5843,1,0
352,184,6051,5,2
108,300,6468,1,2
404,300,6884,5,4
260,188,7093,1,0
316,360,7301,1,8
352,184,7509,1,0
160,184,7718,2,0,B|168:232|204:264,1,90
296,108,8134,1,8
124,52,8343,6,0,B|80:64|48:96|36:148|52:196,1,180
280,328,8968,2,0,B|324:316|356:284|368:232|352:184,2,180,8|0|8
216,116,10009,6,0,B|196:156|208:204,1,90
448,140,10426,2,0,B|468:100|456:52,1,90,0|8
328,180,10843,1,0
448,140,11051,1,0
216,116,11259,2,0,B|172:96|152:56,1,90,0|8
328,180,11676,6,0,B|368:204|392:244|404:292|400:336,1,180
184,180,12301,2,0,B|144:204|120:244|108:292|112:336,1,180,8|0
256,64,13134,5,8
156,100,13342,2,0,B|72:132,1,90,0|4
356,100,13759,2,0,B|440:132,1,90,0|8
372,216,14176,2,0,B|352:256|312:284,1,90
140,216,14592,2,0,B|160:256|200:284,1,90,0|8
176,100,15009,6,0,B|88:76|88:76|8:116,1,180
336,100,15634,2,0,B|424:76|424:76|504:116,1,180,8|0
412,176,16259,5,0
348,264,16467,2,0,B|324:304|280:324,1,90,8|0
176,324,16884,1,0
176,324,16988,1,0
176,324,17092,2,0,B|156:280|112:260,1,90,0|8
72,164,17509,2,0,B|28:180|12:228,2,90,8|0|0
172,124,18134,5,8
212,108,18238,1,0
252,84,18342,1,0
284,52,18447,1,0
308,12,18551,1,0
412,40,18759,2,0,B|456:56,2,45,0|0|8
356,132,19176,1,0
144,296,19384,5,8
144,296,19488,1,0
368,280,19697,1,0
368,280,19801,1,8
144,140,20009,2,0,B|168:184|216:200,1,90,8|4
232,92,20426,5,8
200,60,20530,1,0
160,44,20634,1,0
116,44,20738,1,0
76,64,20843,1,8
40,164,21051,1,0
112,244,21259,1,8
112,244,21363,2,0,B|144:280|184:296|232:300,1,135,8|0
408,268,21884,6,0,B|452:284|472:328,1,90,4|8
272,164,22301,2,0,B|228:148|208:104,1,90,8|0
472,48,22718,2,0,B|456:92|412:112,1,90,8|0
380,156,23030,2,0,B|348:188|332:232,1,90,8|0
304,276,23343,1,8
76,244,23551,5,4
104,280,23655,1,8
140,304,23759,1,0
184,320,23863,1,0
228,320,23968,1,8
180,224,24176,2,0,B|188:176|172:132,1,90,0|8
88,68,24593,1,8
136,44,24697,2,0,B|160:29|191:24|221:30,1,90
272,48,25009,1,0
472,116,25218,5,8
460,72,25322,1,0
432,36,25426,1,0
256,156,25634,2,0,B|256:252,1,90,8|0
120,232,26051,1,8
100,192,26155,1,0
392,232,26363,1,0
412,192,26468,1,8
256,48,26676,1,0
256,156,26884,5,2
256,200,26988,1,0
256,244,27093,1,2
368,328,27301,2,2,B|416:328|452:300,1,90,2|0
144,328,27718,2,0,B|96:328|60:300,1,90,2|0
84,252,28030,2,0,B|104:208|88:164,1,90,2|0
56,124,28343,1,2
256,48,28551,5,2
256,48,28655,1,0
256,48,28759,1,0
176,120,28968,2,0,B|180:168|208:208,1,90,0|2
444,68,29384,5,2
400,80,29488,1,0
364,108,29593,1,2
344,148,29697,1,2
336,192,29801,1,0
344,236,29905,1,0
364,276,30009,1,2
400,304,30113,1,0
444,316,30218,6,0,B|472:276|468:232,1,90,4|0
428,132,30843,5,2
332,80,31051,2,0,B|292:56|244:56,1,90,0|2
168,244,31468,2,0,B|213:244|253:220,1,90,0|0
104,132,31884,6,0,B|80:168|72:220|76:268|96:308,1,180,2|0
312,340,32509,2,0,B|336:304|344:252|340:204|320:164,1,180,2|0
216,136,33134,1,8
216,136,33238,1,0
216,136,33343,2,0,B|228:88|272:72,2,90,2|4|0
124,192,33968,5,2
216,244,34176,1,0
124,304,34384,2,0,B|80:328|32:320,1,90,0|2
68,40,34801,2,0,B|44:84|52:132,1,90
312,196,35218,6,0,B|324:152|320:104|296:64|252:40,1,180,2|0
220,144,35843,2,0,B|208:188|212:236|236:276|280:300,1,180,2|8
388,308,36468,1,0
388,308,36572,1,0
388,308,36676,2,0,B|424:280|472:276,2,90,8|4|0
364,204,37301,6,0,B|340:160|292:152,1,90,2|0
188,180,37718,2,0,B|212:224|260:232,1,90,0|2
296,36,38134,2,0,B|341:43|365:87,1,90
136,88,38551,2,0,B|100:112|80:156|84:208|112:252,1,180,2|0
364,204,39176,2,0,B|390:245|394:297|374:341|338:365,1,180,2|0
292,268,39801,2,0,B|244:268|208:296,1,90
120,360,40217,6,0,B|93:318|89:266|109:222|145:199,1,180,2|0
432,96,41051,2,0,B|408:60|364:40|312:44|271:70,1,180,2|0
344,148,41676,1,0
336,256,41884,1,8
380,252,41988,1,8
420,236,42092,1,0
448,200,42197,1,0
456,156,42301,1,8
244,108,42509,5,8
232,152,42613,1,0
248,196,42717,1,0
344,148,42926,2,0,B|364:104|344:56,1,90,8|0
132,64,43342,2,0,B|112:108|132:156,1,90,8|4
368,344,43967,5,2
288,272,44176,2,0,B|260:308|260:360,1,90
368,344,44592,1,2
448,272,44801,2,0,B|475:307|475:355,1,90
368,248,45217,6,0,B|348:208|344:160|360:112|392:80,1,180,2|0
144,248,45842,2,0,B|164:208|168:160|152:112|120:80,1,180,2|0
60,172,46467,1,8
48,216,46572,1,0
60,260,46676,1,0
132,340,46884,2,0,B|180:340|216:312,1,90,4|0
276,224,47301,6,0,B|312:252|328:296,1,90,2|0
208,164,47717,1,0
60,60,47926,1,2
208,164,48134,2,0,B|252:148|280:100,1,90
60,60,48551,6,0,B|40:104|64:156,2,90,2|0|0
208,164,49176,2,0,B|296:176|388:152,1,180,2|8
472,84,49801,1,0
368,52,50009,1,8
472,84,50218,2,0,B|496:120|488:172,1,90,4|0
428,260,50634,5,2
328,304,50842,1,0
204,172,51051,1,0
368,52,51259,1,2
272,232,51467,1,0
284,32,51676,1,0
104,124,51884,6,0,B|88:168|100:212,1,90,2|0
348,160,52301,1,0
256,104,52509,2,0,B|188:44|92:32,1,180,2|0
104,140,53134,2,0,B|124:184|172:196,1,90,2|0
348,160,53551,5,4
332,204,53655,1,0
308,240,53759,1,2
272,268,53863,1,0
228,280,53967,1,2
120,276,54176,1,0
136,316,54280,1,0
164,352,54384,2,0,B|208:376|256:364,1,90,2|0
196,168,54801,5,2
328,320,55009,1,0
260,128,55217,1,0
392,284,55426,2,0,B|428:260|440:208,1,90,2|0
320,64,55842,2,0,B|356:96|368:140|360:188|328:232,1,180,2|0
193,63,56467,2,0,B|157:95|145:139|153:187|185:231,1,180,2|4
256,308,57092,6,0,B|296:328,2,45,0|0|2
148,300,57509,1,0
108,320,57613,1,0
80,356,57717,1,2
84,248,57926,1,0
104,208,58030,1,0
100,164,58134,1,2
100,56,58342,6,0,B|52:64|20:92,1,90,2|4
280,140,58759,2,0,B|328:132|360:104,1,90,0|2
260,60,59176,2,0,B|212:68|180:96,1,90,2|0
200,204,59592,5,0
272,284,59801,1,0
372,320,60009,2,0,B|408:292|432:248|436:200|424:156,1,180,2|0
364,68,60634,2,0,B|400:44,2,45,2|0|0
256,56,61051,1,0
212,52,61155,1,8
284,132,61363,1,0
248,160,61467,1,8
144,132,61676,1,0
80,220,61884,6,0,B|80:272|100:308,1,90,8|0
432,220,62301,2,0,B|432:272|412:308,1,90,8|0
248,160,62717,5,0
216,192,62822,1,0
220,236,62926,1,0
256,260,63030,1,0
292,288,63134,1,0
300,332,63238,1,0
264,360,63342,1,0
220,360,63447,1,0
200,320,63551,6,0,B|160:296|112:304,1,90,4|0
200,64,63967,2,0,B|160:88|112:80,1,90,8|0
44,192,64384,2,0,B|136:192,1,90
256,192,64801,1,8
456,128,65009,6,0,B|440:88|404:56|360:36|312:32,1,180
313,351,65634,2,0,B|360:348|404:328|440:296|456:256,2,180,8|0|8
256,192,66676,5,0
112,272,66884,2,0,B|132:312|176:336,1,90,4|0
174,48,67301,2,0,B|132:72|112:112,1,90,8|0
256,192,67717,1,0
356,148,67926,1,0
388,120,68030,1,0
408,80,68134,1,8
256,192,68342,6,0,B|240:232|248:280|280:320|328:336,1,180
256,192,68967,2,0,B|220:160|172:160,1,90,8|0
436,304,69384,1,0
436,304,69488,1,0
436,304,69592,1,0
436,304,69697,1,0
436,304,69801,2,0,B|460:264|456:216,1,90,8|0
372,56,70217,5,4
100,60,70426,2,0,B|136:92|184:96,1,90,0|8
100,324,70842,2,0,B|136:292|184:288,1,90
332,192,71259,2,0,B|244:192,1,90,0|8
312,288,71676,6,0,B|388:340|388:340|480:340,1,180
475,44,72301,2,0,B|388:44|388:44|312:96,1,180,8|0
212,136,72926,2,0,B|236:180|280:196,1,90,0|8
384,192,73342,1,0
236,292,73551,5,0
196,308,73655,1,0
152,300,73759,1,0
36,164,73967,1,8
212,136,74176,1,0
208,180,74280,2,0,B|180:220|136:228,1,90
88,224,74592,5,0
316,248,74801,1,8
116,104,75009,1,0
384,80,75217,5,0
344,56,75322,1,0
300,44,75426,1,0
256,44,75530,1,0
212,56,75634,1,8
356,168,75842,1,0
440,328,76051,6,0,B|468:292|468:244,1,90,0|8
72,328,76884,5,4
188,160,77092,1,0
196,360,77301,1,8
76,196,77509,2,0,B|56:156|64:108,1,90
264,256,77926,2,0,B|303:235|325:191,1,90,0|8
336,56,78342,5,0
380,52,78447,1,0
424,64,78551,1,0
456,96,78655,1,0
472,140,78759,1,0
408,284,78968,1,8
408,284,79072,1,0
408,284,79176,2,0,B|432:320|480:340,2,90
264,256,79801,6,0,B|228:280|212:328,1,90,8|0
352,212,80218,2,0,B|328:176|280:160,1,90,4|0
72,180,80634,2,0,B|96:216|144:232,1,90,8|0
188,40,81051,1,0
72,180,81259,1,0
236,108,81468,1,8
72,36,81676,6,0,B|116:116|188:172,1,180
332,60,82301,1,8
340,104,82405,1,0
332,148,82509,1,0
308,188,82613,1,0
272,212,82718,2,0,B|240:248|240:296,1,90
376,300,83134,6,0,B|408:264|408:212,1,90,8|0
136,300,83551,2,0,B|104:264|104:212,1,90,4|0
128,84,83968,2,0,B|80:68|40:96,2,90,8|0|0
384,84,84593,2,0,B|432:68|472:96,1,90,0|8
376,320,85009,6,0,B|340:296|316:248|320:200|336:156,1,180
136,320,85634,2,0,B|172:296|196:248|192:200|176:156,1,180,8|0
76,192,86259,5,0
76,148,86363,1,0
88,104,86468,1,0
124,76,86572,1,0
168,64,86676,2,0,B|216:56|260:64|300:88|324:128,1,180
276,224,87301,2,0,B|324:232|368:224|408:200|432:160,2,180,4|2|4
196,152,88343,2,0,B|152:156|112:184|96:232|112:284|148:324|216:312,1,270,4|0
