osu file format v12

[General]
AudioFilename: Horie Yui - Endless Seventeen (Miss Monochrome ED).mp3
AudioLeadIn: 0
PreviewTime: 29209
Countdown: 1
SampleSet: Normal
StackLeniency: 0.7
Mode: 0
LetterboxInBreaks: 1
WidescreenStoryboard: 1

[Editor]
DistanceSpacing: 0.9
BeatDivisor: 4
GridSize: 8

[Metadata]
Title:Endless Seventeen
TitleUnicode:Endless Seventeen
Artist:Horie Yui
ArtistUnicode:Horie Yui
Creator:BuBBLe1q
Version:Normal
Source:Miss Monochrome: The Animation
Tags:vocaloid miss monochrome
BeatmapID:311129
BeatmapSetID:121548

[Difficulty]
HPDrainRate:5
CircleSize:3
OverallDifficulty:5
ApproachRate:5
SliderMultiplier:1.6
SliderTickRate:2

[Events]
//Background and Video events
Video,-462,"ミス・モノクロームザアニメーションED [Miss.Monochrome The Animation ED].flv"
0,0,"Безымянный.jpg",0,0
//Break Periods
//Storyboard Layer 0 (Background)
//Storyboard Layer 1 (Fail)
//Storyboard Layer 2 (Pass)
//Storyboard Layer 3 (Foreground)
//Storyboard Sound Samples
//Background Colour Transformations
3,100,163,162,255

[TimingPoints]
974.589805453431,441.176470588235,4,1,0,20,1,0
29209,-100,4,1,0,20,0,1
42445,-100,4,1,0,20,0,0
43327,-100,4,1,0,20,0,1
56562,-100,4,1,0,20,0,0

[Colours]
Combo1 : 0,0,0
Combo2 : 255,255,255
Combo3 : 192,192,192
Combo4 : 128,128,128

[HitObjects]
88,168,974,2,0,P|120:128|248:112,1,160
328,176,1856,2,0,P|296:216|248:224,2,80
456,160,2739,2,0,P|456:256|408:336,1,160
368,336,3401,1,0,0:0:0:0:
304,328,3621,2,0,P|208:336|136:288,1,160
48,232,4504,6,0,P|72:176|168:128,1,160
245,219,5386,1,0,0:0:0:0:
302,192,5606,1,0,0:0:0:0:
347,146,5827,1,0,0:0:0:0:
240,80,6268,2,0,P|184:96|104:256,2,240
344,152,8033,6,0,B|366:190|366:190|424:232|414:310,1,160
288,296,8915,2,0,B|248:296|248:296|177:342|120:312,1,160
240,216,9798,1,0,0:0:0:0:
162,193,10018,2,0,P|112:168|88:120,1,80
200,64,10680,2,0,P|256:48|304:64,1,80
339,63,11121,2,0,P|379:71|419:111,1,80
304,168,11783,5,0,0:0:0:0:
256,208,12004,1,0,0:0:0:0:
232,264,12224,1,0,0:0:0:0:
168,256,12445,2,0,P|192:320|288:296,1,160
416,304,13327,1,0,0:0:0:0:
400,224,13548,2,0,P|408:184|432:136,1,80
448,112,13989,2,0,P|472:64|472:0,1,80
344,48,14651,1,0,0:0:0:0:
128,48,15312,5,0,0:0:0:0:
184,96,15533,2,0,B|152:136|152:136|68:143|48:192,1,160
152,288,16415,1,0,0:0:0:0:
216,320,16636,2,0,P|296:296|344:232,1,160
368,168,17298,2,0,P|400:200|408:256,1,80
400,304,17739,2,0,P|352:328|248:296,1,160
160,296,18621,6,0,P|96:264|88:104,2,240
256,192,20165,12,0,22151,0:0:0:0:
256,192,22592,5,0,0:0:0:0:
112,208,23033,2,0,P|128:264|224:320,1,160
344,272,23915,2,0,P|376:224|480:216,2,160
200,304,25239,1,0,0:0:0:0:
256,192,25680,6,0,L|80:144,2,160
208,312,27004,1,0,0:0:0:0:
336,320,27445,1,0,0:0:0:0:
424,224,27886,1,0,0:0:0:0:
448,96,28327,1,0,0:0:0:0:
328,136,28768,6,0,P|272:104|144:104,2,160
224,216,30092,2,0,P|296:208|376:264,2,160
112,152,31415,2,0,P|88:216|144:304,1,160
200,312,32077,1,0,0:0:0:0:
272,304,32298,1,0,0:0:0:0:
232,216,32739,6,0,L|384:320,2,160
352,168,34062,2,0,P|392:120|272:144,1,320
176,224,35386,2,0,P|136:200|80:80,1,160
128,48,36048,1,0,0:0:0:0:
200,40,36268,5,0,0:0:0:0:
200,184,36709,2,0,P|264:232|352:232,1,160
472,96,37592,1,0,0:0:0:0:
360,40,38033,6,0,P|320:64|304:112,1,80
232,96,38474,2,0,P|215:60|159:44,1,80
112,48,38915,1,0,0:0:0:0:
56,88,39136,1,0,0:0:0:0:
48,160,39356,1,0,0:0:0:0:
184,208,39798,6,0,P|200:264|312:312,1,160
296,200,40680,2,0,P|357:183|413:103,1,160
256,192,41562,12,0,42886,0:0:0:0:
256,192,43327,6,0,P|232:160|176:128,1,80
136,128,43768,2,0,P|120:168|152:216,1,80
184,256,44209,2,0,B|217:301|289:293|289:293|321:333,1,160
384,304,44871,1,0,0:0:0:0:
432,240,45092,2,0,L|368:160,1,80
448,152,45533,2,0,L|480:72,1,80
408,56,45974,1,0,0:0:0:0:
408,56,46195,1,0,0:0:0:0:
408,56,46415,1,0,0:0:0:0:
288,128,46856,6,0,B|296:176|360:192|360:192|336:248,1,160
208,312,47739,2,0,P|184:264|200:208,1,80
112,248,48180,2,0,P|72:232|56:176,1,80
48,128,48621,2,0,P|96:80|136:80,1,80
144,144,49062,2,0,B|184:112|176:64|176:64|280:120|400:112,1,320
450,246,50386,5,0,0:0:0:0:
318,305,50827,1,0,0:0:0:0:
174,305,51268,1,0,0:0:0:0:
192,240,51489,2,0,P|144:208|96:200,1,80
64,152,51930,1,0,0:0:0:0:
136,128,52151,2,0,L|232:80,1,80
224,160,52592,2,0,L|312:200,1,80
368,193,53033,1,0,0:0:0:0:
368,193,53254,1,0,0:0:0:0:
368,193,53474,1,0,0:0:0:0:
352,48,53915,5,0,0:0:0:0:
300,99,54136,1,0,0:0:0:0:
249,149,54356,1,0,0:0:0:0:
249,293,54798,1,0,0:0:0:0:
198,242,55018,1,0,0:0:0:0:
146,190,55239,1,0,0:0:0:0:
72,312,55680,6,0,P|32:232|32:144,2,160
168,200,57004,1,0,0:0:0:0:
256,192,57445,12,0,59209,0:0:0:0:
